  0
SECTION
  2
HEADER
  9
$ACADVER
  1
AC1009
  9
$DWGCODEPAGE
  3
ansi_1252
  9
$INSBASE
 10
0.0
 20
0.0
 30
0.0
  9
$EXTMIN
 10
0.0
 20
0.0
 30
0.0
  9
$EXTMAX
 10
420.0
 20
297.0
 30
0.0
  9
$LIMMIN
 10
0.0
 20
0.0
  9
$LIMMAX
 10
0.0
 20
0.0
  9
$ORTHOMODE
 70
     0
  9
$REGENMODE
 70
     1
  9
$FILLMODE
 70
     1
  9
$QTEXTMODE
 70
     0
  9
$MIRRTEXT
 70
     1
  9
$DRAGMODE
 70
     2
  9
$LTSCALE
 40
1.0
  9
$OSMODE
 70
    37
  9
$ATTMODE
 70
     1
  9
$TEXTSIZE
 40
3.5
  9
$TRACEWID
 40
1.0
  9
$TEXTSTYLE
  7
STANDARD
  9
$CLAYER
  8
0
  9
$CELTYPE
  6
BYLAYER
  9
$CECOLOR
 62
   256
  9
$DIMSCALE
 40
1.0
  9
$DIMASZ
 40
5.0
  9
$DIMEXO
 40
1.0
  9
$DIMDLI
 40
3.75
  9
$DIMRND
 40
0.0
  9
$DIMDLE
 40
0.0
  9
$DIMEXE
 40
1.0
  9
$DIMTP
 40
0.0
  9
$DIMTM
 40
0.0
  9
$DIMTXT
 40
3.5
  9
$DIMCEN
 40
2.5
  9
$DIMTSZ
 40
0.0
  9
$DIMTOL
 70
     0
  9
$DIMLIM
 70
     0
  9
$DIMTIH
 70
     1
  9
$DIMTOH
 70
     1
  9
$DIMSE1
 70
     0
  9
$DIMSE2
 70
     0
  9
$DIMTAD
 70
     1
  9
$DIMZIN
 70
     0
  9
$DIMBLK
  1

  9
$DIMASO
 70
     1
  9
$DIMSHO
 70
     1
  9
$DIMPOST
  1

  9
$DIMAPOST
  1

  9
$DIMALT
 70
     0
  9
$DIMALTD
 70
     3
  9
$DIMALTF
 40
0.0393700787
  9
$DIMLFAC
 40
1.0
  9
$DIMTOFL
 70
     1
  9
$DIMTVP
 40
0.0
  9
$DIMTIX
 70
     0
  9
$DIMSOXD
 70
     0
  9
$DIMSAH
 70
     0
  9
$DIMBLK1
  1

  9
$DIMBLK2
  1

  9
$DIMSTYLE
  2
ISO-25
  9
$DIMCLRD
 70
     0
  9
$DIMCLRE
 70
     0
  9
$DIMCLRT
 70
     0
  9
$DIMTFAC
 40
1.0
  9
$DIMGAP
 40
1.524
  9
$LUNITS
 70
     2
  9
$LUPREC
 70
     2
  9
$SKETCHINC
 40
1.0
  9
$FILLETRAD
 40
10.0
  9
$AUNITS
 70
     0
  9
$AUPREC
 70
     0
  9
$MENU
  1
.
  9
$ELEVATION
 40
0.0
  9
$PELEVATION
 40
0.0
  9
$THICKNESS
 40
0.0
  9
$LIMCHECK
 70
     0
  9
$CHAMFERA
 40
10.0
  9
$CHAMFERB
 40
10.0
  9
$SKPOLY
 70
     0
  9
$TDCREATE
 40
2454489.390457535
  9
$TDUPDATE
 40
2454489.390457546
  9
$TDINDWG
 40
0.0000000116
  9
$TDUSRTIMER
 40
0.0000000116
  9
$USRTIMER
 70
     1
  9
$ANGBASE
 50
0.0
  9
$ANGDIR
 70
     0
  9
$PDMODE
 70
     0
  9
$PDSIZE
 40
-1.0
  9
$PLINEWID
 40
0.0
  9
$COORDS
 70
     1
  9
$SPLFRAME
 70
     0
  9
$SPLINETYPE
 70
     6
  9
$SPLINESEGS
 70
     8
  9
$ATTDIA
 70
     0
  9
$ATTREQ
 70
     1
  9
$HANDLING
 70
     1
  9
$HANDSEED
  5
13D
  9
$SURFTAB1
 70
     6
  9
$SURFTAB2
 70
     6
  9
$SURFTYPE
 70
     6
  9
$SURFU
 70
     6
  9
$SURFV
 70
     6
  9
$UCSNAME
  2

  9
$UCSORG
 10
0.0
 20
0.0
 30
0.0
  9
$UCSXDIR
 10
1.0
 20
0.0
 30
0.0
  9
$UCSYDIR
 10
0.0
 20
1.0
 30
0.0
  9
$PUCSNAME
  2

  9
$PUCSORG
 10
0.0
 20
0.0
 30
0.0
  9
$PUCSXDIR
 10
1.0
 20
0.0
 30
0.0
  9
$PUCSYDIR
 10
0.0
 20
1.0
 30
0.0
  9
$USERI1
 70
     0
  9
$USERI2
 70
     0
  9
$USERI3
 70
     0
  9
$USERI4
 70
     0
  9
$USERI5
 70
     0
  9
$USERR1
 40
0.0
  9
$USERR2
 40
0.0
  9
$USERR3
 40
0.0
  9
$USERR4
 40
0.0
  9
$USERR5
 40
0.0
  9
$WORLDVIEW
 70
     1
  9
$SHADEDGE
 70
     3
  9
$SHADEDIF
 70
    70
  9
$TILEMODE
 70
     1
  9
$MAXACTVP
 70
    64
  9
$PLIMCHECK
 70
     0
  9
$PEXTMIN
 10
1.0000000000E+20
 20
1.0000000000E+20
 30
1.0000000000E+20
  9
$PEXTMAX
 10
-1.0000000000E+20
 20
-1.0000000000E+20
 30
-1.0000000000E+20
  9
$PLIMMIN
 10
0.0
 20
0.0
  9
$PLIMMAX
 10
420.0
 20
297.0
  9
$UNITMODE
 70
     0
  9
$VISRETAIN
 70
     1
  9
$PLINEGEN
 70
     0
  9
$PSLTSCALE
 70
     1
  0
ENDSEC
  0
SECTION
  2
TABLES
  0
TABLE
  2
VPORT
 70
     1
  0
VPORT
  2
*ACTIVE
 70
     0
 10
0.0
 20
0.0
 11
1.0
 21
1.0
 12
210.0
 22
148.5
 13
0.0
 23
0.0
 14
10.0
 24
10.0
 15
10.0
 25
10.0
 16
0.0
 26
0.0
 36
1.0
 17
0.0
 27
0.0
 37
0.0
 40
297.0
 41
1.4141414141
 42
50.0
 43
0.0
 44
0.0
 50
0.0
 51
0.0
 71
     0
 72
  2000
 73
     1
 74
     3
 75
     0
 76
     0
 77
     0
 78
     0
  0
ENDTAB
  0
TABLE
  2
LTYPE
 70
     6
  0
LTYPE
  2
CONTINUOUS
 70
     0
  3
Solid line
 72
    65
 73
     0
 40
0.0
  0
LTYPE
  2
HIDDEN
 70
     0
  3
Hidden __ __ __ __ __ __ __ __ __ __ __ __ __ __
 72
    65
 73
     2
 40
1.905
 49
1.27
 49
-0.635
  0
LTYPE
  2
PHANTOM
 70
     0
  3
Phantom ______  __  __  ______  __  __  ______
 72
    65
 73
     6
 40
12.7
 49
6.35
 49
-1.27
 49
1.27
 49
-1.27
 49
1.27
 49
-1.27
  0
LTYPE
  2
CENTER
 70
     0
  3
Center ____ _ ____ _ ____ _ ____ _ ____ _ ____
 72
    65
 73
     4
 40
10.16
 49
6.35
 49
-1.27
 49
1.27
 49
-1.27
  0
LTYPE
  2
CENTERX2
 70
     0
  3
Center (2x) ________  __  ________  __  _____
 72
    65
 73
     4
 40
20.32
 49
12.7
 49
-2.54
 49
2.54
 49
-2.54
  0
LTYPE
  2
DOT2
 70
     0
  3
Dot (.5x) ........................................
 72
    65
 73
     2
 40
0.635
 49
0.0
 49
-0.635
  0
ENDTAB
  0
TABLE
  2
LAYER
 70
     6
  0
LAYER
  2
0
 70
     0
 62
     7
  6
CONTINUOUS
  0
LAYER
  2
DEFPOINTS
 70
     0
 62
     7
  6
CONTINUOUS
  0
LAYER
  2
7
 70
     0
 62
     7
  6
CONTINUOUS
  0
LAYER
  2
1
 70
     0
 62
     1
  6
CONTINUOUS
  0
LAYER
  2
2
 70
     0
 62
     2
  6
PHANTOM
  0
LAYER
  2
6
 70
     0
 62
     6
  6
CONTINUOUS
  0
ENDTAB
  0
TABLE
  2
STYLE
 70
     1
  0
STYLE
  2
STANDARD
 70
     0
 40
0.0
 41
1.0
 50
0.0
 71
     0
 42
2.5
  3
txt
  4

  0
ENDTAB
  0
TABLE
  2
VIEW
 70
     0
  0
ENDTAB
  0
TABLE
  2
UCS
 70
     0
  0
ENDTAB
  0
TABLE
  2
APPID
 70
     1
  0
APPID
  2
ACAD
 70
     0
  0
ENDTAB
  0
TABLE
  2
DIMSTYLE
 70
     3
  0
DIMSTYLE
  2
ISO-25
 70
     0
  3

  4

  5

  6

  7

 40
1.0
 41
2.5
 42
0.625
 43
3.75
 44
1.25
 45
0.0
 46
0.0
 47
0.0
 48
0.0
140
2.5
141
2.5
142
0.0
143
0.0393700787
144
1.0
145
0.0
146
1.0
147
0.625
 71
     0
 72
     0
 73
     0
 74
     0
 75
     0
 76
     0
 77
     1
 78
     8
170
     0
171
     3
172
     1
173
     0
174
     0
175
     0
176
     0
177
     0
178
     0
  0
DIMSTYLE
  2
SLDDIMSTYLE0
 70
     0
  3

  4

  5

  6

  7

 40
1.0
 41
5.0
 42
0.0625
 43
0.38
 44
0.0
 45
0.0
 46
0.0
 47
0.0
 48
0.0
140
3.5
141
0.09
142
0.0
143
25.4
144
1.0
145
0.0
146
1.0
147
0.875
 71
     0
 72
     0
 73
     0
 74
     1
 75
     0
 76
     0
 77
     1
 78
    12
170
     0
171
     2
172
     0
173
     1
174
     0
175
     0
176
     0
177
     0
178
     0
  0
DIMSTYLE
  2
SLDDIMSTYLE1
 70
     0
  3

  4

  5

  6

  7

 40
1.0
 41
5.0
 42
0.0625
 43
0.38
 44
0.0
 45
0.0
 46
0.0
 47
0.0
 48
0.0
140
3.5
141
0.09
142
0.0
143
25.4
144
1.0
145
0.0
146
1.0
147
0.875
 71
     0
 72
     0
 73
     0
 74
     1
 75
     0
 76
     0
 77
     1
 78
    12
170
     0
171
     2
172
     0
173
     1
174
     0
175
     0
176
     0
177
     0
178
     0
  0
ENDTAB
  0
ENDSEC
  0
SECTION
  2
BLOCKS
  0
BLOCK
  8
0
  2
$MODEL_SPACE
 70
     0
 10
0.0
 20
0.0
 30
0.0
  3
$MODEL_SPACE
  1

  0
ENDBLK
  5
21
  8
0
  0
BLOCK
 67
     1
  8
0
  2
$PAPER_SPACE
 70
     0
 10
0.0
 20
0.0
 30
0.0
  3
$PAPER_SPACE
  1

  0
ENDBLK
  5
1D
 67
     1
  8
0
  0
BLOCK
  8
0
  2
SW_NOTE_0
 70
     0
 10
0.0
 20
0.0
 30
0.0
  3
SW_NOTE_0
  1

  0
TEXT
  5
41
  8
2
  6
CONTINUOUS
 62
     0
 10
0.0
 20
1.0
 30
0.0
 40
3.5
  1
Diese Zeichnung ist gemäß Urheberrecht gesetzlich geschützt
 41
0.6644067797
 11
0.0
 21
0.0
 31
0.0
 73
     1
  0
TEXT
  5
42
  8
2
  6
CONTINUOUS
 62
     0
 10
0.0
 20
-8.0513890609
 30
0.0
 40
3.5
  1
This drawing is protected under copyright law; unauthorizid disclosure,
 41
0.6605633803
 11
0.0
 21
-9.0513890609
 31
0.0
 73
     1
  0
TEXT
  5
43
  8
2
  6
CONTINUOUS
 62
     0
 10
0.0
 20
-12.5770835914
 30
0.0
 40
3.5
  1
reprodution or use is prohibted.
 41
0.65625
 11
0.0
 21
-13.5770835914
 31
0.0
 73
     1
  0
ENDBLK
  5
40
  8
0
  0
BLOCK
  8
0
  2
SW_NOTE_1
 70
     0
 10
0.0
 20
0.0
 30
0.0
  3
SW_NOTE_1
  1

  0
TEXT
  5
49
  8
2
  6
CONTINUOUS
 62
     0
 10
0.0
 20
1.0
 30
0.0
 40
3.5
  1
Vieler International GmbH+Co.KG
 41
0.6774193548
 11
0.0
 21
0.0
 31
0.0
 73
     1
  0
TEXT
  5
4A
  8
2
  6
CONTINUOUS
 62
     0
 10
22.5458340719
 20
-3.5256945305
 30
0.0
 40
3.5
  1
58642 Iserlohn
 41
0.7
 11
22.5458340719
 21
-4.5256945305
 31
0.0
 73
     1
  0
ENDBLK
  5
48
  8
0
  0
BLOCK
  8
0
  2
*D3
 70
     1
 10
0.0
 20
0.0
 30
0.0
  3
*D3
  1

  0
SOLID
  5
63
  8
6
  6
CONTINUOUS
 62
     6
 10
85.3406066326
 20
183.1753875263
 30
0.0
 11
90.3406066326
 21
182.6753875263
 31
0.0
 12
90.3406066326
 22
183.6753875263
 32
0.0
 13
90.3406066326
 23
183.6753875263
 33
0.0
  0
SOLID
  5
64
  8
6
  6
CONTINUOUS
 62
     6
 10
220.3406066326
 20
183.1753875263
 30
0.0
 11
215.3406066326
 21
183.6753875263
 31
0.0
 12
215.3406066326
 22
182.6753875263
 32
0.0
 13
215.3406066326
 23
182.6753875263
 33
0.0
  0
LINE
  5
65
  8
6
  6
CONTINUOUS
 62
     6
 10
85.3406066326
 20
211.3774143217
 30
0.0
 11
85.3406066326
 21
182.1753875263
 31
0.0
  0
LINE
  5
66
  8
6
  6
CONTINUOUS
 62
     6
 10
220.3406066326
 20
211.3774143217
 30
0.0
 11
220.3406066326
 21
182.1753875263
 31
0.0
  0
LINE
  5
67
  8
6
  6
CONTINUOUS
 62
     6
 10
85.3406066326
 20
183.1753875263
 30
0.0
 11
220.3406066326
 21
183.1753875263
 31
0.0
  0
TEXT
  5
68
  8
6
  6
CONTINUOUS
 62
     6
 10
149.4378136146
 20
184.1753873517
 30
0.0
 40
3.5
  1
135
 41
0.7
 11
149.4378136146
 21
183.1753873517
 31
0.0
 73
     1
  0
ENDBLK
  5
62
  8
0
  0
BLOCK
  8
0
  2
SW_CENTERMARKSYMBOL_0
 70
     0
 10
0.0
 20
0.0
 30
0.0
  3
SW_CENTERMARKSYMBOL_0
  1

  0
LINE
  5
6C
  8
6
  6
CENTER
 62
     0
 10
0.0
 20
0.0
 30
0.0
 11
0.0
 21
2.5
 31
0.0
  0
LINE
  5
6D
  8
6
  6
CENTER
 62
     0
 10
0.0
 20
0.0
 30
0.0
 11
-2.5
 21
0.0
 31
0.0
  0
LINE
  5
6E
  8
6
  6
CENTER
 62
     0
 10
0.0
 20
0.0
 30
0.0
 11
0.0
 21
-2.5
 31
0.0
  0
LINE
  5
6F
  8
6
  6
CENTER
 62
     0
 10
0.0
 20
0.0
 30
0.0
 11
2.5
 21
0.0
 31
0.0
  0
LINE
  5
70
  8
6
  6
CENTER
 62
     0
 10
0.0
 20
5.0
 30
0.0
 11
0.0
 21
30.0
 31
0.0
  0
LINE
  5
71
  8
6
  6
CENTER
 62
     0
 10
-5.0
 20
0.0
 30
0.0
 11
-30.0
 21
0.0
 31
0.0
  0
LINE
  5
72
  8
6
  6
CENTER
 62
     0
 10
0.0
 20
-5.0
 30
0.0
 11
0.0
 21
-30.0
 31
0.0
  0
LINE
  5
73
  8
6
  6
CENTER
 62
     0
 10
5.0
 20
0.0
 30
0.0
 11
119.4353823895
 21
0.0
 31
0.0
  0
ENDBLK
  5
6B
  8
0
  0
BLOCK
  8
0
  2
*D5
 70
     1
 10
0.0
 20
0.0
 30
0.0
  3
*D5
  1

  0
SOLID
  5
A3
  8
6
  6
CONTINUOUS
 62
     6
 10
83.8406066326
 20
160.368666016
 30
0.0
 11
88.8406066326
 21
159.868666016
 31
0.0
 12
88.8406066326
 22
160.868666016
 32
0.0
 13
88.8406066326
 23
160.868666016
 33
0.0
  0
SOLID
  5
A4
  8
6
  6
CONTINUOUS
 62
     6
 10
121.8406066326
 20
160.368666016
 30
0.0
 11
116.8406066326
 21
160.868666016
 31
0.0
 12
116.8406066326
 22
159.868666016
 32
0.0
 13
116.8406066326
 23
159.868666016
 33
0.0
  0
LINE
  5
A5
  8
6
  6
CONTINUOUS
 62
     6
 10
83.8406066326
 20
144.0279471665
 30
0.0
 11
83.8406066326
 21
161.368666016
 31
0.0
  0
LINE
  5
A6
  8
6
  6
CONTINUOUS
 62
     6
 10
121.8406066326
 20
144.0279471665
 30
0.0
 11
121.8406066326
 21
161.368666016
 31
0.0
  0
LINE
  5
A7
  8
6
  6
CONTINUOUS
 62
     6
 10
83.8406066326
 20
160.368666016
 30
0.0
 11
121.8406066326
 21
160.368666016
 31
0.0
  0
TEXT
  5
A8
  8
6
  6
CONTINUOUS
 62
     6
 10
98.8744046764
 20
161.3686658414
 30
0.0
 40
3.5
  1
38
 41
0.7
 11
98.8744046764
 21
160.3686658414
 31
0.0
 73
     1
  0
ENDBLK
  5
A2
  8
0
  0
BLOCK
  8
0
  2
*D6
 70
     1
 10
0.0
 20
0.0
 30
0.0
  3
*D6
  1

  0
SOLID
  5
AE
  8
6
  6
CONTINUOUS
 62
     6
 10
79.5906066326
 20
151.7215114658
 30
0.0
 11
74.5906066326
 21
152.2215114658
 31
0.0
 12
74.5906066326
 22
151.2215114658
 32
0.0
 13
74.5906066326
 23
151.2215114658
 33
0.0
  0
SOLID
  5
AF
  8
6
  6
CONTINUOUS
 62
     6
 10
88.0321091686
 20
151.7215114658
 30
0.0
 11
93.0321091686
 21
151.2215114658
 31
0.0
 12
93.0321091686
 22
152.2215114658
 32
0.0
 13
93.0321091686
 23
152.2215114658
 33
0.0
  0
LINE
  5
B0
  8
6
  6
CONTINUOUS
 62
     6
 10
79.5906066326
 20
137.7215114658
 30
0.0
 11
79.5906066326
 21
152.7215114658
 31
0.0
  0
LINE
  5
B1
  8
6
  6
CONTINUOUS
 62
     6
 10
88.0321091686
 20
137.7215114658
 30
0.0
 11
88.0321091686
 21
152.7215114658
 31
0.0
  0
LINE
  5
B2
  8
6
  6
CONTINUOUS
 62
     6
 10
79.5906066326
 20
151.7215114658
 30
0.0
 11
69.5906066326
 21
151.7215114658
 31
0.0
  0
LINE
  5
B3
  8
6
  6
CONTINUOUS
 62
     6
 10
79.5906066326
 20
151.7215114658
 30
0.0
 11
88.0321091686
 21
151.7215114658
 31
0.0
  0
LINE
  5
B4
  8
6
  6
CONTINUOUS
 62
     6
 10
88.0321091686
 20
151.7215114658
 30
0.0
 11
100.7412960717
 21
151.7215114658
 31
0.0
  0
TEXT
  5
B5
  8
6
  6
CONTINUOUS
 62
     6
 10
91.2958249927
 20
152.7215114658
 30
0.0
 40
3.5
  1
%%c
 50
360.0
 41
0.7
 11
91.2958249927
 21
151.7215114658
 31
0.0
 73
     1
  0
TEXT
  5
B6
  8
6
  6
CONTINUOUS
 62
     6
 10
96.5710063053
 20
152.7215112911
 30
0.0
 40
3.5
  1
8
 50
360.0
 41
0.7
 11
96.5710063053
 21
151.7215112911
 31
0.0
 73
     1
  0
ENDBLK
  5
AD
  8
0
  0
BLOCK
  8
0
  2
*D7
 70
     1
 10
0.0
 20
0.0
 30
0.0
  3
*D7
  1

  0
SOLID
  5
BB
  8
6
  6
CONTINUOUS
 62
     6
 10
61.6947725399
 20
136.9215114658
 30
0.0
 11
61.1947725399
 21
131.9215114658
 31
0.0
 12
62.1947725399
 22
131.9215114658
 32
0.0
 13
62.1947725399
 23
131.9215114658
 33
0.0
  0
SOLID
  5
BC
  8
6
  6
CONTINUOUS
 62
     6
 10
61.6947725399
 20
141.7215114658
 30
0.0
 11
62.1947725399
 21
146.7215114658
 31
0.0
 12
61.1947725399
 22
146.7215114658
 32
0.0
 13
61.1947725399
 23
146.7215114658
 33
0.0
  0
LINE
  5
BD
  8
6
  6
CONTINUOUS
 62
     6
 10
74.3406066326
 20
136.9215114658
 30
0.0
 11
60.6947725399
 21
136.9215114658
 31
0.0
  0
LINE
  5
BE
  8
6
  6
CONTINUOUS
 62
     6
 10
80.3406066326
 20
141.7215114658
 30
0.0
 11
60.6947725399
 21
141.7215114658
 31
0.0
  0
LINE
  5
BF
  8
6
  6
CONTINUOUS
 62
     6
 10
61.6947725399
 20
136.9215114658
 30
0.0
 11
61.6947725399
 21
125.7568984309
 31
0.0
  0
LINE
  5
C0
  8
6
  6
CONTINUOUS
 62
     6
 10
61.6947725399
 20
136.9215114658
 30
0.0
 11
61.6947725399
 21
141.7215114658
 31
0.0
  0
LINE
  5
C1
  8
6
  6
CONTINUOUS
 62
     6
 10
61.6947725399
 20
141.7215114658
 30
0.0
 11
61.6947725399
 21
151.7215114658
 31
0.0
  0
TEXT
  5
C2
  8
6
  6
CONTINUOUS
 62
     6
 10
60.6947727145
 20
127.3443984309
 30
0.0
 40
3.5
  1
5
 50
90.0
 41
0.7
 11
61.6947727145
 21
127.3443984309
 31
0.0
 73
     1
  0
ENDBLK
  5
BA
  8
0
  0
BLOCK
  8
0
  2
*D8
 70
     1
 10
0.0
 20
0.0
 30
0.0
  3
*D8
  1

  0
SOLID
  5
C7
  8
6
  6
CONTINUOUS
 62
     6
 10
92.8406066326
 20
109.6997122676
 30
0.0
 11
97.8406066326
 21
109.1997122676
 31
0.0
 12
97.8406066326
 22
110.1997122676
 32
0.0
 13
97.8406066326
 23
110.1997122676
 33
0.0
  0
SOLID
  5
C8
  8
6
  6
CONTINUOUS
 62
     6
 10
112.8406066326
 20
109.6997122676
 30
0.0
 11
107.8406066326
 21
110.1997122676
 31
0.0
 12
107.8406066326
 22
109.1997122676
 32
0.0
 13
107.8406066326
 23
109.1997122676
 33
0.0
  0
LINE
  5
C9
  8
6
  6
CONTINUOUS
 62
     6
 10
92.8406066326
 20
109.6997122676
 30
0.0
 11
76.051677773
 21
109.6997122676
 31
0.0
  0
LINE
  5
CA
  8
6
  6
CONTINUOUS
 62
     6
 10
92.8406066326
 20
109.6997122676
 30
0.0
 11
112.8406066326
 21
109.6997122676
 31
0.0
  0
TEXT
  5
CB
  8
6
  6
CONTINUOUS
 62
     6
 10
77.639177773
 20
110.6997122676
 30
0.0
 40
3.5
  1
%%c
 41
0.7
 11
77.639177773
 21
109.6997122676
 31
0.0
 73
     1
  0
TEXT
  5
CC
  8
6
  6
CONTINUOUS
 62
     6
 10
82.9143590855
 20
110.699712093
 30
0.0
 40
3.5
  1
20
 41
0.7
 11
82.9143590855
 21
109.699712093
 31
0.0
 73
     1
  0
ENDBLK
  5
C6
  8
0
  0
BLOCK
  8
0
  2
*D9
 70
     1
 10
0.0
 20
0.0
 30
0.0
  3
*D9
  1

  0
SOLID
  5
D1
  8
6
  6
CONTINUOUS
 62
     6
 10
236.3406066326
 20
85.6715114658
 30
0.0
 11
236.8406066326
 21
90.6715114658
 31
0.0
 12
235.8406066326
 22
90.6715114658
 32
0.0
 13
235.8406066326
 23
90.6715114658
 33
0.0
  0
SOLID
  5
D2
  8
6
  6
CONTINUOUS
 62
     6
 10
236.3406066326
 20
67.6715114658
 30
0.0
 11
235.8406066326
 21
62.6715114658
 31
0.0
 12
236.8406066326
 22
62.6715114658
 32
0.0
 13
236.8406066326
 23
62.6715114658
 33
0.0
  0
LINE
  5
D3
  8
6
  6
CONTINUOUS
 62
     6
 10
220.8406066326
 20
85.6715114658
 30
0.0
 11
237.3406066326
 21
85.6715114658
 31
0.0
  0
LINE
  5
D4
  8
6
  6
CONTINUOUS
 62
     6
 10
220.8406066326
 20
67.6715114658
 30
0.0
 11
237.3406066326
 21
67.6715114658
 31
0.0
  0
LINE
  5
D5
  8
6
  6
CONTINUOUS
 62
     6
 10
236.3406066326
 20
85.6715114658
 30
0.0
 11
236.3406066326
 21
95.6715114658
 31
0.0
  0
LINE
  5
D6
  8
6
  6
CONTINUOUS
 62
     6
 10
236.3406066326
 20
85.6715114658
 30
0.0
 11
236.3406066326
 21
67.6715114658
 31
0.0
  0
LINE
  5
D7
  8
6
  6
CONTINUOUS
 62
     6
 10
236.3406066326
 20
67.6715114658
 30
0.0
 11
236.3406066326
 21
57.6715114658
 31
0.0
  0
TEXT
  5
D8
  8
6
  6
CONTINUOUS
 62
     6
 10
235.3406066326
 20
69.8879799915
 30
0.0
 40
3.5
  1
%%c
 50
90.0
 41
0.7
 11
236.3406066326
 21
69.8879799915
 31
0.0
 73
     1
  0
TEXT
  5
D9
  8
6
  6
CONTINUOUS
 62
     6
 10
235.3406068072
 20
75.1631613041
 30
0.0
 40
3.5
  1
18
 50
90.0
 41
0.7
 11
236.3406068072
 21
75.1631613041
 31
0.0
 73
     1
  0
ENDBLK
  5
D0
  8
0
  0
BLOCK
  8
0
  2
*D10
 70
     1
 10
0.0
 20
0.0
 30
0.0
  3
*D10
  1

  0
SOLID
  5
DE
  8
6
  6
CONTINUOUS
 62
     6
 10
143.2339850893
 20
136.9215114658
 30
0.0
 11
143.7339850893
 21
141.9215114658
 31
0.0
 12
142.7339850893
 22
141.9215114658
 32
0.0
 13
142.7339850893
 23
141.9215114658
 33
0.0
  0
SOLID
  5
DF
  8
6
  6
CONTINUOUS
 62
     6
 10
143.2339850893
 20
126.4215114658
 30
0.0
 11
142.7339850893
 21
121.4215114658
 31
0.0
 12
143.7339850893
 22
121.4215114658
 32
0.0
 13
143.7339850893
 23
121.4215114658
 33
0.0
  0
LINE
  5
E0
  8
6
  6
CONTINUOUS
 62
     6
 10
131.3406066326
 20
136.9215114658
 30
0.0
 11
144.2339850893
 21
136.9215114658
 31
0.0
  0
LINE
  5
E1
  8
6
  6
CONTINUOUS
 62
     6
 10
130.8406066326
 20
126.4215114658
 30
0.0
 11
144.2339850893
 21
126.4215114658
 31
0.0
  0
LINE
  5
E2
  8
6
  6
CONTINUOUS
 62
     6
 10
143.2339850893
 20
136.9215114658
 30
0.0
 11
143.2339850893
 21
146.9215114658
 31
0.0
  0
LINE
  5
E3
  8
6
  6
CONTINUOUS
 62
     6
 10
143.2339850893
 20
136.9215114658
 30
0.0
 11
143.2339850893
 21
126.4215114658
 31
0.0
  0
LINE
  5
E4
  8
6
  6
CONTINUOUS
 62
     6
 10
143.2339850893
 20
126.4215114658
 30
0.0
 11
143.2339850893
 21
116.4215114658
 31
0.0
  0
TEXT
  5
E5
  8
6
  6
CONTINUOUS
 62
     6
 10
142.2339852639
 20
129.4064444367
 30
0.0
 40
3.5
  1
10
 50
90.0
 41
0.7
 11
143.2339852639
 21
129.4064444367
 31
0.0
 73
     1
  0
ENDBLK
  5
DD
  8
0
  0
BLOCK
  8
0
  2
*D11
 70
     1
 10
0.0
 20
0.0
 30
0.0
  3
*D11
  1

  0
SOLID
  5
107
  8
6
  6
CONTINUOUS
 62
     6
 10
274.7171850917
 20
249.7154430268
 30
0.0
 11
274.2171850917
 21
244.7154430268
 31
0.0
 12
275.2171850917
 22
244.7154430268
 32
0.0
 13
275.2171850917
 23
244.7154430268
 33
0.0
  0
SOLID
  5
108
  8
6
  6
CONTINUOUS
 62
     6
 10
274.7171850917
 20
194.7154430268
 30
0.0
 11
275.2171850917
 21
199.7154430268
 31
0.0
 12
274.2171850917
 22
199.7154430268
 32
0.0
 13
274.2171850917
 23
199.7154430268
 33
0.0
  0
LINE
  5
109
  8
6
  6
CONTINUOUS
 62
     6
 10
288.5171850917
 20
249.7154430268
 30
0.0
 11
273.7171850917
 21
249.7154430268
 31
0.0
  0
LINE
  5
10A
  8
6
  6
CONTINUOUS
 62
     6
 10
289.5171850917
 20
194.7154430268
 30
0.0
 11
273.7171850917
 21
194.7154430268
 31
0.0
  0
LINE
  5
10B
  8
6
  6
CONTINUOUS
 62
     6
 10
274.7171850917
 20
249.7154430268
 30
0.0
 11
274.7171850917
 21
194.7154430268
 31
0.0
  0
TEXT
  5
10C
  8
6
  6
CONTINUOUS
 62
     6
 10
273.7171850917
 20
220.2812827542
 30
0.0
 40
3.5
  1
%%c
 50
90.0
 41
0.7
 11
274.7171850917
 21
220.2812827542
 31
0.0
 73
     1
  0
TEXT
  5
10D
  8
6
  6
CONTINUOUS
 62
     6
 10
273.7171852663
 20
225.5564640668
 30
0.0
 40
3.5
  1
55
 50
90.0
 41
0.7
 11
274.7171852663
 21
225.5564640668
 31
0.0
 73
     1
  0
ENDBLK
  5
106
  8
0
  0
BLOCK
  8
0
  2
*D12
 70
     1
 10
0.0
 20
0.0
 30
0.0
  3
*D12
  1

  0
SOLID
  5
112
  8
6
  6
CONTINUOUS
 62
     6
 10
289.5171850917
 20
181.7851443271
 30
0.0
 11
294.5171850917
 21
181.2851443271
 31
0.0
 12
294.5171850917
 22
182.2851443271
 32
0.0
 13
294.5171850917
 23
182.2851443271
 33
0.0
  0
SOLID
  5
113
  8
6
  6
CONTINUOUS
 62
     6
 10
358.7671850917
 20
181.7851443271
 30
0.0
 11
353.7671850917
 21
182.2851443271
 31
0.0
 12
353.7671850917
 22
181.2851443271
 32
0.0
 13
353.7671850917
 23
181.2851443271
 33
0.0
  0
LINE
  5
114
  8
6
  6
CONTINUOUS
 62
     6
 10
289.5171850917
 20
193.8795691611
 30
0.0
 11
289.5171850917
 21
180.7851443271
 31
0.0
  0
LINE
  5
115
  8
6
  6
CONTINUOUS
 62
     6
 10
358.7671850917
 20
221.2154430268
 30
0.0
 11
358.7671850917
 21
180.7851443271
 31
0.0
  0
LINE
  5
116
  8
6
  6
CONTINUOUS
 62
     6
 10
289.5171850917
 20
181.7851443271
 30
0.0
 11
358.7671850917
 21
181.7851443271
 31
0.0
  0
TEXT
  5
117
  8
6
  6
CONTINUOUS
 62
     6
 10
328.9601359832
 20
182.7851441525
 30
0.0
 40
3.5
  1
69
 50
360.0
 41
0.7
 11
328.9601359832
 21
181.7851441525
 31
0.0
 73
     1
  0
ENDBLK
  5
111
  8
0
  0
BLOCK
  8
0
  2
SW_CENTERMARKSYMBOL_1
 70
     0
 10
0.0
 20
0.0
 30
0.0
  3
SW_CENTERMARKSYMBOL_1
  1

  0
LINE
  5
11C
  8
6
  6
CENTER
 62
     0
 10
0.0
 20
0.0
 30
0.0
 11
0.0
 21
2.5
 31
0.0
  0
LINE
  5
11D
  8
6
  6
CENTER
 62
     0
 10
0.0
 20
0.0
 30
0.0
 11
-2.5
 21
0.0
 31
0.0
  0
LINE
  5
11E
  8
6
  6
CENTER
 62
     0
 10
0.0
 20
0.0
 30
0.0
 11
0.0
 21
-2.5
 31
0.0
  0
LINE
  5
11F
  8
6
  6
CENTER
 62
     0
 10
0.0
 20
0.0
 30
0.0
 11
2.5
 21
0.0
 31
0.0
  0
LINE
  5
120
  8
6
  6
CENTER
 62
     0
 10
0.0
 20
5.0
 30
0.0
 11
0.0
 21
11.5
 31
0.0
  0
LINE
  5
121
  8
6
  6
CENTER
 62
     0
 10
-5.0
 20
0.0
 30
0.0
 11
-11.5
 21
0.0
 31
0.0
  0
LINE
  5
122
  8
6
  6
CENTER
 62
     0
 10
0.0
 20
-5.0
 30
0.0
 11
0.0
 21
-11.5
 31
0.0
  0
LINE
  5
123
  8
6
  6
CENTER
 62
     0
 10
5.0
 20
0.0
 30
0.0
 11
11.5
 21
0.0
 31
0.0
  0
ENDBLK
  5
11B
  8
0
  0
ENDSEC
  0
SECTION
  2
ENTITIES
  0
LINE
  5
34
  8
6
  6
CONTINUOUS
 62
     6
 10
20.0
 20
287.0
 30
0.0
 11
20.0
 21
9.0
 31
0.0
  0
LINE
  5
35
  8
6
  6
CONTINUOUS
 62
     6
 10
20.0
 20
148.5
 30
0.0
 11
13.375265605
 21
148.5
 31
0.0
  0
LINE
  5
36
  8
6
  6
CONTINUOUS
 62
     6
 10
20.0
 20
287.0
 30
0.0
 11
414.5
 21
287.0
 31
0.0
  0
LINE
  5
37
  8
6
  6
CONTINUOUS
 62
     6
 10
20.0
 20
9.0
 30
0.0
 11
414.5
 21
9.0
 31
0.0
  0
LINE
  5
38
  8
6
  6
CONTINUOUS
 62
     6
 10
0.0
 20
297.0
 30
0.0
 11
420.0
 21
297.0
 31
0.0
  0
LINE
  5
39
  8
6
  6
CONTINUOUS
 62
     6
 10
420.0
 20
297.0
 30
0.0
 11
420.0
 21
0.0
 31
0.0
  0
LINE
  5
3A
  8
6
  6
CONTINUOUS
 62
     6
 10
420.0
 20
0.0
 30
0.0
 11
0.0
 21
0.0
 31
0.0
  0
LINE
  5
3B
  8
6
  6
CONTINUOUS
 62
     6
 10
0.0
 20
0.0
 30
0.0
 11
0.0
 21
297.0
 31
0.0
  0
LINE
  5
3C
  8
6
  6
CONTINUOUS
 62
     6
 10
414.5
 20
52.5
 30
0.0
 11
414.5
 21
287.0
 31
0.0
  0
LINE
  5
3D
  8
6
  6
CONTINUOUS
 62
     6
 10
414.5
 20
52.5
 30
0.0
 11
414.5
 21
9.0
 31
0.0
  0
INSERT
  5
44
  8
2
  6
CONTINUOUS
 62
     1
  2
SW_NOTE_0
 10
25.131147541
 20
27.4759448138
 30
0.0
  0
TEXT
  5
45
  8
2
  6
CONTINUOUS
 62
     1
 10
312.7010196007
 20
39.8322418184
 30
0.0
 40
10.0
  1
Modell 
 41
0.7
 11
312.7010196007
 21
36.9750989613
 31
0.0
 73
     1
  0
INSERT
  5
4B
  8
2
  6
CONTINUOUS
 62
     1
  2
SW_NOTE_1
 10
309.7662955082
 20
27.4759448138
 30
0.0
  0
TEXT
  5
4C
  8
2
  6
CONTINUOUS
 62
     1
 10
300.4572681642
 20
14.8988612224
 30
0.0
 40
3.5
  1
Datum/Date 01/2008    Maßstab/Scale 1:1
 41
0.6461538462
 11
300.4572681642
 21
13.8988612224
 31
0.0
 73
     1
  0
LINE
  5
4D
  8
6
  6
CONTINUOUS
 62
     6
 10
85.3406066326
 20
213.7154430268
 30
0.0
 11
85.3406066326
 21
212.3774143217
 31
0.0
  0
LINE
  5
4E
  8
6
  6
CONTINUOUS
 62
     6
 10
220.3406066326
 20
213.7154430268
 30
0.0
 11
220.3406066326
 21
212.3774143217
 31
0.0
  0
LINE
  5
4F
  8
0
  6
CONTINUOUS
 10
85.8406057087
 20
213.2154434142
 30
0.0
 11
219.8406053213
 21
213.2154434142
 31
0.0
  0
LINE
  5
50
  8
0
  6
CONTINUOUS
 10
219.8406053213
 20
231.2154426393
 30
0.0
 11
85.8406057087
 21
231.2154426393
 31
0.0
  0
LINE
  5
51
  8
0
  6
CONTINUOUS
 10
219.8406053213
 20
213.2154434142
 30
0.0
 11
220.3406063346
 21
213.7154425648
 31
0.0
  0
LINE
  5
52
  8
0
  6
CONTINUOUS
 10
220.3406063346
 20
230.7154434887
 30
0.0
 11
219.8406053213
 21
231.2154426393
 31
0.0
  0
LINE
  5
53
  8
0
  6
CONTINUOUS
 10
85.8406057087
 20
231.2154426393
 30
0.0
 11
85.3406065581
 21
230.7154434887
 31
0.0
  0
LINE
  5
54
  8
0
  6
CONTINUOUS
 10
85.3406065581
 20
213.7154425648
 30
0.0
 11
85.8406057087
 21
213.2154434142
 31
0.0
  0
ARC
  5
55
  8
0
  6
CONTINUOUS
 10
102.8406066326
 20
222.2154430268
 30
0.0
 40
10.0
 50
64.1580672368
 51
90.0
  0
ARC
  5
56
  8
0
  6
CONTINUOUS
 10
102.8406066326
 20
222.2154430268
 30
0.0
 40
10.00000000000004
 50
244.1580672368
 51
295.8419327632
  0
ARC
  5
57
  8
0
  6
CONTINUOUS
 10
102.8406066326
 20
222.2154430268
 30
0.0
 40
10.00000000000001
 50
90.0
 51
115.8419327632
  0
LINE
  5
58
  8
0
  6
CONTINUOUS
 10
220.3406063346
 20
230.7154434887
 30
0.0
 11
220.3406063346
 21
213.7154425648
 31
0.0
  0
LINE
  5
59
  8
0
  6
CONTINUOUS
 10
85.3406065581
 20
213.7154425648
 30
0.0
 11
85.3406065581
 21
230.7154434887
 31
0.0
  0
ARC
  5
5A
  8
0
  6
CONTINUOUS
 10
102.8406066326
 20
222.2154430268
 30
0.0
 40
10.5
 50
58.9972808661
 51
121.0027191339
  0
ARC
  5
5B
  8
0
  6
CONTINUOUS
 10
102.8406066326
 20
222.2154430268
 30
0.0
 40
10.50000000000003
 50
238.9972808661
 51
301.0027191339
  0
ARC
  5
5C
  8
0
  6
CONTINUOUS
 10
102.8406066326
 20
222.2154430268
 30
0.0
 40
27.5
 50
19.1033244775
 51
180.0
  0
ARC
  5
5D
  8
0
  6
CONTINUOUS
 10
102.8406066326
 20
222.2154430268
 30
0.0
 40
27.5
 50
180.0
 51
340.8966755225
  0
DIMENSION
  5
5E
  8
6
  6
CONTINUOUS
 62
     6
  2
*D3
 10
220.3406066326
 20
183.1753875263
 30
0.0
 11
153.316763559
 21
183.1753875263
 31
0.0
 70
   160
  3
SLDDIMSTYLE0
 13
85.3406066326
 23
212.3774143217
 33
0.0
 14
220.3406066326
 24
212.3774143217
 34
0.0
  0
INSERT
  5
74
  8
6
  6
CENTER
 62
     6
  2
SW_CENTERMARKSYMBOL_0
 10
102.8406066326
 20
222.2154430268
 30
0.0
  0
LINE
  5
75
  8
6
  6
CENTER
 62
     6
 10
83.8406066326
 20
143.0279471665
 30
0.0
 11
83.8406066326
 21
126.4215114658
 31
0.0
  0
LINE
  5
76
  8
6
  6
CENTER
 62
     6
 10
121.8406066326
 20
143.0279471665
 30
0.0
 11
121.8406066326
 21
126.4215114658
 31
0.0
  0
LINE
  5
77
  8
0
  6
CONTINUOUS
 10
92.8406068561
 20
126.4215114658
 30
0.0
 11
92.8406068561
 21
93.6715121512
 31
0.0
  0
LINE
  5
78
  8
0
  6
CONTINUOUS
 10
112.8406064091
 20
93.6715121512
 30
0.0
 11
112.8406064091
 21
126.4215114658
 31
0.0
  0
LINE
  5
79
  8
0
  6
CONTINUOUS
 10
92.8406068561
 20
93.6715121512
 30
0.0
 11
93.3406069381
 21
93.1715111379
 31
0.0
  0
LINE
  5
7A
  8
0
  6
CONTINUOUS
 10
112.3406063271
 20
93.1715111379
 30
0.0
 11
112.8406064091
 21
93.6715121512
 31
0.0
  0
LINE
  5
7B
  8
0
  6
CONTINUOUS
 10
96.8406065804
 20
93.1715111379
 30
0.0
 11
96.8406065804
 21
85.6715108399
 31
0.0
  0
LINE
  5
7C
  8
0
  6
CONTINUOUS
 10
108.8406066848
 20
85.6715108399
 30
0.0
 11
108.8406066848
 21
93.1715111379
 31
0.0
  0
LINE
  5
7D
  8
0
  6
CONTINUOUS
 10
85.8406057087
 20
67.6715116148
 30
0.0
 11
219.8406053213
 21
67.6715116148
 31
0.0
  0
LINE
  5
7E
  8
0
  6
CONTINUOUS
 10
96.8406065804
 20
85.6715108399
 30
0.0
 11
85.8406057087
 21
85.6715108399
 31
0.0
  0
LINE
  5
7F
  8
0
  6
CONTINUOUS
 10
219.8406053213
 20
85.6715108399
 30
0.0
 11
108.8406066848
 21
85.6715108399
 31
0.0
  0
LINE
  5
80
  8
0
  6
CONTINUOUS
 10
219.8406053213
 20
67.6715116148
 30
0.0
 11
220.3406063346
 21
68.171512628
 31
0.0
  0
LINE
  5
81
  8
0
  6
CONTINUOUS
 10
220.3406063346
 20
85.1715098266
 30
0.0
 11
219.8406053213
 21
85.6715108399
 31
0.0
  0
LINE
  5
82
  8
0
  6
CONTINUOUS
 10
85.8406057087
 20
85.6715108399
 30
0.0
 11
85.3406065581
 21
85.1715098266
 31
0.0
  0
LINE
  5
83
  8
0
  6
CONTINUOUS
 10
85.3406065581
 20
68.171512628
 30
0.0
 11
85.8406057087
 21
67.6715116148
 31
0.0
  0
LINE
  5
84
  8
0
  6
CONTINUOUS
 10
75.3406067816
 20
136.9215113242
 30
0.0
 11
75.3406067816
 21
126.9215114895
 31
0.0
  0
LINE
  5
85
  8
0
  6
CONTINUOUS
 10
130.3406064836
 20
126.9215114895
 30
0.0
 11
130.3406064836
 21
136.9215113242
 31
0.0
  0
LINE
  5
86
  8
0
  6
CONTINUOUS
 10
75.3406067816
 20
126.9215114895
 30
0.0
 11
75.8406059322
 21
126.4215114658
 31
0.0
  0
LINE
  5
87
  8
0
  6
CONTINUOUS
 10
129.840607333
 20
126.4215114658
 30
0.0
 11
130.3406064836
 21
126.9215114895
 31
0.0
  0
LINE
  5
88
  8
0
  6
CONTINUOUS
 10
126.080124217
 20
136.9215113242
 30
0.0
 11
125.8547348408
 21
141.2221969236
 31
0.0
  0
LINE
  5
89
  8
0
  6
CONTINUOUS
 10
79.8264784244
 20
141.2221969236
 30
0.0
 11
79.6010890482
 21
136.9215113242
 31
0.0
  0
LINE
  5
8A
  8
0
  6
CONTINUOUS
 10
125.8547348408
 20
141.2221969236
 30
0.0
 11
125.3001899896
 21
141.7215115522
 31
0.0
  0
LINE
  5
8B
  8
0
  6
CONTINUOUS
 10
80.3810232756
 20
141.7215115522
 30
0.0
 11
79.8264784244
 21
141.2221969236
 31
0.0
  0
LINE
  5
8C
  8
0
  6
CONTINUOUS
 10
102.8406066326
 20
93.1715111379
 30
0.0
 11
93.3406069381
 21
93.1715111379
 31
0.0
  0
LINE
  5
8D
  8
0
  6
CONTINUOUS
 10
112.3406063271
 20
93.1715111379
 30
0.0
 11
102.8406066326
 21
93.1715111379
 31
0.0
  0
POLYLINE
  5
8E
  8
0
  6
CONTINUOUS
 66
     1
 10
0.0
 20
0.0
 30
0.0
  0
VERTEX
  5
127
  8
0
  6
CONTINUOUS
 10
96.8406065804
 20
85.6715108399
 30
0.0
  0
VERTEX
  5
128
  8
0
  6
CONTINUOUS
 10
96.9063081285
 20
85.627842987
 30
0.0
  0
VERTEX
  5
129
  8
0
  6
CONTINUOUS
 10
97.107929687
 20
85.4955467527
 30
0.0
  0
VERTEX
  5
12A
  8
0
  6
CONTINUOUS
 10
97.4223092636
 20
85.2946157698
 30
0.0
  0
VERTEX
  5
12B
  8
0
  6
CONTINUOUS
 10
97.8528131237
 20
85.0308242385
 30
0.0
  0
VERTEX
  5
12C
  8
0
  6
CONTINUOUS
 10
98.4148891149
 20
84.7081135158
 30
0.0
  0
VERTEX
  5
12D
  8
0
  6
CONTINUOUS
 10
99.0884860949
 20
84.3577611391
 30
0.0
  0
VERTEX
  5
12E
  8
0
  6
CONTINUOUS
 10
99.9572626752
 20
83.9731323664
 30
0.0
  0
VERTEX
  5
12F
  8
0
  6
CONTINUOUS
 10
100.9640442645
 20
83.6372490172
 30
0.0
  0
VERTEX
  5
130
  8
0
  6
CONTINUOUS
 10
101.7142036436
 20
83.4736268167
 30
0.0
  0
VERTEX
  5
131
  8
0
  6
CONTINUOUS
 10
102.5169805944
 20
83.3875167315
 30
0.0
  0
VERTEX
  5
132
  8
0
  6
CONTINUOUS
 10
103.3097074106
 20
83.396096075
 30
0.0
  0
VERTEX
  5
133
  8
0
  6
CONTINUOUS
 10
104.1128508951
 20
83.4992940669
 30
0.0
  0
VERTEX
  5
134
  8
0
  6
CONTINUOUS
 10
104.8285682192
 20
83.668083245
 30
0.0
  0
VERTEX
  5
135
  8
0
  6
CONTINUOUS
 10
105.5148141896
 20
83.8931019549
 30
0.0
  0
VERTEX
  5
136
  8
0
  6
CONTINUOUS
 10
106.2599875005
 20
84.2009301428
 30
0.0
  0
VERTEX
  5
137
  8
0
  6
CONTINUOUS
 10
106.9413358783
 20
84.5338258092
 30
0.0
  0
VERTEX
  5
138
  8
0
  6
CONTINUOUS
 10
107.6376243
 20
84.9184136037
 30
0.0
  0
VERTEX
  5
139
  8
0
  6
CONTINUOUS
 10
108.2110861754
 20
85.2646495347
 30
0.0
  0
VERTEX
  5
13A
  8
0
  6
CONTINUOUS
 10
108.5411757668
 20
85.4747186546
 30
0.0
  0
VERTEX
  5
13B
  8
0
  6
CONTINUOUS
 10
108.7582605397
 20
85.6168235783
 30
0.0
  0
VERTEX
  5
13C
  8
0
  6
CONTINUOUS
 10
108.8406066848
 20
85.6715108399
 30
0.0
  0
SEQEND
  5
126
  8
0
  6
CONTINUOUS
  0
LINE
  5
8F
  8
0
  6
CONTINUOUS
 10
220.3406063346
 20
76.6715112273
 30
0.0
 11
220.3406063346
 21
68.171512628
 31
0.0
  0
LINE
  5
90
  8
0
  6
CONTINUOUS
 10
220.3406063346
 20
85.1715098266
 30
0.0
 11
220.3406063346
 21
76.6715112273
 31
0.0
  0
LINE
  5
91
  8
0
  6
CONTINUOUS
 10
85.3406065581
 20
76.6715112273
 30
0.0
 11
85.3406065581
 21
85.1715098266
 31
0.0
  0
LINE
  5
92
  8
0
  6
CONTINUOUS
 10
85.3406065581
 20
68.171512628
 30
0.0
 11
85.3406065581
 21
76.6715112273
 31
0.0
  0
LINE
  5
93
  8
0
  6
CONTINUOUS
 10
75.3406067816
 20
136.9215113242
 30
0.0
 11
130.3406064836
 21
136.9215113242
 31
0.0
  0
LINE
  5
94
  8
0
  6
CONTINUOUS
 10
129.840607333
 20
126.4215114658
 30
0.0
 11
75.8406059322
 21
126.4215114658
 31
0.0
  0
ARC
  5
95
  8
0
  6
CONTINUOUS
 10
107.6926081282
 20
140.552266579
 30
0.0
 40
10.66972758325347
 50
340.1057212457
 51
358.0328444823
  0
LINE
  5
96
  8
0
  6
CONTINUOUS
 10
118.3560477076
 20
140.1860111524
 30
0.0
 11
118.4196076793
 21
141.2221969236
 31
0.0
  0
ARC
  5
97
  8
0
  6
CONTINUOUS
 10
97.7948600712
 20
140.5148887255
 30
0.0
 40
10.47485864651887
 50
181.7992027159
 51
200.0626727814
  0
LINE
  5
98
  8
0
  6
CONTINUOUS
 10
87.3251655576
 20
140.1860111524
 30
0.0
 11
87.2616055859
 21
141.2221969236
 31
0.0
  0
LINE
  5
99
  8
0
  6
CONTINUOUS
 10
119.0912933526
 20
141.7215115522
 30
0.0
 11
125.3001899896
 21
141.7215115522
 31
0.0
  0
LINE
  5
9A
  8
0
  6
CONTINUOUS
 10
118.4196076793
 20
141.2221969236
 30
0.0
 11
119.0912933526
 21
141.7215115522
 31
0.0
  0
LINE
  5
9B
  8
0
  6
CONTINUOUS
 10
80.3810232756
 20
141.7215115522
 30
0.0
 11
86.5899199126
 21
141.7215115522
 31
0.0
  0
LINE
  5
9C
  8
0
  6
CONTINUOUS
 10
86.5899199126
 20
141.7215115522
 30
0.0
 11
87.2616055859
 21
141.2221969236
 31
0.0
  0
LINE
  5
9D
  8
0
  6
CONTINUOUS
 10
85.1970729855
 20
141.7215115522
 30
0.0
 11
86.5899199126
 21
141.7215115522
 31
0.0
  0
LINE
  5
9E
  8
0
  6
CONTINUOUS
 10
120.4841402797
 20
141.7215115522
 30
0.0
 11
119.0912933526
 21
141.7215115522
 31
0.0
  0
DIMENSION
  5
9F
  8
6
  6
CONTINUOUS
 62
     6
  2
*D5
 10
121.8406066326
 20
160.368666016
 30
0.0
 11
101.4595770902
 21
160.368666016
 31
0.0
 70
   160
  3
SLDDIMSTYLE0
 13
83.8406066326
 23
143.0279471665
 33
0.0
 14
121.8406066326
 24
143.0279471665
 34
0.0
  0
DIMENSION
  5
A9
  8
6
  6
CONTINUOUS
 62
     6
  2
*D6
 10
88.0321091686
 20
151.7215114658
 30
0.0
 11
95.2248105322
 21
151.7215114658
 31
0.0
 70
   160
  1
%%c<>
  3
SLDDIMSTYLE1
 13
79.5906066326
 23
136.7215114658
 33
0.0
 14
88.0321091686
 24
136.7215114658
 34
0.0
  0
DIMENSION
  5
B7
  8
6
  6
CONTINUOUS
 62
     6
  2
*D7
 10
61.6947725399
 20
141.7215114658
 30
0.0
 11
61.6947725399
 21
128.6357933141
 31
0.0
 70
   160
  3
SLDDIMSTYLE1
 13
75.3406066326
 23
136.9215114658
 33
0.0
 14
81.3406066326
 24
141.7215114658
 34
0.0
 50
90.0
  0
DIMENSION
  5
C3
  8
6
  6
CONTINUOUS
 62
     6
  2
*D8
 10
112.8406066326
 20
109.6997122676
 30
0.0
 11
82.861940843
 21
109.6997122676
 31
0.0
 70
   160
  1
%%c<>
  3
SLDDIMSTYLE0
 13
92.8406066326
 23
93.6715114658
 33
0.0
 14
112.8406066326
 24
93.6715114658
 34
0.0
  0
DIMENSION
  5
CD
  8
6
  6
CONTINUOUS
 62
     6
  2
*D9
 10
236.3406066326
 20
67.6715114658
 30
0.0
 11
236.3406066326
 21
75.1107430616
 31
0.0
 70
   160
  1
%%c<>
  3
SLDDIMSTYLE0
 13
219.8406066326
 23
85.6715114658
 33
0.0
 14
219.8406066326
 24
67.6715114658
 34
0.0
 50
90.0
  0
DIMENSION
  5
DA
  8
6
  6
CONTINUOUS
 62
     6
  2
*D10
 10
143.2339850893
 20
126.4215114658
 30
0.0
 11
143.2339850893
 21
131.9916168505
 31
0.0
 70
   160
  3
SLDDIMSTYLE0
 13
130.3406066326
 23
136.9215114658
 33
0.0
 14
129.8406066326
 24
126.4215114658
 34
0.0
 50
90.0
  0
LINE
  5
E6
  8
6
  6
CENTER
 62
     6
 10
121.8406066326
 20
134.7215114658
 30
0.0
 11
121.8406066326
 21
143.2221966984
 31
0.0
  0
LINE
  5
E7
  8
6
  6
CENTER
 62
     6
 10
83.8406066326
 20
134.7215114658
 30
0.0
 11
83.8406066326
 21
143.2221966984
 31
0.0
  0
LINE
  5
E8
  8
6
  6
CENTER
 62
     6
 10
102.8406066326
 20
81.6456053882
 30
0.0
 11
102.8406066326
 21
130.1715114658
 31
0.0
  0
LINE
  5
E9
  8
6
  6
CENTER
 62
     6
 10
221.8406066326
 20
76.6715114658
 30
0.0
 11
83.8406066326
 21
76.6715114658
 31
0.0
  0
LINE
  5
EA
  8
0
  6
CONTINUOUS
 10
300.0171850917
 20
212.2154432503
 30
0.0
 11
332.7671844062
 21
212.2154432503
 31
0.0
  0
LINE
  5
EB
  8
0
  6
CONTINUOUS
 10
332.7671844062
 20
232.2154428033
 30
0.0
 11
300.0171850917
 21
232.2154428033
 31
0.0
  0
LINE
  5
EC
  8
0
  6
CONTINUOUS
 10
332.7671844062
 20
212.2154432503
 30
0.0
 11
333.2671854195
 21
212.7154433322
 31
0.0
  0
LINE
  5
ED
  8
0
  6
CONTINUOUS
 10
333.2671854195
 20
231.7154427213
 30
0.0
 11
332.7671844062
 21
232.2154428033
 31
0.0
  0
LINE
  5
EE
  8
0
  6
CONTINUOUS
 10
333.2671854195
 20
216.2154429746
 30
0.0
 11
343.0589805839
 21
216.2154429746
 31
0.0
  0
LINE
  5
EF
  8
0
  6
CONTINUOUS
 10
343.0589805839
 20
228.2154430789
 30
0.0
 11
333.2671854195
 21
228.2154430789
 31
0.0
  0
LINE
  5
F0
  8
0
  6
CONTINUOUS
 10
290.5171853972
 20
194.7154431758
 30
0.0
 11
299.5171850679
 21
194.7154431758
 31
0.0
  0
LINE
  5
F1
  8
0
  6
CONTINUOUS
 10
299.5171850679
 20
249.7154428778
 30
0.0
 11
289.5171852332
 21
249.7154428778
 31
0.0
  0
LINE
  5
F2
  8
0
  6
CONTINUOUS
 10
299.5171850679
 20
194.7154431758
 30
0.0
 11
300.0171850917
 21
195.2154423264
 31
0.0
  0
LINE
  5
F3
  8
0
  6
CONTINUOUS
 10
300.0171850917
 20
249.2154437271
 30
0.0
 11
299.5171850679
 21
249.7154428778
 31
0.0
  0
LINE
  5
F4
  8
0
  6
CONTINUOUS
 10
289.5171852332
 20
226.4549616878
 30
0.0
 11
285.2164996338
 21
226.2295723115
 31
0.0
  0
LINE
  5
F5
  8
0
  6
CONTINUOUS
 10
285.2164996338
 20
218.201313742
 30
0.0
 11
289.5171852332
 21
217.9759243657
 31
0.0
  0
LINE
  5
F6
  8
0
  6
CONTINUOUS
 10
285.2164996338
 20
226.2295723115
 30
0.0
 11
284.7171850053
 21
225.6750269947
 31
0.0
  0
LINE
  5
F7
  8
0
  6
CONTINUOUS
 10
284.7171850053
 20
218.7558590589
 30
0.0
 11
285.2164996338
 21
218.201313742
 31
0.0
  0
LINE
  5
F8
  8
0
  6
CONTINUOUS
 10
333.2671854195
 20
231.7154427213
 30
0.0
 11
333.2671854195
 21
212.7154433322
 31
0.0
  0
CIRCLE
  5
F9
  8
0
  6
CONTINUOUS
 10
349.7671850917
 20
222.2154430268
 30
0.0
 40
9.0
  0
LINE
  5
FA
  8
0
  6
CONTINUOUS
 10
290.5171853972
 20
194.7154431758
 30
0.0
 11
290.5171853972
 21
194.8795682905
 31
0.0
  0
LINE
  5
FB
  8
0
  6
CONTINUOUS
 10
290.5171853972
 20
194.8795682905
 30
0.0
 11
289.5171852332
 21
194.8795682905
 31
0.0
  0
LINE
  5
FC
  8
0
  6
CONTINUOUS
 10
289.5171852332
 20
194.8795682905
 30
0.0
 11
289.5171852332
 21
249.7154428778
 31
0.0
  0
LINE
  5
FD
  8
0
  6
CONTINUOUS
 10
300.0171850917
 20
222.2154430268
 30
0.0
 11
300.0171850917
 21
195.2154423264
 31
0.0
  0
LINE
  5
FE
  8
0
  6
CONTINUOUS
 10
300.0171850917
 20
249.2154437271
 30
0.0
 11
300.0171850917
 21
222.2154430268
 31
0.0
  0
LINE
  5
FF
  8
0
  6
CONTINUOUS
 10
289.5171852332
 20
194.8795682905
 30
0.0
 11
289.5171852332
 21
196.0871062396
 31
0.0
  0
LINE
  5
100
  8
0
  6
CONTINUOUS
 10
284.7171850053
 20
218.7558590589
 30
0.0
 11
284.7171850053
 21
225.6750269947
 31
0.0
  0
LINE
  5
101
  8
0
  6
CONTINUOUS
 10
284.7171850053
 20
220.1154431017
 30
0.0
 11
284.7171850053
 21
219.7154430827
 31
0.0
  0
LINE
  5
102
  8
0
  6
CONTINUOUS
 10
284.7171850053
 20
224.7154429709
 30
0.0
 11
284.7171850053
 21
224.3154429519
 31
0.0
  0
DIMENSION
  5
103
  8
6
  6
CONTINUOUS
 62
     6
  2
*D11
 10
274.7171850917
 20
194.7154430268
 30
0.0
 11
274.7171850917
 21
225.5040458243
 31
0.0
 70
   160
  1
%%c<>
  3
SLDDIMSTYLE0
 13
289.5171850917
 23
249.7154430268
 33
0.0
 14
290.5171850917
 24
194.7154430268
 34
0.0
 50
90.0
  0
DIMENSION
  5
10E
  8
6
  6
CONTINUOUS
 62
     6
  2
*D12
 10
358.7671850917
 20
181.7851443271
 30
0.0
 11
331.545308397
 21
181.7851443271
 31
0.0
 70
   160
  3
SLDDIMSTYLE1
 13
289.5171850917
 23
194.8795691611
 33
0.0
 14
358.7671850917
 24
222.2154430268
 34
0.0
  0
TEXT
  5
118
  8
2
  6
CONTINUOUS
 62
     1
 10
362.6081859677
 20
39.9024298111
 30
0.0
 40
10.0
  1
124
 41
0.7
 11
362.6081859677
 21
37.045286954
 31
0.0
 73
     1
  0
INSERT
  5
124
  8
6
  6
CENTER
 62
     6
  2
SW_CENTERMARKSYMBOL_1
 10
349.7671850917
 20
222.2154430268
 30
0.0
  0
LINE
  5
125
  8
6
  6
CENTER
 62
     6
 10
283.1308730164
 20
222.2154430268
 30
0.0
 11
360.5394075692
 21
222.2154430268
 31
0.0
  0
ENDSEC
  0
EOF
