  0
SECTION
  2
HEADER
  9
$ACADVER
  1
AC1009
  9
$DWGCODEPAGE
  3
ansi_1252
  9
$INSBASE
 10
0.0
 20
0.0
 30
0.0
  9
$EXTMIN
 10
0.0
 20
0.0
 30
0.0
  9
$EXTMAX
 10
420.0
 20
297.0
 30
0.0
  9
$LIMMIN
 10
0.0
 20
0.0
  9
$LIMMAX
 10
0.0
 20
0.0
  9
$ORTHOMODE
 70
     0
  9
$REGENMODE
 70
     1
  9
$FILLMODE
 70
     1
  9
$QTEXTMODE
 70
     0
  9
$MIRRTEXT
 70
     1
  9
$DRAGMODE
 70
     2
  9
$LTSCALE
 40
1.0
  9
$OSMODE
 70
    37
  9
$ATTMODE
 70
     1
  9
$TEXTSIZE
 40
3.5
  9
$TRACEWID
 40
1.0
  9
$TEXTSTYLE
  7
STANDARD
  9
$CLAYER
  8
0
  9
$CELTYPE
  6
BYLAYER
  9
$CECOLOR
 62
   256
  9
$DIMSCALE
 40
1.0
  9
$DIMASZ
 40
5.0
  9
$DIMEXO
 40
1.0
  9
$DIMDLI
 40
3.75
  9
$DIMRND
 40
0.0
  9
$DIMDLE
 40
0.0
  9
$DIMEXE
 40
1.0
  9
$DIMTP
 40
0.0
  9
$DIMTM
 40
0.0
  9
$DIMTXT
 40
3.5
  9
$DIMCEN
 40
2.5
  9
$DIMTSZ
 40
0.0
  9
$DIMTOL
 70
     0
  9
$DIMLIM
 70
     0
  9
$DIMTIH
 70
     1
  9
$DIMTOH
 70
     1
  9
$DIMSE1
 70
     0
  9
$DIMSE2
 70
     0
  9
$DIMTAD
 70
     1
  9
$DIMZIN
 70
     0
  9
$DIMBLK
  1

  9
$DIMASO
 70
     1
  9
$DIMSHO
 70
     1
  9
$DIMPOST
  1

  9
$DIMAPOST
  1

  9
$DIMALT
 70
     0
  9
$DIMALTD
 70
     3
  9
$DIMALTF
 40
0.0393700787
  9
$DIMLFAC
 40
1.0
  9
$DIMTOFL
 70
     1
  9
$DIMTVP
 40
0.0
  9
$DIMTIX
 70
     0
  9
$DIMSOXD
 70
     0
  9
$DIMSAH
 70
     0
  9
$DIMBLK1
  1

  9
$DIMBLK2
  1

  9
$DIMSTYLE
  2
ISO-25
  9
$DIMCLRD
 70
     0
  9
$DIMCLRE
 70
     0
  9
$DIMCLRT
 70
     0
  9
$DIMTFAC
 40
1.0
  9
$DIMGAP
 40
1.524
  9
$LUNITS
 70
     2
  9
$LUPREC
 70
     2
  9
$SKETCHINC
 40
1.0
  9
$FILLETRAD
 40
10.0
  9
$AUNITS
 70
     0
  9
$AUPREC
 70
     0
  9
$MENU
  1
.
  9
$ELEVATION
 40
0.0
  9
$PELEVATION
 40
0.0
  9
$THICKNESS
 40
0.0
  9
$LIMCHECK
 70
     0
  9
$CHAMFERA
 40
10.0
  9
$CHAMFERB
 40
10.0
  9
$SKPOLY
 70
     0
  9
$TDCREATE
 40
2454489.394402303
  9
$TDUPDATE
 40
2454489.394402315
  9
$TDINDWG
 40
0.0000000116
  9
$TDUSRTIMER
 40
0.0000000116
  9
$USRTIMER
 70
     1
  9
$ANGBASE
 50
0.0
  9
$ANGDIR
 70
     0
  9
$PDMODE
 70
     0
  9
$PDSIZE
 40
-1.0
  9
$PLINEWID
 40
0.0
  9
$COORDS
 70
     1
  9
$SPLFRAME
 70
     0
  9
$SPLINETYPE
 70
     6
  9
$SPLINESEGS
 70
     8
  9
$ATTDIA
 70
     0
  9
$ATTREQ
 70
     1
  9
$HANDLING
 70
     1
  9
$HANDSEED
  5
1A9
  9
$SURFTAB1
 70
     6
  9
$SURFTAB2
 70
     6
  9
$SURFTYPE
 70
     6
  9
$SURFU
 70
     6
  9
$SURFV
 70
     6
  9
$UCSNAME
  2

  9
$UCSORG
 10
0.0
 20
0.0
 30
0.0
  9
$UCSXDIR
 10
1.0
 20
0.0
 30
0.0
  9
$UCSYDIR
 10
0.0
 20
1.0
 30
0.0
  9
$PUCSNAME
  2

  9
$PUCSORG
 10
0.0
 20
0.0
 30
0.0
  9
$PUCSXDIR
 10
1.0
 20
0.0
 30
0.0
  9
$PUCSYDIR
 10
0.0
 20
1.0
 30
0.0
  9
$USERI1
 70
     0
  9
$USERI2
 70
     0
  9
$USERI3
 70
     0
  9
$USERI4
 70
     0
  9
$USERI5
 70
     0
  9
$USERR1
 40
0.0
  9
$USERR2
 40
0.0
  9
$USERR3
 40
0.0
  9
$USERR4
 40
0.0
  9
$USERR5
 40
0.0
  9
$WORLDVIEW
 70
     1
  9
$SHADEDGE
 70
     3
  9
$SHADEDIF
 70
    70
  9
$TILEMODE
 70
     1
  9
$MAXACTVP
 70
    64
  9
$PLIMCHECK
 70
     0
  9
$PEXTMIN
 10
1.0000000000E+20
 20
1.0000000000E+20
 30
1.0000000000E+20
  9
$PEXTMAX
 10
-1.0000000000E+20
 20
-1.0000000000E+20
 30
-1.0000000000E+20
  9
$PLIMMIN
 10
0.0
 20
0.0
  9
$PLIMMAX
 10
420.0
 20
297.0
  9
$UNITMODE
 70
     0
  9
$VISRETAIN
 70
     1
  9
$PLINEGEN
 70
     0
  9
$PSLTSCALE
 70
     1
  0
ENDSEC
  0
SECTION
  2
TABLES
  0
TABLE
  2
VPORT
 70
     1
  0
VPORT
  2
*ACTIVE
 70
     0
 10
0.0
 20
0.0
 11
1.0
 21
1.0
 12
210.0
 22
148.5
 13
0.0
 23
0.0
 14
10.0
 24
10.0
 15
10.0
 25
10.0
 16
0.0
 26
0.0
 36
1.0
 17
0.0
 27
0.0
 37
0.0
 40
297.0
 41
1.4141414141
 42
50.0
 43
0.0
 44
0.0
 50
0.0
 51
0.0
 71
     0
 72
  2000
 73
     1
 74
     3
 75
     0
 76
     0
 77
     0
 78
     0
  0
ENDTAB
  0
TABLE
  2
LTYPE
 70
     6
  0
LTYPE
  2
CONTINUOUS
 70
     0
  3
Solid line
 72
    65
 73
     0
 40
0.0
  0
LTYPE
  2
HIDDEN
 70
     0
  3
Hidden __ __ __ __ __ __ __ __ __ __ __ __ __ __
 72
    65
 73
     2
 40
1.905
 49
1.27
 49
-0.635
  0
LTYPE
  2
PHANTOM
 70
     0
  3
Phantom ______  __  __  ______  __  __  ______
 72
    65
 73
     6
 40
12.7
 49
6.35
 49
-1.27
 49
1.27
 49
-1.27
 49
1.27
 49
-1.27
  0
LTYPE
  2
CENTER
 70
     0
  3
Center ____ _ ____ _ ____ _ ____ _ ____ _ ____
 72
    65
 73
     4
 40
10.16
 49
6.35
 49
-1.27
 49
1.27
 49
-1.27
  0
LTYPE
  2
CENTERX2
 70
     0
  3
Center (2x) ________  __  ________  __  _____
 72
    65
 73
     4
 40
20.32
 49
12.7
 49
-2.54
 49
2.54
 49
-2.54
  0
LTYPE
  2
DOT2
 70
     0
  3
Dot (.5x) ........................................
 72
    65
 73
     2
 40
0.635
 49
0.0
 49
-0.635
  0
ENDTAB
  0
TABLE
  2
LAYER
 70
     6
  0
LAYER
  2
0
 70
     0
 62
     7
  6
CONTINUOUS
  0
LAYER
  2
DEFPOINTS
 70
     0
 62
     7
  6
CONTINUOUS
  0
LAYER
  2
7
 70
     0
 62
     7
  6
CONTINUOUS
  0
LAYER
  2
1
 70
     0
 62
     1
  6
CONTINUOUS
  0
LAYER
  2
2
 70
     0
 62
     2
  6
PHANTOM
  0
LAYER
  2
6
 70
     0
 62
     6
  6
CONTINUOUS
  0
ENDTAB
  0
TABLE
  2
STYLE
 70
     1
  0
STYLE
  2
STANDARD
 70
     0
 40
0.0
 41
1.0
 50
0.0
 71
     0
 42
2.5
  3
txt
  4

  0
ENDTAB
  0
TABLE
  2
VIEW
 70
     0
  0
ENDTAB
  0
TABLE
  2
UCS
 70
     0
  0
ENDTAB
  0
TABLE
  2
APPID
 70
     1
  0
APPID
  2
ACAD
 70
     0
  0
ENDTAB
  0
TABLE
  2
DIMSTYLE
 70
     3
  0
DIMSTYLE
  2
ISO-25
 70
     0
  3

  4

  5

  6

  7

 40
1.0
 41
2.5
 42
0.625
 43
3.75
 44
1.25
 45
0.0
 46
0.0
 47
0.0
 48
0.0
140
2.5
141
2.5
142
0.0
143
0.0393700787
144
1.0
145
0.0
146
1.0
147
0.625
 71
     0
 72
     0
 73
     0
 74
     0
 75
     0
 76
     0
 77
     1
 78
     8
170
     0
171
     3
172
     1
173
     0
174
     0
175
     0
176
     0
177
     0
178
     0
  0
DIMSTYLE
  2
SLDDIMSTYLE0
 70
     0
  3

  4

  5

  6

  7

 40
1.0
 41
5.0
 42
0.0625
 43
0.38
 44
0.0
 45
0.0
 46
0.0
 47
0.0
 48
0.0
140
3.5
141
0.09
142
0.0
143
25.4
144
1.0
145
0.0
146
1.0
147
0.875
 71
     0
 72
     0
 73
     0
 74
     1
 75
     0
 76
     0
 77
     1
 78
    12
170
     0
171
     2
172
     0
173
     1
174
     0
175
     0
176
     0
177
     0
178
     0
  0
DIMSTYLE
  2
SLDDIMSTYLE1
 70
     0
  3

  4

  5

  6

  7

 40
1.0
 41
5.0
 42
0.0625
 43
0.38
 44
0.0
 45
0.0
 46
0.0
 47
0.0
 48
0.0
140
3.5
141
0.09
142
0.0
143
25.4
144
1.0
145
0.0
146
1.0
147
0.875
 71
     0
 72
     0
 73
     0
 74
     1
 75
     0
 76
     0
 77
     1
 78
    12
170
     0
171
     2
172
     0
173
     1
174
     0
175
     0
176
     0
177
     0
178
     0
  0
ENDTAB
  0
ENDSEC
  0
SECTION
  2
BLOCKS
  0
BLOCK
  8
0
  2
$MODEL_SPACE
 70
     0
 10
0.0
 20
0.0
 30
0.0
  3
$MODEL_SPACE
  1

  0
ENDBLK
  5
21
  8
0
  0
BLOCK
 67
     1
  8
0
  2
$PAPER_SPACE
 70
     0
 10
0.0
 20
0.0
 30
0.0
  3
$PAPER_SPACE
  1

  0
ENDBLK
  5
1D
 67
     1
  8
0
  0
BLOCK
  8
0
  2
SW_NOTE_0
 70
     0
 10
0.0
 20
0.0
 30
0.0
  3
SW_NOTE_0
  1

  0
TEXT
  5
41
  8
2
  6
CONTINUOUS
 62
     0
 10
0.0
 20
1.0
 30
0.0
 40
3.5
  1
Diese Zeichnung ist gemäß Urheberrecht gesetzlich geschützt
 41
0.6644067797
 11
0.0
 21
0.0
 31
0.0
 73
     1
  0
TEXT
  5
42
  8
2
  6
CONTINUOUS
 62
     0
 10
0.0
 20
-8.0513890609
 30
0.0
 40
3.5
  1
This drawing is protected under copyright law; unauthorizid disclosure,
 41
0.6605633803
 11
0.0
 21
-9.0513890609
 31
0.0
 73
     1
  0
TEXT
  5
43
  8
2
  6
CONTINUOUS
 62
     0
 10
0.0
 20
-12.5770835914
 30
0.0
 40
3.5
  1
reprodution or use is prohibted.
 41
0.65625
 11
0.0
 21
-13.5770835914
 31
0.0
 73
     1
  0
ENDBLK
  5
40
  8
0
  0
BLOCK
  8
0
  2
SW_NOTE_1
 70
     0
 10
0.0
 20
0.0
 30
0.0
  3
SW_NOTE_1
  1

  0
TEXT
  5
49
  8
2
  6
CONTINUOUS
 62
     0
 10
0.0
 20
1.0
 30
0.0
 40
3.5
  1
Vieler International GmbH+Co.KG
 41
0.6774193548
 11
0.0
 21
0.0
 31
0.0
 73
     1
  0
TEXT
  5
4A
  8
2
  6
CONTINUOUS
 62
     0
 10
22.5458340719
 20
-3.5256945305
 30
0.0
 40
3.5
  1
58642 Iserlohn
 41
0.7
 11
22.5458340719
 21
-4.5256945305
 31
0.0
 73
     1
  0
ENDBLK
  5
48
  8
0
  0
BLOCK
  8
0
  2
*D3
 70
     1
 10
0.0
 20
0.0
 30
0.0
  3
*D3
  1

  0
SOLID
  5
60
  8
6
  6
CONTINUOUS
 62
     6
 10
92.8906066326
 20
182.4236794509
 30
0.0
 11
97.8906066326
 21
181.9236794509
 31
0.0
 12
97.8906066326
 22
182.9236794509
 32
0.0
 13
97.8906066326
 23
182.9236794509
 33
0.0
  0
SOLID
  5
61
  8
6
  6
CONTINUOUS
 62
     6
 10
231.5816086553
 20
182.4236794509
 30
0.0
 11
226.5816086553
 21
182.9236794509
 31
0.0
 12
226.5816086553
 22
181.9236794509
 32
0.0
 13
226.5816086553
 23
181.9236794509
 33
0.0
  0
LINE
  5
62
  8
6
  6
CONTINUOUS
 62
     6
 10
92.8906066326
 20
216.1706115827
 30
0.0
 11
92.8906066326
 21
181.4236794509
 31
0.0
  0
LINE
  5
63
  8
6
  6
CONTINUOUS
 62
     6
 10
231.5816086553
 20
218.6930273047
 30
0.0
 11
231.5816086553
 21
181.4236794509
 31
0.0
  0
LINE
  5
64
  8
6
  6
CONTINUOUS
 62
     6
 10
92.8906066326
 20
182.4236794509
 30
0.0
 11
231.5816086553
 21
182.4236794509
 31
0.0
  0
TEXT
  5
65
  8
6
  6
CONTINUOUS
 62
     6
 10
165.6903349585
 20
183.4236792763
 30
0.0
 40
3.5
  1
139
 41
0.7
 11
165.6903349585
 21
182.4236792763
 31
0.0
 73
     1
  0
ENDBLK
  5
5F
  8
0
  0
BLOCK
  8
0
  2
*D4
 70
     1
 10
0.0
 20
0.0
 30
0.0
  3
*D4
  1

  0
SOLID
  5
6B
  8
6
  6
CONTINUOUS
 62
     6
 10
244.3837292776
 20
212.2154430268
 30
0.0
 11
243.8837292776
 21
207.2154430268
 31
0.0
 12
244.8837292776
 22
207.2154430268
 32
0.0
 13
244.8837292776
 23
207.2154430268
 33
0.0
  0
SOLID
  5
6C
  8
6
  6
CONTINUOUS
 62
     6
 10
244.3837292776
 20
232.2154430268
 30
0.0
 11
244.8837292776
 21
237.2154430268
 31
0.0
 12
243.8837292776
 22
237.2154430268
 32
0.0
 13
243.8837292776
 23
237.2154430268
 33
0.0
  0
LINE
  5
6D
  8
6
  6
CONTINUOUS
 62
     6
 10
225.2804296754
 20
212.2154430268
 30
0.0
 11
245.3837292776
 21
212.2154430268
 31
0.0
  0
LINE
  5
6E
  8
6
  6
CONTINUOUS
 62
     6
 10
225.2934337956
 20
232.2154430268
 30
0.0
 11
245.3837292776
 21
232.2154430268
 31
0.0
  0
LINE
  5
6F
  8
6
  6
CONTINUOUS
 62
     6
 10
244.3837292776
 20
212.2154430268
 30
0.0
 11
244.3837292776
 21
202.2154430268
 31
0.0
  0
LINE
  5
70
  8
6
  6
CONTINUOUS
 62
     6
 10
244.3837292776
 20
212.2154430268
 30
0.0
 11
244.3837292776
 21
232.2154430268
 31
0.0
  0
LINE
  5
71
  8
6
  6
CONTINUOUS
 62
     6
 10
244.3837292776
 20
232.2154430268
 30
0.0
 11
244.3837292776
 21
242.2154430268
 31
0.0
  0
TEXT
  5
72
  8
6
  6
CONTINUOUS
 62
     6
 10
243.3837292776
 20
218.6517896138
 30
0.0
 40
3.5
  1
%%c
 50
90.0
 41
0.7
 11
244.3837292776
 21
218.6517896138
 31
0.0
 73
     1
  0
TEXT
  5
73
  8
6
  6
CONTINUOUS
 62
     6
 10
243.3837294522
 20
223.9269709264
 30
0.0
 40
3.5
  1
20
 50
90.0
 41
0.7
 11
244.3837294522
 21
223.9269709264
 31
0.0
 73
     1
  0
ENDBLK
  5
6A
  8
0
  0
BLOCK
  8
0
  2
SW_CENTERMARKSYMBOL_0
 70
     0
 10
0.0
 20
0.0
 30
0.0
  3
SW_CENTERMARKSYMBOL_0
  1

  0
LINE
  5
77
  8
6
  6
CENTER
 62
     0
 10
0.0
 20
0.0
 30
0.0
 11
0.0
 21
2.5
 31
0.0
  0
LINE
  5
78
  8
6
  6
CENTER
 62
     0
 10
0.0
 20
0.0
 30
0.0
 11
-2.5
 21
0.0
 31
0.0
  0
LINE
  5
79
  8
6
  6
CENTER
 62
     0
 10
0.0
 20
0.0
 30
0.0
 11
0.0
 21
-2.5
 31
0.0
  0
LINE
  5
7A
  8
6
  6
CENTER
 62
     0
 10
0.0
 20
0.0
 30
0.0
 11
2.5
 21
0.0
 31
0.0
  0
LINE
  5
7B
  8
6
  6
CENTER
 62
     0
 10
0.0
 20
5.0
 30
0.0
 11
0.0
 21
30.0
 31
0.0
  0
LINE
  5
7C
  8
6
  6
CENTER
 62
     0
 10
-5.0
 20
0.0
 30
0.0
 11
-30.0
 21
0.0
 31
0.0
  0
LINE
  5
7D
  8
6
  6
CENTER
 62
     0
 10
0.0
 20
-5.0
 30
0.0
 11
0.0
 21
-30.0
 31
0.0
  0
LINE
  5
7E
  8
6
  6
CENTER
 62
     0
 10
5.0
 20
0.0
 30
0.0
 11
133.9735015753
 21
0.0
 31
0.0
  0
ENDBLK
  5
76
  8
0
  0
BLOCK
  8
0
  2
*D6
 70
     1
 10
0.0
 20
0.0
 30
0.0
  3
*D6
  1

  0
SOLID
  5
A3
  8
6
  6
CONTINUOUS
 62
     6
 10
83.8406066326
 20
160.368666016
 30
0.0
 11
88.8406066326
 21
159.868666016
 31
0.0
 12
88.8406066326
 22
160.868666016
 32
0.0
 13
88.8406066326
 23
160.868666016
 33
0.0
  0
SOLID
  5
A4
  8
6
  6
CONTINUOUS
 62
     6
 10
121.8406066326
 20
160.368666016
 30
0.0
 11
116.8406066326
 21
160.868666016
 31
0.0
 12
116.8406066326
 22
159.868666016
 32
0.0
 13
116.8406066326
 23
159.868666016
 33
0.0
  0
LINE
  5
A5
  8
6
  6
CONTINUOUS
 62
     6
 10
83.8406066326
 20
144.0279471665
 30
0.0
 11
83.8406066326
 21
161.368666016
 31
0.0
  0
LINE
  5
A6
  8
6
  6
CONTINUOUS
 62
     6
 10
121.8406066326
 20
144.0279471665
 30
0.0
 11
121.8406066326
 21
161.368666016
 31
0.0
  0
LINE
  5
A7
  8
6
  6
CONTINUOUS
 62
     6
 10
83.8406066326
 20
160.368666016
 30
0.0
 11
121.8406066326
 21
160.368666016
 31
0.0
  0
TEXT
  5
A8
  8
6
  6
CONTINUOUS
 62
     6
 10
98.8744046764
 20
161.3686658414
 30
0.0
 40
3.5
  1
38
 41
0.7
 11
98.8744046764
 21
160.3686658414
 31
0.0
 73
     1
  0
ENDBLK
  5
A2
  8
0
  0
BLOCK
  8
0
  2
*D7
 70
     1
 10
0.0
 20
0.0
 30
0.0
  3
*D7
  1

  0
SOLID
  5
AD
  8
6
  6
CONTINUOUS
 62
     6
 10
79.5906066326
 20
151.7215114658
 30
0.0
 11
74.5906066326
 21
152.2215114658
 31
0.0
 12
74.5906066326
 22
151.2215114658
 32
0.0
 13
74.5906066326
 23
151.2215114658
 33
0.0
  0
SOLID
  5
AE
  8
6
  6
CONTINUOUS
 62
     6
 10
88.0321091686
 20
151.7215114658
 30
0.0
 11
93.0321091686
 21
151.2215114658
 31
0.0
 12
93.0321091686
 22
152.2215114658
 32
0.0
 13
93.0321091686
 23
152.2215114658
 33
0.0
  0
LINE
  5
AF
  8
6
  6
CONTINUOUS
 62
     6
 10
79.5906066326
 20
137.7215114658
 30
0.0
 11
79.5906066326
 21
152.7215114658
 31
0.0
  0
LINE
  5
B0
  8
6
  6
CONTINUOUS
 62
     6
 10
88.0321091686
 20
137.7215114658
 30
0.0
 11
88.0321091686
 21
152.7215114658
 31
0.0
  0
LINE
  5
B1
  8
6
  6
CONTINUOUS
 62
     6
 10
79.5906066326
 20
151.7215114658
 30
0.0
 11
69.5906066326
 21
151.7215114658
 31
0.0
  0
LINE
  5
B2
  8
6
  6
CONTINUOUS
 62
     6
 10
79.5906066326
 20
151.7215114658
 30
0.0
 11
88.0321091686
 21
151.7215114658
 31
0.0
  0
LINE
  5
B3
  8
6
  6
CONTINUOUS
 62
     6
 10
88.0321091686
 20
151.7215114658
 30
0.0
 11
100.7412960717
 21
151.7215114658
 31
0.0
  0
TEXT
  5
B4
  8
6
  6
CONTINUOUS
 62
     6
 10
91.2958249927
 20
152.7215114658
 30
0.0
 40
3.5
  1
%%c
 50
360.0
 41
0.7
 11
91.2958249927
 21
151.7215114658
 31
0.0
 73
     1
  0
TEXT
  5
B5
  8
6
  6
CONTINUOUS
 62
     6
 10
96.5710063053
 20
152.7215112911
 30
0.0
 40
3.5
  1
8
 50
360.0
 41
0.7
 11
96.5710063053
 21
151.7215112911
 31
0.0
 73
     1
  0
ENDBLK
  5
AC
  8
0
  0
BLOCK
  8
0
  2
*D8
 70
     1
 10
0.0
 20
0.0
 30
0.0
  3
*D8
  1

  0
SOLID
  5
BA
  8
6
  6
CONTINUOUS
 62
     6
 10
61.6947725399
 20
136.9215114658
 30
0.0
 11
61.1947725399
 21
131.9215114658
 31
0.0
 12
62.1947725399
 22
131.9215114658
 32
0.0
 13
62.1947725399
 23
131.9215114658
 33
0.0
  0
SOLID
  5
BB
  8
6
  6
CONTINUOUS
 62
     6
 10
61.6947725399
 20
141.7215114658
 30
0.0
 11
62.1947725399
 21
146.7215114658
 31
0.0
 12
61.1947725399
 22
146.7215114658
 32
0.0
 13
61.1947725399
 23
146.7215114658
 33
0.0
  0
LINE
  5
BC
  8
6
  6
CONTINUOUS
 62
     6
 10
74.3406066326
 20
136.9215114658
 30
0.0
 11
60.6947725399
 21
136.9215114658
 31
0.0
  0
LINE
  5
BD
  8
6
  6
CONTINUOUS
 62
     6
 10
80.3406066326
 20
141.7215114658
 30
0.0
 11
60.6947725399
 21
141.7215114658
 31
0.0
  0
LINE
  5
BE
  8
6
  6
CONTINUOUS
 62
     6
 10
61.6947725399
 20
136.9215114658
 30
0.0
 11
61.6947725399
 21
125.7568984309
 31
0.0
  0
LINE
  5
BF
  8
6
  6
CONTINUOUS
 62
     6
 10
61.6947725399
 20
136.9215114658
 30
0.0
 11
61.6947725399
 21
141.7215114658
 31
0.0
  0
LINE
  5
C0
  8
6
  6
CONTINUOUS
 62
     6
 10
61.6947725399
 20
141.7215114658
 30
0.0
 11
61.6947725399
 21
151.7215114658
 31
0.0
  0
TEXT
  5
C1
  8
6
  6
CONTINUOUS
 62
     6
 10
60.6947727145
 20
127.3443984309
 30
0.0
 40
3.5
  1
5
 50
90.0
 41
0.7
 11
61.6947727145
 21
127.3443984309
 31
0.0
 73
     1
  0
ENDBLK
  5
B9
  8
0
  0
BLOCK
  8
0
  2
*D9
 70
     1
 10
0.0
 20
0.0
 30
0.0
  3
*D9
  1

  0
SOLID
  5
C6
  8
6
  6
CONTINUOUS
 62
     6
 10
92.8406066326
 20
109.9504556683
 30
0.0
 11
97.8406066326
 21
109.4504556683
 31
0.0
 12
97.8406066326
 22
110.4504556683
 32
0.0
 13
97.8406066326
 23
110.4504556683
 33
0.0
  0
SOLID
  5
C7
  8
6
  6
CONTINUOUS
 62
     6
 10
112.8406066326
 20
109.9504556683
 30
0.0
 11
107.8406066326
 21
110.4504556683
 31
0.0
 12
107.8406066326
 22
109.4504556683
 32
0.0
 13
107.8406066326
 23
109.4504556683
 33
0.0
  0
LINE
  5
C8
  8
6
  6
CONTINUOUS
 62
     6
 10
92.8406066326
 20
109.9504556683
 30
0.0
 11
74.9040870162
 21
109.9504556683
 31
0.0
  0
LINE
  5
C9
  8
6
  6
CONTINUOUS
 62
     6
 10
92.8406066326
 20
109.9504556683
 30
0.0
 11
112.8406066326
 21
109.9504556683
 31
0.0
  0
TEXT
  5
CA
  8
6
  6
CONTINUOUS
 62
     6
 10
76.4915870162
 20
110.9504556683
 30
0.0
 40
3.5
  1
%%c
 41
0.7
 11
76.4915870162
 21
109.9504556683
 31
0.0
 73
     1
  0
TEXT
  5
CB
  8
6
  6
CONTINUOUS
 62
     6
 10
81.7667683288
 20
110.9504554937
 30
0.0
 40
3.5
  1
20
 41
0.7
 11
81.7667683288
 21
109.9504554937
 31
0.0
 73
     1
  0
ENDBLK
  5
C5
  8
0
  0
BLOCK
  8
0
  2
*D10
 70
     1
 10
0.0
 20
0.0
 30
0.0
  3
*D10
  1

  0
SOLID
  5
D0
  8
6
  6
CONTINUOUS
 62
     6
 10
144.0945670569
 20
136.9215114658
 30
0.0
 11
144.5945670569
 21
141.9215114658
 31
0.0
 12
143.5945670569
 22
141.9215114658
 32
0.0
 13
143.5945670569
 23
141.9215114658
 33
0.0
  0
SOLID
  5
D1
  8
6
  6
CONTINUOUS
 62
     6
 10
144.0945670569
 20
126.4215114658
 30
0.0
 11
143.5945670569
 21
121.4215114658
 31
0.0
 12
144.5945670569
 22
121.4215114658
 32
0.0
 13
144.5945670569
 23
121.4215114658
 33
0.0
  0
LINE
  5
D2
  8
6
  6
CONTINUOUS
 62
     6
 10
131.3406066326
 20
136.9215114658
 30
0.0
 11
145.0945670569
 21
136.9215114658
 31
0.0
  0
LINE
  5
D3
  8
6
  6
CONTINUOUS
 62
     6
 10
130.8406066326
 20
126.4215114658
 30
0.0
 11
145.0945670569
 21
126.4215114658
 31
0.0
  0
LINE
  5
D4
  8
6
  6
CONTINUOUS
 62
     6
 10
144.0945670569
 20
136.9215114658
 30
0.0
 11
144.0945670569
 21
146.9215114658
 31
0.0
  0
LINE
  5
D5
  8
6
  6
CONTINUOUS
 62
     6
 10
144.0945670569
 20
136.9215114658
 30
0.0
 11
144.0945670569
 21
126.4215114658
 31
0.0
  0
LINE
  5
D6
  8
6
  6
CONTINUOUS
 62
     6
 10
144.0945670569
 20
126.4215114658
 30
0.0
 11
144.0945670569
 21
116.4215114658
 31
0.0
  0
TEXT
  5
D7
  8
6
  6
CONTINUOUS
 62
     6
 10
143.0945672315
 20
129.3607738031
 30
0.0
 40
3.5
  1
10
 50
90.0
 41
0.7
 11
144.0945672315
 21
129.3607738031
 31
0.0
 73
     1
  0
ENDBLK
  5
CF
  8
0
  0
BLOCK
  8
0
  2
*D11
 70
     1
 10
0.0
 20
0.0
 30
0.0
  3
*D11
  1

  0
SOLID
  5
F9
  8
6
  6
CONTINUOUS
 62
     6
 10
363.8329079846
 20
181.3992878866
 30
0.0
 11
358.8329079846
 21
181.8992878866
 31
0.0
 12
358.8329079846
 22
180.8992878866
 32
0.0
 13
358.8329079846
 23
180.8992878866
 33
0.0
  0
SOLID
  5
FA
  8
6
  6
CONTINUOUS
 62
     6
 10
289.5171850917
 20
181.3992878866
 30
0.0
 11
294.5171850917
 21
180.8992878866
 31
0.0
 12
294.5171850917
 22
181.8992878866
 32
0.0
 13
294.5171850917
 23
181.8992878866
 33
0.0
  0
LINE
  5
FB
  8
6
  6
CONTINUOUS
 62
     6
 10
363.8329079846
 20
218.0626720573
 30
0.0
 11
363.8329079846
 21
180.3992878866
 31
0.0
  0
LINE
  5
FC
  8
6
  6
CONTINUOUS
 62
     6
 10
289.5171850917
 20
193.8795691611
 30
0.0
 11
289.5171850917
 21
180.3992878866
 31
0.0
  0
LINE
  5
FD
  8
6
  6
CONTINUOUS
 62
     6
 10
363.8329079846
 20
181.3992878866
 30
0.0
 11
289.5171850917
 21
181.3992878866
 31
0.0
  0
TEXT
  5
FE
  8
6
  6
CONTINUOUS
 62
     6
 10
320.2880051569
 20
182.3992877119
 30
0.0
 40
3.5
  1
74
 50
0.0
 41
0.7
 11
320.2880051569
 21
181.3992877119
 31
0.0
 73
     1
  0
ENDBLK
  5
F8
  8
0
  0
BLOCK
  8
0
  2
*D12
 70
     1
 10
0.0
 20
0.0
 30
0.0
  3
*D12
  1

  0
SOLID
  5
103
  8
6
  6
CONTINUOUS
 62
     6
 10
274.7171850917
 20
249.7154430268
 30
0.0
 11
274.2171850917
 21
244.7154430268
 31
0.0
 12
275.2171850917
 22
244.7154430268
 32
0.0
 13
275.2171850917
 23
244.7154430268
 33
0.0
  0
SOLID
  5
104
  8
6
  6
CONTINUOUS
 62
     6
 10
274.7171850917
 20
194.7154430268
 30
0.0
 11
275.2171850917
 21
199.7154430268
 31
0.0
 12
274.2171850917
 22
199.7154430268
 32
0.0
 13
274.2171850917
 23
199.7154430268
 33
0.0
  0
LINE
  5
105
  8
6
  6
CONTINUOUS
 62
     6
 10
288.5171850917
 20
249.7154430268
 30
0.0
 11
273.7171850917
 21
249.7154430268
 31
0.0
  0
LINE
  5
106
  8
6
  6
CONTINUOUS
 62
     6
 10
289.5171850917
 20
194.7154430268
 30
0.0
 11
273.7171850917
 21
194.7154430268
 31
0.0
  0
LINE
  5
107
  8
6
  6
CONTINUOUS
 62
     6
 10
274.7171850917
 20
249.7154430268
 30
0.0
 11
274.7171850917
 21
194.7154430268
 31
0.0
  0
TEXT
  5
108
  8
6
  6
CONTINUOUS
 62
     6
 10
273.7171850917
 20
220.2812827542
 30
0.0
 40
3.5
  1
%%c
 50
90.0
 41
0.7
 11
274.7171850917
 21
220.2812827542
 31
0.0
 73
     1
  0
TEXT
  5
109
  8
6
  6
CONTINUOUS
 62
     6
 10
273.7171852663
 20
225.5564640668
 30
0.0
 40
3.5
  1
55
 50
90.0
 41
0.7
 11
274.7171852663
 21
225.5564640668
 31
0.0
 73
     1
  0
ENDBLK
  5
102
  8
0
  0
ENDSEC
  0
SECTION
  2
ENTITIES
  0
LINE
  5
34
  8
6
  6
CONTINUOUS
 62
     6
 10
20.0
 20
287.0
 30
0.0
 11
20.0
 21
9.0
 31
0.0
  0
LINE
  5
35
  8
6
  6
CONTINUOUS
 62
     6
 10
20.0
 20
148.5
 30
0.0
 11
13.375265605
 21
148.5
 31
0.0
  0
LINE
  5
36
  8
6
  6
CONTINUOUS
 62
     6
 10
20.0
 20
287.0
 30
0.0
 11
414.5
 21
287.0
 31
0.0
  0
LINE
  5
37
  8
6
  6
CONTINUOUS
 62
     6
 10
20.0
 20
9.0
 30
0.0
 11
414.5
 21
9.0
 31
0.0
  0
LINE
  5
38
  8
6
  6
CONTINUOUS
 62
     6
 10
0.0
 20
297.0
 30
0.0
 11
420.0
 21
297.0
 31
0.0
  0
LINE
  5
39
  8
6
  6
CONTINUOUS
 62
     6
 10
420.0
 20
297.0
 30
0.0
 11
420.0
 21
0.0
 31
0.0
  0
LINE
  5
3A
  8
6
  6
CONTINUOUS
 62
     6
 10
420.0
 20
0.0
 30
0.0
 11
0.0
 21
0.0
 31
0.0
  0
LINE
  5
3B
  8
6
  6
CONTINUOUS
 62
     6
 10
0.0
 20
0.0
 30
0.0
 11
0.0
 21
297.0
 31
0.0
  0
LINE
  5
3C
  8
6
  6
CONTINUOUS
 62
     6
 10
414.5
 20
52.5
 30
0.0
 11
414.5
 21
287.0
 31
0.0
  0
LINE
  5
3D
  8
6
  6
CONTINUOUS
 62
     6
 10
414.5
 20
52.5
 30
0.0
 11
414.5
 21
9.0
 31
0.0
  0
INSERT
  5
44
  8
2
  6
CONTINUOUS
 62
     1
  2
SW_NOTE_0
 10
25.131147541
 20
27.4759448138
 30
0.0
  0
TEXT
  5
45
  8
2
  6
CONTINUOUS
 62
     1
 10
312.7010196007
 20
39.8322418184
 30
0.0
 40
10.0
  1
Modell 
 41
0.7
 11
312.7010196007
 21
36.9750989613
 31
0.0
 73
     1
  0
INSERT
  5
4B
  8
2
  6
CONTINUOUS
 62
     1
  2
SW_NOTE_1
 10
309.7662955082
 20
27.4759448138
 30
0.0
  0
TEXT
  5
4C
  8
2
  6
CONTINUOUS
 62
     1
 10
300.4572681642
 20
14.8988612224
 30
0.0
 40
3.5
  1
Datum/Date 01/2008    Maßstab/Scale 1:1
 41
0.6461538462
 11
300.4572681642
 21
13.8988612224
 31
0.0
 73
     1
  0
LINE
  5
4D
  8
6
  6
CONTINUOUS
 62
     6
 10
92.8906066326
 20
222.2154430268
 30
0.0
 11
92.8906066326
 21
217.1706115827
 31
0.0
  0
LINE
  5
4E
  8
6
  6
CONTINUOUS
 62
     6
 10
231.5816086553
 20
222.2154430268
 30
0.0
 11
231.5816086553
 21
219.6930273047
 31
0.0
  0
LINE
  5
4F
  8
0
  6
CONTINUOUS
 10
224.2770609883
 20
232.2154428033
 30
0.0
 11
102.7389664378
 21
232.2154428033
 31
0.0
  0
LINE
  5
50
  8
0
  6
CONTINUOUS
 10
102.7258824543
 20
212.2154432503
 30
0.0
 11
224.2670623092
 21
212.2154432503
 31
0.0
  0
POLYLINE
  5
51
  8
0
  6
CONTINUOUS
 66
     1
 10
0.0
 20
0.0
 30
0.0
  0
VERTEX
  5
10D
  8
0
  6
CONTINUOUS
 10
230.8511776356
 20
226.3651551833
 30
0.0
  0
VERTEX
  5
10E
  8
0
  6
CONTINUOUS
 10
230.7679993538
 20
226.5867694435
 30
0.0
  0
VERTEX
  5
10F
  8
0
  6
CONTINUOUS
 10
230.6837928919
 20
226.81176813
 30
0.0
  0
SEQEND
  5
10C
  8
0
  6
CONTINUOUS
  0
POLYLINE
  5
52
  8
0
  6
CONTINUOUS
 66
     1
 10
0.0
 20
0.0
 30
0.0
  0
VERTEX
  5
111
  8
0
  6
CONTINUOUS
 10
230.6639892486
 20
217.5822133352
 30
0.0
  0
VERTEX
  5
112
  8
0
  6
CONTINUOUS
 10
230.7556164888
 20
217.826979809
 30
0.0
  0
VERTEX
  5
113
  8
0
  6
CONTINUOUS
 10
230.8456940082
 20
218.0669541625
 30
0.0
  0
SEQEND
  5
110
  8
0
  6
CONTINUOUS
  0
ARC
  5
53
  8
0
  6
CONTINUOUS
 10
102.7537201101
 20
222.2049597502
 30
0.0
 40
9.970968281355274
 50
89.9095627056
 51
269.9570935641
  0
POLYLINE
  5
54
  8
0
  6
CONTINUOUS
 66
     1
 10
0.0
 20
0.0
 30
0.0
  0
VERTEX
  5
115
  8
0
  6
CONTINUOUS
 10
229.3730569509
 20
215.1307250527
 30
0.0
  0
VERTEX
  5
116
  8
0
  6
CONTINUOUS
 10
230.3003264097
 20
216.7097526756
 30
0.0
  0
VERTEX
  5
117
  8
0
  6
CONTINUOUS
 10
230.9692246345
 20
218.488363192
 30
0.0
  0
VERTEX
  5
118
  8
0
  6
CONTINUOUS
 10
231.3664746908
 20
220.386103137
 30
0.0
  0
VERTEX
  5
119
  8
0
  6
CONTINUOUS
 10
231.4882022766
 20
222.3236513886
 30
0.0
  0
VERTEX
  5
11A
  8
0
  6
CONTINUOUS
 10
231.336538258
 20
224.2548566931
 30
0.0
  0
VERTEX
  5
11B
  8
0
  6
CONTINUOUS
 10
230.9097093967
 20
226.1413001609
 30
0.0
  0
VERTEX
  5
11C
  8
0
  6
CONTINUOUS
 10
230.2116794018
 20
227.9030500134
 30
0.0
  0
VERTEX
  5
11D
  8
0
  6
CONTINUOUS
 10
229.9207938341
 20
228.4484869955
 30
0.0
  0
VERTEX
  5
11E
  8
0
  6
CONTINUOUS
 10
229.6019387869
 20
228.9680117895
 30
0.0
  0
VERTEX
  5
11F
  8
0
  6
CONTINUOUS
 10
229.2559785274
 20
229.4586818819
 30
0.0
  0
VERTEX
  5
120
  8
0
  6
CONTINUOUS
 10
228.3371282247
 20
230.4854394091
 30
0.0
  0
VERTEX
  5
121
  8
0
  6
CONTINUOUS
 10
227.179449561
 20
231.3729292867
 30
0.0
  0
VERTEX
  5
122
  8
0
  6
CONTINUOUS
 10
225.7899088291
 20
231.9959812952
 30
0.0
  0
VERTEX
  5
123
  8
0
  6
CONTINUOUS
 10
225.2792162327
 20
232.1209005234
 30
0.0
  0
VERTEX
  5
124
  8
0
  6
CONTINUOUS
 10
224.7471777228
 20
232.1955227447
 30
0.0
  0
VERTEX
  5
125
  8
0
  6
CONTINUOUS
 10
224.2505890755
 20
232.2126311404
 30
0.0
  0
SEQEND
  5
114
  8
0
  6
CONTINUOUS
  0
ARC
  5
55
  8
0
  6
CONTINUOUS
 10
224.0842051507
 20
218.4947887596
 30
0.0
 40
6.268084076392846
 50
271.4412279456
 51
327.5409095126
  0
ARC
  5
56
  8
0
  6
CONTINUOUS
 10
220.8744512009
 20
222.2289386019
 30
0.0
 40
10.77227696776675
 50
337.3818608012
 51
22.4784187568
  0
ARC
  5
57
  8
0
  6
CONTINUOUS
 10
102.8406061013
 20
222.2154430268
 30
0.0
 40
9.999999776482653
 50
89.999996956
 51
270.000003044
  0
ARC
  5
58
  8
0
  6
CONTINUOUS
 10
102.8406066326
 20
222.2154430268
 30
0.0
 40
27.5
 50
21.3236862635
 51
180.0
  0
ARC
  5
59
  8
0
  6
CONTINUOUS
 10
102.8406066326
 20
222.2154430268
 30
0.0
 40
27.50000000000001
 50
180.0
 51
338.6763137365
  0
ARC
  5
5A
  8
0
  6
CONTINUOUS
 10
102.8406066326
 20
222.2154430268
 30
0.0
 40
10.50000000000001
 50
72.2472098381
 51
287.7527901619
  0
DIMENSION
  5
5B
  8
6
  6
CONTINUOUS
 62
     6
  2
*D3
 10
231.5816086553
 20
182.4236794509
 30
0.0
 11
169.5692849029
 21
182.4236794509
 31
0.0
 70
   160
  3
SLDDIMSTYLE0
 13
92.8906066326
 23
217.1706115827
 33
0.0
 14
231.5816086553
 24
219.6930273047
 34
0.0
  0
DIMENSION
  5
66
  8
6
  6
CONTINUOUS
 62
     6
  2
*D4
 10
244.3837292776
 20
232.2154430268
 30
0.0
 11
244.3837292776
 21
223.8745526839
 31
0.0
 70
   160
  1
%%c<>
  3
SLDDIMSTYLE1
 13
224.2804296754
 23
212.2154430268
 33
0.0
 14
224.2934337956
 24
232.2154430268
 34
0.0
 50
90.0
  0
INSERT
  5
7F
  8
6
  6
CENTER
 62
     6
  2
SW_CENTERMARKSYMBOL_0
 10
102.8406066326
 20
222.2154430268
 30
0.0
  0
LINE
  5
80
  8
6
  6
CENTER
 62
     6
 10
83.8406066326
 20
143.0279471665
 30
0.0
 11
83.8406066326
 21
126.4215114658
 31
0.0
  0
LINE
  5
81
  8
6
  6
CENTER
 62
     6
 10
121.8406066326
 20
143.0279471665
 30
0.0
 11
121.8406066326
 21
126.4215114658
 31
0.0
  0
ARC
  5
82
  8
0
  6
CONTINUOUS
 10
165.1990791101
 20
202.6715114658
 30
0.0
 40
120.0
 50
244.1206216355
 51
295.6174496734
  0
ARC
  5
83
  8
0
  6
CONTINUOUS
 10
165.1990791101
 20
202.6715114658
 30
0.0
 40
140.0
 50
238.8851490851
 51
298.2603556469
  0
POLYLINE
  5
84
  8
0
  6
CONTINUOUS
 66
     1
 10
0.0
 20
0.0
 30
0.0
  0
VERTEX
  5
127
  8
0
  6
CONTINUOUS
 10
217.8934258846
 20
94.2186939661
 30
0.0
  0
VERTEX
  5
128
  8
0
  6
CONTINUOUS
 10
217.4866390852
 20
94.3424071316
 30
0.0
  0
VERTEX
  5
129
  8
0
  6
CONTINUOUS
 10
217.0798597363
 20
94.4661240224
 30
0.0
  0
SEQEND
  5
126
  8
0
  6
CONTINUOUS
  0
POLYLINE
  5
85
  8
0
  6
CONTINUOUS
 66
     1
 10
0.0
 20
0.0
 30
0.0
  0
VERTEX
  5
12B
  8
0
  6
CONTINUOUS
 10
231.488604608
 20
79.3601389174
 30
0.0
  0
VERTEX
  5
12C
  8
0
  6
CONTINUOUS
 10
231.5351707367
 20
79.9452553634
 30
0.0
  0
VERTEX
  5
12D
  8
0
  6
CONTINUOUS
 10
231.5817517666
 20
80.5303718094
 30
0.0
  0
SEQEND
  5
12A
  8
0
  6
CONTINUOUS
  0
LINE
  5
86
  8
0
  6
CONTINUOUS
 10
92.8406068561
 20
126.4215114658
 30
0.0
 11
92.8406068561
 21
82.8205573504
 31
0.0
  0
LINE
  5
87
  8
0
  6
CONTINUOUS
 10
112.8406064091
 20
94.6965593044
 30
0.0
 11
112.8406064091
 21
126.4215114658
 31
0.0
  0
LINE
  5
88
  8
0
  6
CONTINUOUS
 10
75.3406067816
 20
136.9215113242
 30
0.0
 11
75.3406067816
 21
126.9215114895
 31
0.0
  0
LINE
  5
89
  8
0
  6
CONTINUOUS
 10
130.3406064836
 20
126.9215114895
 30
0.0
 11
130.3406064836
 21
136.9215113242
 31
0.0
  0
LINE
  5
8A
  8
0
  6
CONTINUOUS
 10
75.3406067816
 20
126.9215114895
 30
0.0
 11
75.8406059322
 21
126.4215114658
 31
0.0
  0
LINE
  5
8B
  8
0
  6
CONTINUOUS
 10
129.840607333
 20
126.4215114658
 30
0.0
 11
130.3406064836
 21
126.9215114895
 31
0.0
  0
LINE
  5
8C
  8
0
  6
CONTINUOUS
 10
126.080124217
 20
136.9215113242
 30
0.0
 11
125.8547348408
 21
141.2221969236
 31
0.0
  0
LINE
  5
8D
  8
0
  6
CONTINUOUS
 10
79.8264784244
 20
141.2221969236
 30
0.0
 11
79.6010890482
 21
136.9215113242
 31
0.0
  0
LINE
  5
8E
  8
0
  6
CONTINUOUS
 10
125.8547348408
 20
141.2221969236
 30
0.0
 11
125.3001899896
 21
141.7215115522
 31
0.0
  0
LINE
  5
8F
  8
0
  6
CONTINUOUS
 10
80.3810232756
 20
141.7215115522
 30
0.0
 11
79.8264784244
 21
141.2221969236
 31
0.0
  0
POLYLINE
  5
90
  8
0
  6
CONTINUOUS
 66
     1
 10
0.0
 20
0.0
 30
0.0
  0
VERTEX
  5
12F
  8
0
  6
CONTINUOUS
 10
92.867913234
 20
82.8367698137
 30
0.0
  0
VERTEX
  5
130
  8
0
  6
CONTINUOUS
 10
92.861936937
 20
82.8332233374
 30
0.0
  0
VERTEX
  5
131
  8
0
  6
CONTINUOUS
 10
93.0781965581
 20
82.9616378193
 30
0.0
  0
VERTEX
  5
132
  8
0
  6
CONTINUOUS
 10
93.4891780344
 20
83.2056778614
 30
0.0
  0
VERTEX
  5
133
  8
0
  6
CONTINUOUS
 10
94.1020152969
 20
83.5695791189
 30
0.0
  0
VERTEX
  5
134
  8
0
  6
CONTINUOUS
 10
94.9038691325
 20
84.0457233731
 30
0.0
  0
VERTEX
  5
135
  8
0
  6
CONTINUOUS
 10
95.880125693
 20
84.6254232471
 30
0.0
  0
VERTEX
  5
136
  8
0
  6
CONTINUOUS
 10
97.0709566464
 20
85.3325392251
 30
0.0
  0
VERTEX
  5
137
  8
0
  6
CONTINUOUS
 10
98.4044918296
 20
86.1243906562
 30
0.0
  0
VERTEX
  5
138
  8
0
  6
CONTINUOUS
 10
99.9652545871
 20
87.0511721019
 30
0.0
  0
VERTEX
  5
139
  8
0
  6
CONTINUOUS
 10
101.623910523
 20
88.0360829775
 30
0.0
  0
VERTEX
  5
13A
  8
0
  6
CONTINUOUS
 10
103.451968098
 20
89.1215841417
 30
0.0
  0
VERTEX
  5
13B
  8
0
  6
CONTINUOUS
 10
105.3080657003
 20
90.2237336282
 30
0.0
  0
VERTEX
  5
13C
  8
0
  6
CONTINUOUS
 10
107.1411800077
 20
91.3122373764
 30
0.0
  0
VERTEX
  5
13D
  8
0
  6
CONTINUOUS
 10
108.8953689178
 20
92.3538769726
 30
0.0
  0
VERTEX
  5
13E
  8
0
  6
CONTINUOUS
 10
110.115848991
 20
93.0785986726
 30
0.0
  0
VERTEX
  5
13F
  8
0
  6
CONTINUOUS
 10
111.192168246
 20
93.7177169268
 30
0.0
  0
VERTEX
  5
140
  8
0
  6
CONTINUOUS
 10
112.0199473081
 20
94.2092503552
 30
0.0
  0
VERTEX
  5
141
  8
0
  6
CONTINUOUS
 10
112.5955707831
 20
94.551056916
 30
0.0
  0
VERTEX
  5
142
  8
0
  6
CONTINUOUS
 10
112.8187780706
 20
94.6835990195
 30
0.0
  0
VERTEX
  5
143
  8
0
  6
CONTINUOUS
 10
112.8089451668
 20
94.6777577643
 30
0.0
  0
SEQEND
  5
12E
  8
0
  6
CONTINUOUS
  0
POLYLINE
  5
91
  8
0
  6
CONTINUOUS
 66
     1
 10
0.0
 20
0.0
 30
0.0
  0
VERTEX
  5
145
  8
0
  6
CONTINUOUS
 10
217.9005337385
 20
94.2115823869
 30
0.0
  0
VERTEX
  5
146
  8
0
  6
CONTINUOUS
 10
218.0148852495
 20
94.0972346012
 30
0.0
  0
VERTEX
  5
147
  8
0
  6
CONTINUOUS
 10
218.4101832537
 20
93.7019365971
 30
0.0
  0
VERTEX
  5
148
  8
0
  6
CONTINUOUS
 10
219.0494132666
 20
93.0627028589
 30
0.0
  0
VERTEX
  5
149
  8
0
  6
CONTINUOUS
 10
219.9127939967
 20
92.1993221287
 30
0.0
  0
VERTEX
  5
14A
  8
0
  6
CONTINUOUS
 10
220.9403110174
 20
91.171805108
 30
0.0
  0
VERTEX
  5
14B
  8
0
  6
CONTINUOUS
 10
222.1167278913
 20
89.9953919594
 30
0.0
  0
VERTEX
  5
14C
  8
0
  6
CONTINUOUS
 10
223.3713982133
 20
88.7407179122
 30
0.0
  0
VERTEX
  5
14D
  8
0
  6
CONTINUOUS
 10
224.670324984
 20
87.4417911415
 30
0.0
  0
VERTEX
  5
14E
  8
0
  6
CONTINUOUS
 10
225.9713304666
 20
86.1407893841
 30
0.0
  0
VERTEX
  5
14F
  8
0
  6
CONTINUOUS
 10
227.237452331
 20
84.8746675198
 30
0.0
  0
VERTEX
  5
150
  8
0
  6
CONTINUOUS
 10
228.4265947965
 20
83.6855213289
 30
0.0
  0
VERTEX
  5
151
  8
0
  6
CONTINUOUS
 10
229.469109836
 20
82.6430062894
 30
0.0
  0
VERTEX
  5
152
  8
0
  6
CONTINUOUS
 10
230.3483826546
 20
81.7637371962
 30
0.0
  0
VERTEX
  5
153
  8
0
  6
CONTINUOUS
 10
231.0110819963
 20
81.1010304038
 30
0.0
  0
VERTEX
  5
154
  8
0
  6
CONTINUOUS
 10
231.4310712246
 20
80.6810523514
 30
0.0
  0
VERTEX
  5
155
  8
0
  6
CONTINUOUS
 10
231.5813494352
 20
80.5307629649
 30
0.0
  0
VERTEX
  5
156
  8
0
  6
CONTINUOUS
 10
231.5745545057
 20
80.5375690703
 30
0.0
  0
SEQEND
  5
144
  8
0
  6
CONTINUOUS
  0
POLYLINE
  5
92
  8
0
  6
CONTINUOUS
 66
     1
 10
0.0
 20
0.0
 30
0.0
  0
VERTEX
  5
158
  8
0
  6
CONTINUOUS
 10
92.8406068561
 20
82.8205573504
 30
0.0
  0
VERTEX
  5
159
  8
0
  6
CONTINUOUS
 10
92.8569152457
 20
82.8302393798
 30
0.0
  0
VERTEX
  5
15A
  8
0
  6
CONTINUOUS
 10
92.9870685068
 20
82.9075242524
 30
0.0
  0
VERTEX
  5
15B
  8
0
  6
CONTINUOUS
 10
93.245677228
 20
83.0610881691
 30
0.0
  0
VERTEX
  5
15C
  8
0
  6
CONTINUOUS
 10
93.6293700216
 20
83.2889231984
 30
0.0
  0
VERTEX
  5
15D
  8
0
  6
CONTINUOUS
 10
94.1331456853
 20
83.5880677347
 30
0.0
  0
VERTEX
  5
15E
  8
0
  6
CONTINUOUS
 10
94.7504365323
 20
83.9546139483
 30
0.0
  0
VERTEX
  5
15F
  8
0
  6
CONTINUOUS
 10
95.4731954699
 20
84.3837860171
 30
0.0
  0
VERTEX
  5
160
  8
0
  6
CONTINUOUS
 10
96.2919993763
 20
84.8699922804
 30
0.0
  0
VERTEX
  5
161
  8
0
  6
CONTINUOUS
 10
97.1961743636
 20
85.4068922941
 30
0.0
  0
VERTEX
  5
162
  8
0
  6
CONTINUOUS
 10
98.1739336131
 20
85.9874862377
 30
0.0
  0
VERTEX
  5
163
  8
0
  6
CONTINUOUS
 10
99.2125296471
 20
86.6042043213
 30
0.0
  0
VERTEX
  5
164
  8
0
  6
CONTINUOUS
 10
100.2984233638
 20
87.2490073685
 30
0.0
  0
VERTEX
  5
165
  8
0
  6
CONTINUOUS
 10
101.4174581943
 20
87.9134911244
 30
0.0
  0
VERTEX
  5
166
  8
0
  6
CONTINUOUS
 10
102.5550461346
 20
88.5889905636
 30
0.0
  0
VERTEX
  5
167
  8
0
  6
CONTINUOUS
 10
103.6963567459
 20
89.2667028253
 30
0.0
  0
VERTEX
  5
168
  8
0
  6
CONTINUOUS
 10
104.8265113933
 20
89.9377877955
 30
0.0
  0
VERTEX
  5
169
  8
0
  6
CONTINUOUS
 10
105.9307766119
 20
90.593502218
 30
0.0
  0
VERTEX
  5
16A
  8
0
  6
CONTINUOUS
 10
106.9947565412
 20
91.2252928261
 30
0.0
  0
VERTEX
  5
16B
  8
0
  6
CONTINUOUS
 10
108.0045812269
 20
91.8249267285
 30
0.0
  0
VERTEX
  5
16C
  8
0
  6
CONTINUOUS
 10
108.9470852604
 20
92.3845845406
 30
0.0
  0
VERTEX
  5
16D
  8
0
  6
CONTINUOUS
 10
109.8099821684
 20
92.8969721441
 30
0.0
  0
VERTEX
  5
16E
  8
0
  6
CONTINUOUS
 10
110.5820229714
 20
93.3554100935
 30
0.0
  0
VERTEX
  5
16F
  8
0
  6
CONTINUOUS
 10
111.2531419349
 20
93.7539230232
 30
0.0
  0
VERTEX
  5
170
  8
0
  6
CONTINUOUS
 10
111.8145906804
 20
94.0873104279
 30
0.0
  0
VERTEX
  5
171
  8
0
  6
CONTINUOUS
 10
112.2590504093
 20
94.3512323444
 30
0.0
  0
VERTEX
  5
172
  8
0
  6
CONTINUOUS
 10
112.5807255013
 20
94.5422428791
 30
0.0
  0
VERTEX
  5
173
  8
0
  6
CONTINUOUS
 10
112.7754240734
 20
94.6578535382
 30
0.0
  0
VERTEX
  5
174
  8
0
  6
CONTINUOUS
 10
112.8406064091
 20
94.6965593044
 30
0.0
  0
SEQEND
  5
157
  8
0
  6
CONTINUOUS
  0
LINE
  5
93
  8
0
  6
CONTINUOUS
 10
75.3406067816
 20
136.9215113242
 30
0.0
 11
130.3406064836
 21
136.9215113242
 31
0.0
  0
LINE
  5
94
  8
0
  6
CONTINUOUS
 10
129.840607333
 20
126.4215114658
 30
0.0
 11
75.8406059322
 21
126.4215114658
 31
0.0
  0
ARC
  5
95
  8
0
  6
CONTINUOUS
 10
107.6926081282
 20
140.552266579
 30
0.0
 40
10.66972758325347
 50
340.1057212457
 51
358.0328444823
  0
LINE
  5
96
  8
0
  6
CONTINUOUS
 10
118.3560477076
 20
140.1860111524
 30
0.0
 11
118.4196076793
 21
141.2221969236
 31
0.0
  0
ARC
  5
97
  8
0
  6
CONTINUOUS
 10
97.5672968248
 20
140.4709395052
 30
0.0
 40
10.24609374644736
 50
181.5935142987
 51
200.2683611987
  0
LINE
  5
98
  8
0
  6
CONTINUOUS
 10
87.3251655576
 20
140.1860111524
 30
0.0
 11
87.2616055859
 21
141.2221969236
 31
0.0
  0
LINE
  5
99
  8
0
  6
CONTINUOUS
 10
119.0912933526
 20
141.7215115522
 30
0.0
 11
125.3001899896
 21
141.7215115522
 31
0.0
  0
LINE
  5
9A
  8
0
  6
CONTINUOUS
 10
118.4196076793
 20
141.2221969236
 30
0.0
 11
119.0912933526
 21
141.7215115522
 31
0.0
  0
LINE
  5
9B
  8
0
  6
CONTINUOUS
 10
80.3810232756
 20
141.7215115522
 30
0.0
 11
86.5899199126
 21
141.7215115522
 31
0.0
  0
LINE
  5
9C
  8
0
  6
CONTINUOUS
 10
86.5899199126
 20
141.7215115522
 30
0.0
 11
87.2616055859
 21
141.2221969236
 31
0.0
  0
LINE
  5
9D
  8
0
  6
CONTINUOUS
 10
85.1970729855
 20
141.7215115522
 30
0.0
 11
86.5899199126
 21
141.7215115522
 31
0.0
  0
LINE
  5
9E
  8
0
  6
CONTINUOUS
 10
120.4841402797
 20
141.7215115522
 30
0.0
 11
119.0912933526
 21
141.7215115522
 31
0.0
  0
DIMENSION
  5
9F
  8
6
  6
CONTINUOUS
 62
     6
  2
*D6
 10
121.8406066326
 20
160.368666016
 30
0.0
 11
101.4595770902
 21
160.368666016
 31
0.0
 70
   160
  3
SLDDIMSTYLE1
 13
83.8406066326
 23
143.0279471665
 33
0.0
 14
121.8406066326
 24
143.0279471665
 34
0.0
  0
DIMENSION
  5
A9
  8
6
  6
CONTINUOUS
 62
     6
  2
*D7
 10
88.0321091686
 20
151.7215114658
 30
0.0
 11
95.2248105322
 21
151.7215114658
 31
0.0
 70
   160
  1
%%c<>
  3
SLDDIMSTYLE0
 13
79.5906066326
 23
136.7215114658
 33
0.0
 14
88.0321091686
 24
136.7215114658
 34
0.0
  0
DIMENSION
  5
B6
  8
6
  6
CONTINUOUS
 62
     6
  2
*D8
 10
61.6947725399
 20
141.7215114658
 30
0.0
 11
61.6947725399
 21
128.6357933141
 31
0.0
 70
   160
  3
SLDDIMSTYLE0
 13
75.3406066326
 23
136.9215114658
 33
0.0
 14
81.3406066326
 24
141.7215114658
 34
0.0
 50
90.0
  0
DIMENSION
  5
C2
  8
6
  6
CONTINUOUS
 62
     6
  2
*D9
 10
112.8406066326
 20
109.9504556683
 30
0.0
 11
81.7143500863
 21
109.9504556683
 31
0.0
 70
   160
  1
%%c<>
  3
SLDDIMSTYLE1
 13
92.8406066326
 23
128.1715114658
 33
0.0
 14
112.8406066326
 24
94.6965590008
 34
0.0
  0
DIMENSION
  5
CC
  8
6
  6
CONTINUOUS
 62
     6
  2
*D10
 10
144.0945670569
 20
126.4215114658
 30
0.0
 11
144.0945670569
 21
131.9459462169
 31
0.0
 70
   160
  3
SLDDIMSTYLE1
 13
130.3406066326
 23
136.9215114658
 33
0.0
 14
129.8406066326
 24
126.4215114658
 34
0.0
 50
90.0
  0
LINE
  5
D8
  8
6
  6
CENTER
 62
     6
 10
121.8406066326
 20
134.7215114658
 30
0.0
 11
121.8406066326
 21
143.2221966984
 31
0.0
  0
LINE
  5
D9
  8
6
  6
CENTER
 62
     6
 10
83.8406066326
 20
134.7215114658
 30
0.0
 11
83.8406066326
 21
143.2221966984
 31
0.0
  0
LINE
  5
DA
  8
6
  6
CENTER
 62
     6
 10
102.8406066326
 20
88.7087687626
 30
0.0
 11
102.8406066326
 21
138.9276416927
 31
0.0
  0
ARC
  5
DB
  8
6
  6
CENTER
 62
     6
 10
165.1990791101
 20
202.6715114658
 30
0.0
 40
129.9999999999998
 50
241.3156047077
 51
299.1429882919
  0
LINE
  5
DC
  8
6
  6
CONTINUOUS
 62
     6
 10
363.8329079846
 20
222.2828044521
 30
0.0
 11
363.8329079846
 21
219.0626720573
 31
0.0
  0
ARC
  5
DD
  8
0
  6
CONTINUOUS
 10
353.7671850917
 20
222.2154430268
 30
0.0
 40
10.00000000000003
 50
270.0
 51
90.0
  0
LINE
  5
DE
  8
0
  6
CONTINUOUS
 10
353.7671859858
 20
232.2154428033
 30
0.0
 11
337.7812053558
 21
232.2154428033
 31
0.0
  0
LINE
  5
DF
  8
0
  6
CONTINUOUS
 10
337.7690050301
 20
212.2154432503
 30
0.0
 11
353.7671859858
 21
212.2154432503
 31
0.0
  0
LINE
  5
E0
  8
0
  6
CONTINUOUS
 10
300.0171850917
 20
212.2154432503
 30
0.0
 11
337.68013823
 21
212.2154432503
 31
0.0
  0
LINE
  5
E1
  8
0
  6
CONTINUOUS
 10
337.68013823
 20
232.2154428033
 30
0.0
 11
300.0171850917
 21
232.2154428033
 31
0.0
  0
LINE
  5
E2
  8
0
  6
CONTINUOUS
 10
290.5171853972
 20
194.7154431758
 30
0.0
 11
299.5171850679
 21
194.7154431758
 31
0.0
  0
LINE
  5
E3
  8
0
  6
CONTINUOUS
 10
299.5171850679
 20
249.7154428778
 30
0.0
 11
289.5171852332
 21
249.7154428778
 31
0.0
  0
LINE
  5
E4
  8
0
  6
CONTINUOUS
 10
299.5171850679
 20
194.7154431758
 30
0.0
 11
300.0171850917
 21
195.2154423264
 31
0.0
  0
LINE
  5
E5
  8
0
  6
CONTINUOUS
 10
300.0171850917
 20
249.2154437271
 30
0.0
 11
299.5171850679
 21
249.7154428778
 31
0.0
  0
LINE
  5
E6
  8
0
  6
CONTINUOUS
 10
289.5171852332
 20
226.4549616878
 30
0.0
 11
285.2164996338
 21
226.2295723115
 31
0.0
  0
LINE
  5
E7
  8
0
  6
CONTINUOUS
 10
285.2164996338
 20
218.201313742
 30
0.0
 11
289.5171852332
 21
217.9759243657
 31
0.0
  0
LINE
  5
E8
  8
0
  6
CONTINUOUS
 10
285.2164996338
 20
226.2295723115
 30
0.0
 11
284.7171850053
 21
225.6750269947
 31
0.0
  0
LINE
  5
E9
  8
0
  6
CONTINUOUS
 10
284.7171850053
 20
218.7558590589
 30
0.0
 11
285.2164996338
 21
218.201313742
 31
0.0
  0
POLYLINE
  5
EA
  8
0
  6
CONTINUOUS
 66
     1
 10
0.0
 20
0.0
 30
0.0
  0
VERTEX
  5
176
  8
0
  6
CONTINUOUS
 10
337.6440513429
 20
212.2229627488
 30
0.0
  0
VERTEX
  5
177
  8
0
  6
CONTINUOUS
 10
338.744975209
 20
212.3548128796
 30
0.0
  0
VERTEX
  5
178
  8
0
  6
CONTINUOUS
 10
339.8857336041
 20
212.8861780432
 30
0.0
  0
VERTEX
  5
179
  8
0
  6
CONTINUOUS
 10
340.9051332173
 20
213.7601572243
 30
0.0
  0
VERTEX
  5
17A
  8
0
  6
CONTINUOUS
 10
341.8549518582
 20
215.0404542839
 30
0.0
  0
VERTEX
  5
17B
  8
0
  6
CONTINUOUS
 10
342.5475205776
 20
216.428074163
 30
0.0
  0
VERTEX
  5
17C
  8
0
  6
CONTINUOUS
 10
343.109029859
 20
218.1175994841
 30
0.0
  0
VERTEX
  5
17D
  8
0
  6
CONTINUOUS
 10
343.4272329804
 20
219.6696348177
 30
0.0
  0
VERTEX
  5
17E
  8
0
  6
CONTINUOUS
 10
343.5973893401
 20
221.3697175533
 30
0.0
  0
VERTEX
  5
17F
  8
0
  6
CONTINUOUS
 10
343.6054732201
 20
222.8764021923
 30
0.0
  0
VERTEX
  5
180
  8
0
  6
CONTINUOUS
 10
343.4770587382
 20
224.4088310902
 30
0.0
  0
VERTEX
  5
181
  8
0
  6
CONTINUOUS
 10
343.233018696
 20
225.799786734
 30
0.0
  0
VERTEX
  5
182
  8
0
  6
CONTINUOUS
 10
342.8691174385
 20
227.130839244
 30
0.0
  0
VERTEX
  5
183
  8
0
  6
CONTINUOUS
 10
342.3929731843
 20
228.3601086741
 30
0.0
  0
VERTEX
  5
184
  8
0
  6
CONTINUOUS
 10
341.8132733104
 20
229.4591503372
 30
0.0
  0
VERTEX
  5
185
  8
0
  6
CONTINUOUS
 10
341.1061573324
 20
230.4436593471
 30
0.0
  0
VERTEX
  5
186
  8
0
  6
CONTINUOUS
 10
340.3143059012
 20
231.2290259791
 30
0.0
  0
VERTEX
  5
187
  8
0
  6
CONTINUOUS
 10
339.3875244555
 20
231.8288591844
 30
0.0
  0
VERTEX
  5
188
  8
0
  6
CONTINUOUS
 10
338.4026135799
 20
232.1564882216
 30
0.0
  0
VERTEX
  5
189
  8
0
  6
CONTINUOUS
 10
337.7173538801
 20
232.1760590342
 30
0.0
  0
SEQEND
  5
175
  8
0
  6
CONTINUOUS
  0
POLYLINE
  5
EB
  8
0
  6
CONTINUOUS
 66
     1
 10
0.0
 20
0.0
 30
0.0
  0
VERTEX
  5
18B
  8
0
  6
CONTINUOUS
 10
337.68013823
 20
212.2154432503
 30
0.0
  0
VERTEX
  5
18C
  8
0
  6
CONTINUOUS
 10
337.8497059938
 20
212.2195215118
 30
0.0
  0
VERTEX
  5
18D
  8
0
  6
CONTINUOUS
 10
338.5252054331
 20
212.3172284258
 30
0.0
  0
VERTEX
  5
18E
  8
0
  6
CONTINUOUS
 10
339.1896891889
 20
212.5439747391
 30
0.0
  0
VERTEX
  5
18F
  8
0
  6
CONTINUOUS
 10
339.8344922361
 20
212.8968025712
 30
0.0
  0
VERTEX
  5
190
  8
0
  6
CONTINUOUS
 10
340.4512103197
 20
213.3711139826
 30
0.0
  0
VERTEX
  5
191
  8
0
  6
CONTINUOUS
 10
341.0318042633
 20
213.96072406
 30
0.0
  0
VERTEX
  5
192
  8
0
  6
CONTINUOUS
 10
341.568704277
 20
214.6579470639
 30
0.0
  0
VERTEX
  5
193
  8
0
  6
CONTINUOUS
 10
342.0549105403
 20
215.4536942174
 30
0.0
  0
VERTEX
  5
194
  8
0
  6
CONTINUOUS
 10
342.4840826091
 20
216.3375905869
 30
0.0
  0
VERTEX
  5
195
  8
0
  6
CONTINUOUS
 10
342.8506288228
 20
217.2981138495
 30
0.0
  0
VERTEX
  5
196
  8
0
  6
CONTINUOUS
 10
343.149773359
 20
218.3227419076
 30
0.0
  0
VERTEX
  5
197
  8
0
  6
CONTINUOUS
 10
343.3776083884
 20
219.3981174999
 30
0.0
  0
VERTEX
  5
198
  8
0
  6
CONTINUOUS
 10
343.5311723051
 20
220.5102210786
 30
0.0
  0
VERTEX
  5
199
  8
0
  6
CONTINUOUS
 10
343.6084571776
 20
221.6445549196
 30
0.0
  0
VERTEX
  5
19A
  8
0
  6
CONTINUOUS
 10
343.6084571776
 20
222.786331134
 30
0.0
  0
VERTEX
  5
19B
  8
0
  6
CONTINUOUS
 10
343.5311723051
 20
223.920664975
 30
0.0
  0
VERTEX
  5
19C
  8
0
  6
CONTINUOUS
 10
343.3776083884
 20
225.0327685536
 30
0.0
  0
VERTEX
  5
19D
  8
0
  6
CONTINUOUS
 10
343.149773359
 20
226.108144146
 30
0.0
  0
VERTEX
  5
19E
  8
0
  6
CONTINUOUS
 10
342.8506288228
 20
227.132772204
 30
0.0
  0
VERTEX
  5
19F
  8
0
  6
CONTINUOUS
 10
342.4840826091
 20
228.0932954667
 30
0.0
  0
VERTEX
  5
1A0
  8
0
  6
CONTINUOUS
 10
342.0549105403
 20
228.9771918361
 30
0.0
  0
VERTEX
  5
1A1
  8
0
  6
CONTINUOUS
 10
341.568704277
 20
229.7729389896
 30
0.0
  0
VERTEX
  5
1A2
  8
0
  6
CONTINUOUS
 10
341.0318042633
 20
230.4701619936
 30
0.0
  0
VERTEX
  5
1A3
  8
0
  6
CONTINUOUS
 10
340.4512103197
 20
231.059772071
 30
0.0
  0
VERTEX
  5
1A4
  8
0
  6
CONTINUOUS
 10
339.8344922361
 20
231.5340834824
 30
0.0
  0
VERTEX
  5
1A5
  8
0
  6
CONTINUOUS
 10
339.1896891889
 20
231.8869113145
 30
0.0
  0
VERTEX
  5
1A6
  8
0
  6
CONTINUOUS
 10
338.5252054331
 20
232.1136576278
 30
0.0
  0
VERTEX
  5
1A7
  8
0
  6
CONTINUOUS
 10
337.8497059938
 20
232.2113645417
 30
0.0
  0
VERTEX
  5
1A8
  8
0
  6
CONTINUOUS
 10
337.68013823
 20
232.2154428033
 30
0.0
  0
SEQEND
  5
18A
  8
0
  6
CONTINUOUS
  0
LINE
  5
EC
  8
0
  6
CONTINUOUS
 10
290.5171853972
 20
194.7154431758
 30
0.0
 11
290.5171853972
 21
194.8795682905
 31
0.0
  0
LINE
  5
ED
  8
0
  6
CONTINUOUS
 10
290.5171853972
 20
194.8795682905
 30
0.0
 11
289.5171852332
 21
194.8795682905
 31
0.0
  0
LINE
  5
EE
  8
0
  6
CONTINUOUS
 10
289.5171852332
 20
194.8795682905
 30
0.0
 11
289.5171852332
 21
249.7154428778
 31
0.0
  0
LINE
  5
EF
  8
0
  6
CONTINUOUS
 10
300.0171850917
 20
222.2154430268
 30
0.0
 11
300.0171850917
 21
195.2154423264
 31
0.0
  0
LINE
  5
F0
  8
0
  6
CONTINUOUS
 10
300.0171850917
 20
249.2154437271
 30
0.0
 11
300.0171850917
 21
222.2154430268
 31
0.0
  0
LINE
  5
F1
  8
0
  6
CONTINUOUS
 10
289.5171852332
 20
194.8795682905
 30
0.0
 11
289.5171852332
 21
196.0871062396
 31
0.0
  0
LINE
  5
F2
  8
0
  6
CONTINUOUS
 10
284.7171850053
 20
218.7558590589
 30
0.0
 11
284.7171850053
 21
225.6750269947
 31
0.0
  0
LINE
  5
F3
  8
0
  6
CONTINUOUS
 10
284.7171850053
 20
220.1154431017
 30
0.0
 11
284.7171850053
 21
219.7154430827
 31
0.0
  0
LINE
  5
F4
  8
0
  6
CONTINUOUS
 10
284.7171850053
 20
224.7154429709
 30
0.0
 11
284.7171850053
 21
224.3154429519
 31
0.0
  0
DIMENSION
  5
F5
  8
6
  6
CONTINUOUS
 62
     6
  2
*D11
 10
289.5171850917
 20
181.3992878866
 30
0.0
 11
322.8731775707
 21
181.3992878866
 31
0.0
 70
   160
  3
SLDDIMSTYLE0
 13
363.8329079846
 23
219.0626720573
 33
0.0
 14
289.5171850917
 24
194.8795691611
 34
0.0
  0
DIMENSION
  5
FF
  8
6
  6
CONTINUOUS
 62
     6
  2
*D12
 10
274.7171850917
 20
194.7154430268
 30
0.0
 11
274.7171850917
 21
225.5040458243
 31
0.0
 70
   160
  1
%%c<>
  3
SLDDIMSTYLE1
 13
289.5171850917
 23
249.7154430268
 33
0.0
 14
290.5171850917
 24
194.7154430268
 34
0.0
 50
90.0
  0
TEXT
  5
10A
  8
2
  6
CONTINUOUS
 62
     1
 10
362.6081859677
 20
39.9024298111
 30
0.0
 40
10.0
  1
132
 41
0.7
 11
362.6081859677
 21
37.045286954
 31
0.0
 73
     1
  0
LINE
  5
10B
  8
6
  6
CENTER
 62
     6
 10
283.5303007889
 20
222.2154430268
 30
0.0
 11
365.2927337907
 21
222.2154430268
 31
0.0
  0
ENDSEC
  0
EOF
