  0
SECTION
  2
HEADER
  9
$ACADVER
  1
AC1009
  9
$DWGCODEPAGE
  3
ansi_1252
  9
$INSBASE
 10
0.0
 20
0.0
 30
0.0
  9
$EXTMIN
 10
0.0
 20
0.0
 30
0.0
  9
$EXTMAX
 10
420.0
 20
297.0
 30
0.0
  9
$LIMMIN
 10
0.0
 20
0.0
  9
$LIMMAX
 10
0.0
 20
0.0
  9
$ORTHOMODE
 70
     0
  9
$REGENMODE
 70
     1
  9
$FILLMODE
 70
     1
  9
$QTEXTMODE
 70
     0
  9
$MIRRTEXT
 70
     1
  9
$DRAGMODE
 70
     2
  9
$LTSCALE
 40
1.0
  9
$OSMODE
 70
    37
  9
$ATTMODE
 70
     1
  9
$TEXTSIZE
 40
3.5
  9
$TRACEWID
 40
1.0
  9
$TEXTSTYLE
  7
STANDARD
  9
$CLAYER
  8
0
  9
$CELTYPE
  6
BYLAYER
  9
$CECOLOR
 62
   256
  9
$DIMSCALE
 40
1.0
  9
$DIMASZ
 40
5.0
  9
$DIMEXO
 40
1.0
  9
$DIMDLI
 40
3.75
  9
$DIMRND
 40
0.0
  9
$DIMDLE
 40
0.0
  9
$DIMEXE
 40
1.0
  9
$DIMTP
 40
0.0
  9
$DIMTM
 40
0.0
  9
$DIMTXT
 40
3.5
  9
$DIMCEN
 40
2.5
  9
$DIMTSZ
 40
0.0
  9
$DIMTOL
 70
     0
  9
$DIMLIM
 70
     0
  9
$DIMTIH
 70
     1
  9
$DIMTOH
 70
     1
  9
$DIMSE1
 70
     0
  9
$DIMSE2
 70
     0
  9
$DIMTAD
 70
     1
  9
$DIMZIN
 70
     0
  9
$DIMBLK
  1

  9
$DIMASO
 70
     1
  9
$DIMSHO
 70
     1
  9
$DIMPOST
  1

  9
$DIMAPOST
  1

  9
$DIMALT
 70
     0
  9
$DIMALTD
 70
     3
  9
$DIMALTF
 40
0.0393700787
  9
$DIMLFAC
 40
1.0
  9
$DIMTOFL
 70
     1
  9
$DIMTVP
 40
0.0
  9
$DIMTIX
 70
     0
  9
$DIMSOXD
 70
     0
  9
$DIMSAH
 70
     0
  9
$DIMBLK1
  1

  9
$DIMBLK2
  1

  9
$DIMSTYLE
  2
ISO-25
  9
$DIMCLRD
 70
     0
  9
$DIMCLRE
 70
     0
  9
$DIMCLRT
 70
     0
  9
$DIMTFAC
 40
1.0
  9
$DIMGAP
 40
1.524
  9
$LUNITS
 70
     2
  9
$LUPREC
 70
     2
  9
$SKETCHINC
 40
1.0
  9
$FILLETRAD
 40
10.0
  9
$AUNITS
 70
     0
  9
$AUPREC
 70
     0
  9
$MENU
  1
.
  9
$ELEVATION
 40
0.0
  9
$PELEVATION
 40
0.0
  9
$THICKNESS
 40
0.0
  9
$LIMCHECK
 70
     0
  9
$CHAMFERA
 40
10.0
  9
$CHAMFERB
 40
10.0
  9
$SKPOLY
 70
     0
  9
$TDCREATE
 40
2454490.465364213
  9
$TDUPDATE
 40
2454490.465364225
  9
$TDINDWG
 40
0.0000000116
  9
$TDUSRTIMER
 40
0.0000000116
  9
$USRTIMER
 70
     1
  9
$ANGBASE
 50
0.0
  9
$ANGDIR
 70
     0
  9
$PDMODE
 70
     0
  9
$PDSIZE
 40
-1.0
  9
$PLINEWID
 40
0.0
  9
$COORDS
 70
     1
  9
$SPLFRAME
 70
     0
  9
$SPLINETYPE
 70
     6
  9
$SPLINESEGS
 70
     8
  9
$ATTDIA
 70
     0
  9
$ATTREQ
 70
     1
  9
$HANDLING
 70
     1
  9
$HANDSEED
  5
178
  9
$SURFTAB1
 70
     6
  9
$SURFTAB2
 70
     6
  9
$SURFTYPE
 70
     6
  9
$SURFU
 70
     6
  9
$SURFV
 70
     6
  9
$UCSNAME
  2

  9
$UCSORG
 10
0.0
 20
0.0
 30
0.0
  9
$UCSXDIR
 10
1.0
 20
0.0
 30
0.0
  9
$UCSYDIR
 10
0.0
 20
1.0
 30
0.0
  9
$PUCSNAME
  2

  9
$PUCSORG
 10
0.0
 20
0.0
 30
0.0
  9
$PUCSXDIR
 10
1.0
 20
0.0
 30
0.0
  9
$PUCSYDIR
 10
0.0
 20
1.0
 30
0.0
  9
$USERI1
 70
     0
  9
$USERI2
 70
     0
  9
$USERI3
 70
     0
  9
$USERI4
 70
     0
  9
$USERI5
 70
     0
  9
$USERR1
 40
0.0
  9
$USERR2
 40
0.0
  9
$USERR3
 40
0.0
  9
$USERR4
 40
0.0
  9
$USERR5
 40
0.0
  9
$WORLDVIEW
 70
     1
  9
$SHADEDGE
 70
     3
  9
$SHADEDIF
 70
    70
  9
$TILEMODE
 70
     1
  9
$MAXACTVP
 70
    64
  9
$PLIMCHECK
 70
     0
  9
$PEXTMIN
 10
1.0000000000E+20
 20
1.0000000000E+20
 30
1.0000000000E+20
  9
$PEXTMAX
 10
-1.0000000000E+20
 20
-1.0000000000E+20
 30
-1.0000000000E+20
  9
$PLIMMIN
 10
0.0
 20
0.0
  9
$PLIMMAX
 10
420.0
 20
297.0
  9
$UNITMODE
 70
     0
  9
$VISRETAIN
 70
     1
  9
$PLINEGEN
 70
     0
  9
$PSLTSCALE
 70
     1
  0
ENDSEC
  0
SECTION
  2
TABLES
  0
TABLE
  2
VPORT
 70
     1
  0
VPORT
  2
*ACTIVE
 70
     0
 10
0.0
 20
0.0
 11
1.0
 21
1.0
 12
210.0
 22
148.5
 13
0.0
 23
0.0
 14
10.0
 24
10.0
 15
10.0
 25
10.0
 16
0.0
 26
0.0
 36
1.0
 17
0.0
 27
0.0
 37
0.0
 40
297.0
 41
1.4141414141
 42
50.0
 43
0.0
 44
0.0
 50
0.0
 51
0.0
 71
     0
 72
  2000
 73
     1
 74
     3
 75
     0
 76
     0
 77
     0
 78
     0
  0
ENDTAB
  0
TABLE
  2
LTYPE
 70
     6
  0
LTYPE
  2
CONTINUOUS
 70
     0
  3
Solid line
 72
    65
 73
     0
 40
0.0
  0
LTYPE
  2
HIDDEN
 70
     0
  3
Hidden __ __ __ __ __ __ __ __ __ __ __ __ __ __
 72
    65
 73
     2
 40
1.905
 49
1.27
 49
-0.635
  0
LTYPE
  2
PHANTOM
 70
     0
  3
Phantom ______  __  __  ______  __  __  ______
 72
    65
 73
     6
 40
12.7
 49
6.35
 49
-1.27
 49
1.27
 49
-1.27
 49
1.27
 49
-1.27
  0
LTYPE
  2
CENTER
 70
     0
  3
Center ____ _ ____ _ ____ _ ____ _ ____ _ ____
 72
    65
 73
     4
 40
10.16
 49
6.35
 49
-1.27
 49
1.27
 49
-1.27
  0
LTYPE
  2
CENTERX2
 70
     0
  3
Center (2x) ________  __  ________  __  _____
 72
    65
 73
     4
 40
20.32
 49
12.7
 49
-2.54
 49
2.54
 49
-2.54
  0
LTYPE
  2
DOT2
 70
     0
  3
Dot (.5x) ........................................
 72
    65
 73
     2
 40
0.635
 49
0.0
 49
-0.635
  0
ENDTAB
  0
TABLE
  2
LAYER
 70
     6
  0
LAYER
  2
0
 70
     0
 62
     7
  6
CONTINUOUS
  0
LAYER
  2
DEFPOINTS
 70
     0
 62
     7
  6
CONTINUOUS
  0
LAYER
  2
7
 70
     0
 62
     7
  6
CONTINUOUS
  0
LAYER
  2
1
 70
     0
 62
     1
  6
CONTINUOUS
  0
LAYER
  2
2
 70
     0
 62
     2
  6
PHANTOM
  0
LAYER
  2
6
 70
     0
 62
     6
  6
CONTINUOUS
  0
ENDTAB
  0
TABLE
  2
STYLE
 70
     1
  0
STYLE
  2
STANDARD
 70
     0
 40
0.0
 41
1.0
 50
0.0
 71
     0
 42
2.5
  3
txt
  4

  0
ENDTAB
  0
TABLE
  2
VIEW
 70
     0
  0
ENDTAB
  0
TABLE
  2
UCS
 70
     0
  0
ENDTAB
  0
TABLE
  2
APPID
 70
     1
  0
APPID
  2
ACAD
 70
     0
  0
ENDTAB
  0
TABLE
  2
DIMSTYLE
 70
     3
  0
DIMSTYLE
  2
ISO-25
 70
     0
  3

  4

  5

  6

  7

 40
1.0
 41
2.5
 42
0.625
 43
3.75
 44
1.25
 45
0.0
 46
0.0
 47
0.0
 48
0.0
140
2.5
141
2.5
142
0.0
143
0.0393700787
144
1.0
145
0.0
146
1.0
147
0.625
 71
     0
 72
     0
 73
     0
 74
     0
 75
     0
 76
     0
 77
     1
 78
     8
170
     0
171
     3
172
     1
173
     0
174
     0
175
     0
176
     0
177
     0
178
     0
  0
DIMSTYLE
  2
SLDDIMSTYLE0
 70
     0
  3

  4

  5

  6

  7

 40
1.0
 41
5.0
 42
0.0625
 43
0.38
 44
0.0
 45
0.0
 46
0.0
 47
0.0
 48
0.0
140
3.5
141
0.09
142
0.0
143
25.4
144
1.0
145
0.0
146
1.0
147
0.875
 71
     0
 72
     0
 73
     0
 74
     1
 75
     0
 76
     0
 77
     1
 78
    12
170
     0
171
     2
172
     0
173
     1
174
     0
175
     0
176
     0
177
     0
178
     0
  0
DIMSTYLE
  2
SLDDIMSTYLE1
 70
     0
  3

  4

  5

  6

  7

 40
1.0
 41
5.0
 42
0.0625
 43
0.38
 44
0.0
 45
0.0
 46
0.0
 47
0.0
 48
0.0
140
3.5
141
0.09
142
0.0
143
25.4
144
1.0
145
0.0
146
1.0
147
0.875
 71
     0
 72
     0
 73
     0
 74
     1
 75
     0
 76
     0
 77
     1
 78
    12
170
     0
171
     2
172
     0
173
     1
174
     0
175
     0
176
     0
177
     0
178
     0
  0
ENDTAB
  0
ENDSEC
  0
SECTION
  2
BLOCKS
  0
BLOCK
  8
0
  2
$MODEL_SPACE
 70
     0
 10
0.0
 20
0.0
 30
0.0
  3
$MODEL_SPACE
  1

  0
ENDBLK
  5
21
  8
0
  0
BLOCK
 67
     1
  8
0
  2
$PAPER_SPACE
 70
     0
 10
0.0
 20
0.0
 30
0.0
  3
$PAPER_SPACE
  1

  0
ENDBLK
  5
1D
 67
     1
  8
0
  0
BLOCK
  8
0
  2
SW_NOTE_0
 70
     0
 10
0.0
 20
0.0
 30
0.0
  3
SW_NOTE_0
  1

  0
TEXT
  5
41
  8
2
  6
CONTINUOUS
 62
     0
 10
0.0
 20
1.0
 30
0.0
 40
3.5
  1
Diese Zeichnung ist gemäß Urheberrecht gesetzlich geschützt
 41
0.6644067797
 11
0.0
 21
0.0
 31
0.0
 73
     1
  0
TEXT
  5
42
  8
2
  6
CONTINUOUS
 62
     0
 10
0.0
 20
-8.0513890609
 30
0.0
 40
3.5
  1
This drawing is protected under copyright law; unauthorizid disclosure,
 41
0.6605633803
 11
0.0
 21
-9.0513890609
 31
0.0
 73
     1
  0
TEXT
  5
43
  8
2
  6
CONTINUOUS
 62
     0
 10
0.0
 20
-12.5770835914
 30
0.0
 40
3.5
  1
reprodution or use is prohibted.
 41
0.65625
 11
0.0
 21
-13.5770835914
 31
0.0
 73
     1
  0
ENDBLK
  5
40
  8
0
  0
BLOCK
  8
0
  2
SW_NOTE_1
 70
     0
 10
0.0
 20
0.0
 30
0.0
  3
SW_NOTE_1
  1

  0
TEXT
  5
49
  8
2
  6
CONTINUOUS
 62
     0
 10
0.0
 20
1.0
 30
0.0
 40
3.5
  1
Vieler International GmbH+Co.KG
 41
0.6774193548
 11
0.0
 21
0.0
 31
0.0
 73
     1
  0
TEXT
  5
4A
  8
2
  6
CONTINUOUS
 62
     0
 10
22.5458340719
 20
-3.5256945305
 30
0.0
 40
3.5
  1
58642 Iserlohn
 41
0.7
 11
22.5458340719
 21
-4.5256945305
 31
0.0
 73
     1
  0
ENDBLK
  5
48
  8
0
  0
BLOCK
  8
0
  2
*D3
 70
     1
 10
0.0
 20
0.0
 30
0.0
  3
*D3
  1

  0
SOLID
  5
6E
  8
6
  6
CONTINUOUS
 62
     6
 10
93.4406066326
 20
178.7154430268
 30
0.0
 11
98.4406066326
 21
178.2154430268
 31
0.0
 12
98.4406066326
 22
179.2154430268
 32
0.0
 13
98.4406066326
 23
179.2154430268
 33
0.0
  0
SOLID
  5
6F
  8
6
  6
CONTINUOUS
 62
     6
 10
222.8406066326
 20
178.7154430268
 30
0.0
 11
217.8406066326
 21
179.2154430268
 31
0.0
 12
217.8406066326
 22
178.2154430268
 32
0.0
 13
217.8406066326
 23
178.2154430268
 33
0.0
  0
LINE
  5
70
  8
6
  6
CONTINUOUS
 62
     6
 10
93.4406066326
 20
221.2154430268
 30
0.0
 11
93.4406066326
 21
177.7154430268
 31
0.0
  0
LINE
  5
71
  8
6
  6
CONTINUOUS
 62
     6
 10
222.8406066326
 20
216.2515735684
 30
0.0
 11
222.8406066326
 21
177.7154430268
 31
0.0
  0
LINE
  5
72
  8
6
  6
CONTINUOUS
 62
     6
 10
93.4406066326
 20
178.7154430268
 30
0.0
 11
222.8406066326
 21
178.7154430268
 31
0.0
  0
TEXT
  5
73
  8
6
  6
CONTINUOUS
 62
     6
 10
153.748412008
 20
179.7154428522
 30
0.0
 40
3.5
  1
129
 50
0.0
 41
0.7
 11
153.748412008
 21
178.7154428522
 31
0.0
 73
     1
  0
ENDBLK
  5
6D
  8
0
  0
BLOCK
  8
0
  2
*D4
 70
     1
 10
0.0
 20
0.0
 30
0.0
  3
*D4
  1

  0
SOLID
  5
79
  8
6
  6
CONTINUOUS
 62
     6
 10
238.8406066326
 20
232.2154430268
 30
0.0
 11
239.3406066326
 21
237.2154430268
 31
0.0
 12
238.3406066326
 22
237.2154430268
 32
0.0
 13
238.3406066326
 23
237.2154430268
 33
0.0
  0
SOLID
  5
7A
  8
6
  6
CONTINUOUS
 62
     6
 10
238.8406066326
 20
212.2154430268
 30
0.0
 11
238.3406066326
 21
207.2154430268
 31
0.0
 12
239.3406066326
 22
207.2154430268
 32
0.0
 13
239.3406066326
 23
207.2154430268
 33
0.0
  0
LINE
  5
7B
  8
6
  6
CONTINUOUS
 62
     6
 10
223.3406066326
 20
232.2154430268
 30
0.0
 11
239.8406066326
 21
232.2154430268
 31
0.0
  0
LINE
  5
7C
  8
6
  6
CONTINUOUS
 62
     6
 10
223.3406066326
 20
212.2154430268
 30
0.0
 11
239.8406066326
 21
212.2154430268
 31
0.0
  0
LINE
  5
7D
  8
6
  6
CONTINUOUS
 62
     6
 10
238.8406066326
 20
232.2154430268
 30
0.0
 11
238.8406066326
 21
242.2154430268
 31
0.0
  0
LINE
  5
7E
  8
6
  6
CONTINUOUS
 62
     6
 10
238.8406066326
 20
232.2154430268
 30
0.0
 11
238.8406066326
 21
212.2154430268
 31
0.0
  0
LINE
  5
7F
  8
6
  6
CONTINUOUS
 62
     6
 10
238.8406066326
 20
212.2154430268
 30
0.0
 11
238.8406066326
 21
202.2154430268
 31
0.0
  0
TEXT
  5
80
  8
6
  6
CONTINUOUS
 62
     6
 10
237.8406066326
 20
215.8424558171
 30
0.0
 40
3.5
  1
%%c
 50
90.0
 41
0.7
 11
238.8406066326
 21
215.8424558171
 31
0.0
 73
     1
  0
TEXT
  5
81
  8
6
  6
CONTINUOUS
 62
     6
 10
237.8406068072
 20
221.1176371296
 30
0.0
 40
3.5
  1
20
 50
90.0
 41
0.7
 11
238.8406068072
 21
221.1176371296
 31
0.0
 73
     1
  0
ENDBLK
  5
78
  8
0
  0
BLOCK
  8
0
  2
SW_CENTERMARKSYMBOL_0
 70
     0
 10
0.0
 20
0.0
 30
0.0
  3
SW_CENTERMARKSYMBOL_0
  1

  0
LINE
  5
85
  8
6
  6
CENTER
 62
     0
 10
0.0
 20
0.0
 30
0.0
 11
0.0
 21
2.5
 31
0.0
  0
LINE
  5
86
  8
6
  6
CENTER
 62
     0
 10
0.0
 20
0.0
 30
0.0
 11
-2.5
 21
0.0
 31
0.0
  0
LINE
  5
87
  8
6
  6
CENTER
 62
     0
 10
0.0
 20
0.0
 30
0.0
 11
0.0
 21
-2.5
 31
0.0
  0
LINE
  5
88
  8
6
  6
CENTER
 62
     0
 10
0.0
 20
0.0
 30
0.0
 11
2.5
 21
0.0
 31
0.0
  0
LINE
  5
89
  8
6
  6
CENTER
 62
     0
 10
0.0
 20
5.0
 30
0.0
 11
0.0
 21
30.0
 31
0.0
  0
LINE
  5
8A
  8
6
  6
CENTER
 62
     0
 10
-5.0
 20
0.0
 30
0.0
 11
-30.0
 21
0.0
 31
0.0
  0
LINE
  5
8B
  8
6
  6
CENTER
 62
     0
 10
0.0
 20
-5.0
 30
0.0
 11
0.0
 21
-30.0
 31
0.0
  0
LINE
  5
8C
  8
6
  6
CENTER
 62
     0
 10
5.0
 20
0.0
 30
0.0
 11
121.858612333
 21
0.0
 31
0.0
  0
ENDBLK
  5
84
  8
0
  0
BLOCK
  8
0
  2
*D6
 70
     1
 10
0.0
 20
0.0
 30
0.0
  3
*D6
  1

  0
SOLID
  5
B3
  8
6
  6
CONTINUOUS
 62
     6
 10
83.8406066326
 20
160.368666016
 30
0.0
 11
88.8406066326
 21
159.868666016
 31
0.0
 12
88.8406066326
 22
160.868666016
 32
0.0
 13
88.8406066326
 23
160.868666016
 33
0.0
  0
SOLID
  5
B4
  8
6
  6
CONTINUOUS
 62
     6
 10
121.8406066326
 20
160.368666016
 30
0.0
 11
116.8406066326
 21
160.868666016
 31
0.0
 12
116.8406066326
 22
159.868666016
 32
0.0
 13
116.8406066326
 23
159.868666016
 33
0.0
  0
LINE
  5
B5
  8
6
  6
CONTINUOUS
 62
     6
 10
83.8406066326
 20
144.0279471665
 30
0.0
 11
83.8406066326
 21
161.368666016
 31
0.0
  0
LINE
  5
B6
  8
6
  6
CONTINUOUS
 62
     6
 10
121.8406066326
 20
144.0279471665
 30
0.0
 11
121.8406066326
 21
161.368666016
 31
0.0
  0
LINE
  5
B7
  8
6
  6
CONTINUOUS
 62
     6
 10
83.8406066326
 20
160.368666016
 30
0.0
 11
121.8406066326
 21
160.368666016
 31
0.0
  0
TEXT
  5
B8
  8
6
  6
CONTINUOUS
 62
     6
 10
98.8744046764
 20
161.3686658414
 30
0.0
 40
3.5
  1
38
 41
0.7
 11
98.8744046764
 21
160.3686658414
 31
0.0
 73
     1
  0
ENDBLK
  5
B2
  8
0
  0
BLOCK
  8
0
  2
*D7
 70
     1
 10
0.0
 20
0.0
 30
0.0
  3
*D7
  1

  0
SOLID
  5
BD
  8
6
  6
CONTINUOUS
 62
     6
 10
79.5906066326
 20
151.7215114658
 30
0.0
 11
74.5906066326
 21
152.2215114658
 31
0.0
 12
74.5906066326
 22
151.2215114658
 32
0.0
 13
74.5906066326
 23
151.2215114658
 33
0.0
  0
SOLID
  5
BE
  8
6
  6
CONTINUOUS
 62
     6
 10
88.0321091686
 20
151.7215114658
 30
0.0
 11
93.0321091686
 21
151.2215114658
 31
0.0
 12
93.0321091686
 22
152.2215114658
 32
0.0
 13
93.0321091686
 23
152.2215114658
 33
0.0
  0
LINE
  5
BF
  8
6
  6
CONTINUOUS
 62
     6
 10
79.5906066326
 20
137.7215114658
 30
0.0
 11
79.5906066326
 21
152.7215114658
 31
0.0
  0
LINE
  5
C0
  8
6
  6
CONTINUOUS
 62
     6
 10
88.0321091686
 20
137.7215114658
 30
0.0
 11
88.0321091686
 21
152.7215114658
 31
0.0
  0
LINE
  5
C1
  8
6
  6
CONTINUOUS
 62
     6
 10
79.5906066326
 20
151.7215114658
 30
0.0
 11
69.5906066326
 21
151.7215114658
 31
0.0
  0
LINE
  5
C2
  8
6
  6
CONTINUOUS
 62
     6
 10
79.5906066326
 20
151.7215114658
 30
0.0
 11
88.0321091686
 21
151.7215114658
 31
0.0
  0
LINE
  5
C3
  8
6
  6
CONTINUOUS
 62
     6
 10
88.0321091686
 20
151.7215114658
 30
0.0
 11
100.7412960717
 21
151.7215114658
 31
0.0
  0
TEXT
  5
C4
  8
6
  6
CONTINUOUS
 62
     6
 10
91.2958249927
 20
152.7215114658
 30
0.0
 40
3.5
  1
%%c
 50
360.0
 41
0.7
 11
91.2958249927
 21
151.7215114658
 31
0.0
 73
     1
  0
TEXT
  5
C5
  8
6
  6
CONTINUOUS
 62
     6
 10
96.5710063053
 20
152.7215112911
 30
0.0
 40
3.5
  1
8
 50
360.0
 41
0.7
 11
96.5710063053
 21
151.7215112911
 31
0.0
 73
     1
  0
ENDBLK
  5
BC
  8
0
  0
BLOCK
  8
0
  2
*D8
 70
     1
 10
0.0
 20
0.0
 30
0.0
  3
*D8
  1

  0
SOLID
  5
CA
  8
6
  6
CONTINUOUS
 62
     6
 10
61.6947725399
 20
136.9215114658
 30
0.0
 11
61.1947725399
 21
131.9215114658
 31
0.0
 12
62.1947725399
 22
131.9215114658
 32
0.0
 13
62.1947725399
 23
131.9215114658
 33
0.0
  0
SOLID
  5
CB
  8
6
  6
CONTINUOUS
 62
     6
 10
61.6947725399
 20
141.7215114658
 30
0.0
 11
62.1947725399
 21
146.7215114658
 31
0.0
 12
61.1947725399
 22
146.7215114658
 32
0.0
 13
61.1947725399
 23
146.7215114658
 33
0.0
  0
LINE
  5
CC
  8
6
  6
CONTINUOUS
 62
     6
 10
74.3406066326
 20
136.9215114658
 30
0.0
 11
60.6947725399
 21
136.9215114658
 31
0.0
  0
LINE
  5
CD
  8
6
  6
CONTINUOUS
 62
     6
 10
80.3406066326
 20
141.7215114658
 30
0.0
 11
60.6947725399
 21
141.7215114658
 31
0.0
  0
LINE
  5
CE
  8
6
  6
CONTINUOUS
 62
     6
 10
61.6947725399
 20
136.9215114658
 30
0.0
 11
61.6947725399
 21
125.7568984309
 31
0.0
  0
LINE
  5
CF
  8
6
  6
CONTINUOUS
 62
     6
 10
61.6947725399
 20
136.9215114658
 30
0.0
 11
61.6947725399
 21
141.7215114658
 31
0.0
  0
LINE
  5
D0
  8
6
  6
CONTINUOUS
 62
     6
 10
61.6947725399
 20
141.7215114658
 30
0.0
 11
61.6947725399
 21
151.7215114658
 31
0.0
  0
TEXT
  5
D1
  8
6
  6
CONTINUOUS
 62
     6
 10
60.6947727145
 20
127.3443984309
 30
0.0
 40
3.5
  1
5
 50
90.0
 41
0.7
 11
61.6947727145
 21
127.3443984309
 31
0.0
 73
     1
  0
ENDBLK
  5
C9
  8
0
  0
BLOCK
  8
0
  2
*D9
 70
     1
 10
0.0
 20
0.0
 30
0.0
  3
*D9
  1

  0
SOLID
  5
D6
  8
6
  6
CONTINUOUS
 62
     6
 10
94.2406066326
 20
104.6920350255
 30
0.0
 11
99.2406066326
 21
104.1920350255
 31
0.0
 12
99.2406066326
 22
105.1920350255
 32
0.0
 13
99.2406066326
 23
105.1920350255
 33
0.0
  0
SOLID
  5
D7
  8
6
  6
CONTINUOUS
 62
     6
 10
111.4406066326
 20
104.6920350255
 30
0.0
 11
106.4406066326
 21
105.1920350255
 31
0.0
 12
106.4406066326
 22
104.1920350255
 32
0.0
 13
106.4406066326
 23
104.1920350255
 33
0.0
  0
LINE
  5
D8
  8
6
  6
CONTINUOUS
 62
     6
 10
94.2406066326
 20
104.6920350255
 30
0.0
 11
78.7664171235
 21
104.6920350255
 31
0.0
  0
LINE
  5
D9
  8
6
  6
CONTINUOUS
 62
     6
 10
94.2406066326
 20
104.6920350255
 30
0.0
 11
111.4406066326
 21
104.6920350255
 31
0.0
  0
TEXT
  5
DA
  8
6
  6
CONTINUOUS
 62
     6
 10
80.3539171235
 20
105.6920348509
 30
0.0
 40
3.5
  1
17
 50
0.0
 41
0.7
 11
80.3539171235
 21
104.6920348509
 31
0.0
 73
     1
  0
ENDBLK
  5
D5
  8
0
  0
BLOCK
  8
0
  2
*D10
 70
     1
 10
0.0
 20
0.0
 30
0.0
  3
*D10
  1

  0
SOLID
  5
DF
  8
6
  6
CONTINUOUS
 62
     6
 10
238.8406066326
 20
86.2715114658
 30
0.0
 11
239.3406066326
 21
91.2715114658
 31
0.0
 12
238.3406066326
 22
91.2715114658
 32
0.0
 13
238.3406066326
 23
91.2715114658
 33
0.0
  0
SOLID
  5
E0
  8
6
  6
CONTINUOUS
 62
     6
 10
238.8406066326
 20
69.0715114658
 30
0.0
 11
238.3406066326
 21
64.0715114658
 31
0.0
 12
239.3406066326
 22
64.0715114658
 32
0.0
 13
239.3406066326
 23
64.0715114658
 33
0.0
  0
LINE
  5
E1
  8
6
  6
CONTINUOUS
 62
     6
 10
223.3406066326
 20
86.2715114658
 30
0.0
 11
239.8406066326
 21
86.2715114658
 31
0.0
  0
LINE
  5
E2
  8
6
  6
CONTINUOUS
 62
     6
 10
223.3406066326
 20
69.0715114658
 30
0.0
 11
239.8406066326
 21
69.0715114658
 31
0.0
  0
LINE
  5
E3
  8
6
  6
CONTINUOUS
 62
     6
 10
238.8406066326
 20
86.2715114658
 30
0.0
 11
238.8406066326
 21
96.2715114658
 31
0.0
  0
LINE
  5
E4
  8
6
  6
CONTINUOUS
 62
     6
 10
238.8406066326
 20
86.2715114658
 30
0.0
 11
238.8406066326
 21
69.0715114658
 31
0.0
  0
LINE
  5
E5
  8
6
  6
CONTINUOUS
 62
     6
 10
238.8406066326
 20
69.0715114658
 30
0.0
 11
238.8406066326
 21
59.0715114658
 31
0.0
  0
TEXT
  5
E6
  8
6
  6
CONTINUOUS
 62
     6
 10
237.8406068072
 20
76.3188140974
 30
0.0
 40
3.5
  1
17
 50
90.0
 41
0.7
 11
238.8406068072
 21
76.3188140974
 31
0.0
 73
     1
  0
ENDBLK
  5
DE
  8
0
  0
BLOCK
  8
0
  2
*D11
 70
     1
 10
0.0
 20
0.0
 30
0.0
  3
*D11
  1

  0
SOLID
  5
EB
  8
6
  6
CONTINUOUS
 62
     6
 10
146.202088367
 20
136.9215114658
 30
0.0
 11
146.702088367
 21
141.9215114658
 31
0.0
 12
145.702088367
 22
141.9215114658
 32
0.0
 13
145.702088367
 23
141.9215114658
 33
0.0
  0
SOLID
  5
EC
  8
6
  6
CONTINUOUS
 62
     6
 10
146.202088367
 20
126.4215114658
 30
0.0
 11
145.702088367
 21
121.4215114658
 31
0.0
 12
146.702088367
 22
121.4215114658
 32
0.0
 13
146.702088367
 23
121.4215114658
 33
0.0
  0
LINE
  5
ED
  8
6
  6
CONTINUOUS
 62
     6
 10
131.3406066326
 20
136.9215114658
 30
0.0
 11
147.202088367
 21
136.9215114658
 31
0.0
  0
LINE
  5
EE
  8
6
  6
CONTINUOUS
 62
     6
 10
130.8406066326
 20
126.4215114658
 30
0.0
 11
147.202088367
 21
126.4215114658
 31
0.0
  0
LINE
  5
EF
  8
6
  6
CONTINUOUS
 62
     6
 10
146.202088367
 20
136.9215114658
 30
0.0
 11
146.202088367
 21
146.9215114658
 31
0.0
  0
LINE
  5
F0
  8
6
  6
CONTINUOUS
 62
     6
 10
146.202088367
 20
136.9215114658
 30
0.0
 11
146.202088367
 21
126.4215114658
 31
0.0
  0
LINE
  5
F1
  8
6
  6
CONTINUOUS
 62
     6
 10
146.202088367
 20
126.4215114658
 30
0.0
 11
146.202088367
 21
116.4215114658
 31
0.0
  0
TEXT
  5
F2
  8
6
  6
CONTINUOUS
 62
     6
 10
145.2020885416
 20
129.7208643639
 30
0.0
 40
3.5
  1
10
 50
90.0
 41
0.7
 11
146.2020885416
 21
129.7208643639
 31
0.0
 73
     1
  0
ENDBLK
  5
EA
  8
0
  0
BLOCK
  8
0
  2
*D12
 70
     1
 10
0.0
 20
0.0
 30
0.0
  3
*D12
  1

  0
SOLID
  5
119
  8
6
  6
CONTINUOUS
 62
     6
 10
274.7171850917
 20
249.7154430268
 30
0.0
 11
274.2171850917
 21
244.7154430268
 31
0.0
 12
275.2171850917
 22
244.7154430268
 32
0.0
 13
275.2171850917
 23
244.7154430268
 33
0.0
  0
SOLID
  5
11A
  8
6
  6
CONTINUOUS
 62
     6
 10
274.7171850917
 20
194.7154430268
 30
0.0
 11
275.2171850917
 21
199.7154430268
 31
0.0
 12
274.2171850917
 22
199.7154430268
 32
0.0
 13
274.2171850917
 23
199.7154430268
 33
0.0
  0
LINE
  5
11B
  8
6
  6
CONTINUOUS
 62
     6
 10
288.5171850917
 20
249.7154430268
 30
0.0
 11
273.7171850917
 21
249.7154430268
 31
0.0
  0
LINE
  5
11C
  8
6
  6
CONTINUOUS
 62
     6
 10
289.5171850917
 20
194.7154430268
 30
0.0
 11
273.7171850917
 21
194.7154430268
 31
0.0
  0
LINE
  5
11D
  8
6
  6
CONTINUOUS
 62
     6
 10
274.7171850917
 20
249.7154430268
 30
0.0
 11
274.7171850917
 21
194.7154430268
 31
0.0
  0
TEXT
  5
11E
  8
6
  6
CONTINUOUS
 62
     6
 10
273.7171850917
 20
218.3338817885
 30
0.0
 40
3.5
  1
%%c
 50
90.0
 41
0.7
 11
274.7171850917
 21
218.3338817885
 31
0.0
 73
     1
  0
TEXT
  5
11F
  8
6
  6
CONTINUOUS
 62
     6
 10
273.7171852663
 20
223.609063101
 30
0.0
 40
3.5
  1
55
 50
90.0
 41
0.7
 11
274.7171852663
 21
223.609063101
 31
0.0
 73
     1
  0
ENDBLK
  5
118
  8
0
  0
BLOCK
  8
0
  2
*D13
 70
     1
 10
0.0
 20
0.0
 30
0.0
  3
*D13
  1

  0
SOLID
  5
124
  8
6
  6
CONTINUOUS
 62
     6
 10
289.5171850917
 20
178.7154430268
 30
0.0
 11
294.5171850917
 21
178.2154430268
 31
0.0
 12
294.5171850917
 22
179.2154430268
 32
0.0
 13
294.5171850917
 23
179.2154430268
 33
0.0
  0
SOLID
  5
125
  8
6
  6
CONTINUOUS
 62
     6
 10
357.3671850917
 20
178.7154430268
 30
0.0
 11
352.3671850917
 21
179.2154430268
 31
0.0
 12
352.3671850917
 22
178.2154430268
 32
0.0
 13
352.3671850917
 23
178.2154430268
 33
0.0
  0
LINE
  5
126
  8
6
  6
CONTINUOUS
 62
     6
 10
289.5171850917
 20
193.8795691611
 30
0.0
 11
289.5171850917
 21
177.7154430268
 31
0.0
  0
LINE
  5
127
  8
6
  6
CONTINUOUS
 62
     6
 10
357.3671850917
 20
216.1125026979
 30
0.0
 11
357.3671850917
 21
177.7154430268
 31
0.0
  0
LINE
  5
128
  8
6
  6
CONTINUOUS
 62
     6
 10
289.5171850917
 20
178.7154430268
 30
0.0
 11
357.3671850917
 21
178.7154430268
 31
0.0
  0
TEXT
  5
129
  8
6
  6
CONTINUOUS
 62
     6
 10
320.7510467168
 20
179.7154428522
 30
0.0
 40
3.5
  1
68
 50
360.0
 41
0.7
 11
320.7510467168
 21
178.7154428522
 31
0.0
 73
     1
  0
ENDBLK
  5
123
  8
0
  0
ENDSEC
  0
SECTION
  2
ENTITIES
  0
LINE
  5
34
  8
6
  6
CONTINUOUS
 62
     6
 10
20.0
 20
287.0
 30
0.0
 11
20.0
 21
9.0
 31
0.0
  0
LINE
  5
35
  8
6
  6
CONTINUOUS
 62
     6
 10
20.0
 20
148.5
 30
0.0
 11
13.375265605
 21
148.5
 31
0.0
  0
LINE
  5
36
  8
6
  6
CONTINUOUS
 62
     6
 10
20.0
 20
287.0
 30
0.0
 11
414.5
 21
287.0
 31
0.0
  0
LINE
  5
37
  8
6
  6
CONTINUOUS
 62
     6
 10
20.0
 20
9.0
 30
0.0
 11
414.5
 21
9.0
 31
0.0
  0
LINE
  5
38
  8
6
  6
CONTINUOUS
 62
     6
 10
0.0
 20
297.0
 30
0.0
 11
420.0
 21
297.0
 31
0.0
  0
LINE
  5
39
  8
6
  6
CONTINUOUS
 62
     6
 10
420.0
 20
297.0
 30
0.0
 11
420.0
 21
0.0
 31
0.0
  0
LINE
  5
3A
  8
6
  6
CONTINUOUS
 62
     6
 10
420.0
 20
0.0
 30
0.0
 11
0.0
 21
0.0
 31
0.0
  0
LINE
  5
3B
  8
6
  6
CONTINUOUS
 62
     6
 10
0.0
 20
0.0
 30
0.0
 11
0.0
 21
297.0
 31
0.0
  0
LINE
  5
3C
  8
6
  6
CONTINUOUS
 62
     6
 10
414.5
 20
52.5
 30
0.0
 11
414.5
 21
287.0
 31
0.0
  0
LINE
  5
3D
  8
6
  6
CONTINUOUS
 62
     6
 10
414.5
 20
52.5
 30
0.0
 11
414.5
 21
9.0
 31
0.0
  0
INSERT
  5
44
  8
2
  6
CONTINUOUS
 62
     1
  2
SW_NOTE_0
 10
25.131147541
 20
27.4759448138
 30
0.0
  0
TEXT
  5
45
  8
2
  6
CONTINUOUS
 62
     1
 10
312.7010196007
 20
39.8322418184
 30
0.0
 40
10.0
  1
Modell 
 41
0.7
 11
312.7010196007
 21
36.9750989613
 31
0.0
 73
     1
  0
INSERT
  5
4B
  8
2
  6
CONTINUOUS
 62
     1
  2
SW_NOTE_1
 10
309.7662955082
 20
27.4759448138
 30
0.0
  0
TEXT
  5
4C
  8
2
  6
CONTINUOUS
 62
     1
 10
300.4572681642
 20
14.8988612224
 30
0.0
 40
3.5
  1
Datum/Date 01/2008    Maßstab/Scale 1:1
 41
0.6461538462
 11
300.4572681642
 21
13.8988612224
 31
0.0
 73
     1
  0
LINE
  5
4D
  8
0
  6
CONTINUOUS
 10
222.3406029371
 20
232.2154428033
 30
0.0
 11
102.8406066326
 21
232.2154428033
 31
0.0
  0
LINE
  5
4E
  8
0
  6
CONTINUOUS
 10
102.8406066326
 20
212.2154432503
 30
0.0
 11
222.3406029371
 21
212.2154432503
 31
0.0
  0
LINE
  5
4F
  8
0
  6
CONTINUOUS
 10
222.8406039504
 20
231.7154427213
 30
0.0
 11
222.3406029371
 21
232.2154428033
 31
0.0
  0
LINE
  5
50
  8
0
  6
CONTINUOUS
 10
222.3406029371
 20
212.2154432503
 30
0.0
 11
222.8406039504
 21
212.7154433322
 31
0.0
  0
LINE
  5
51
  8
0
  6
CONTINUOUS
 10
94.7406064225
 20
227.3183833962
 30
0.0
 11
222.3406029371
 21
227.3183833962
 31
0.0
  0
ARC
  5
52
  8
0
  6
CONTINUOUS
 10
102.8406058328
 20
222.2154441587
 30
0.0
 40
9.999998644540657
 50
89.9999954174
 51
146.6158394163
  0
LINE
  5
53
  8
0
  6
CONTINUOUS
 10
222.3406029371
 20
217.1125026574
 30
0.0
 11
94.7406064225
 21
217.1125026574
 31
0.0
  0
LINE
  5
54
  8
0
  6
CONTINUOUS
 10
94.7406064225
 20
217.1125026574
 30
0.0
 11
94.7406064225
 21
227.3183833962
 31
0.0
  0
POLYLINE
  5
55
  8
0
  6
CONTINUOUS
 66
     1
 10
0.0
 20
0.0
 30
0.0
  0
VERTEX
  5
12D
  8
0
  6
CONTINUOUS
 10
94.7406064225
 20
217.1125026574
 30
0.0
  0
VERTEX
  5
12E
  8
0
  6
CONTINUOUS
 10
94.6179605526
 20
216.9112499026
 30
0.0
  0
VERTEX
  5
12F
  8
0
  6
CONTINUOUS
 10
94.4906068472
 20
216.7129433868
 30
0.0
  0
SEQEND
  5
12C
  8
0
  6
CONTINUOUS
  0
ARC
  5
56
  8
0
  6
CONTINUOUS
 10
102.8406055375
 20
222.2154413466
 30
0.0
 40
9.999998096323601
 50
213.3841588918
 51
270.0000062744
  0
LINE
  5
57
  8
0
  6
CONTINUOUS
 10
222.3406029371
 20
227.3183833962
 30
0.0
 11
222.8406039504
 21
227.1793122557
 31
0.0
  0
LINE
  5
58
  8
0
  6
CONTINUOUS
 10
222.8406039504
 20
231.7154427213
 30
0.0
 11
222.8406039504
 21
227.1793122557
 31
0.0
  0
LINE
  5
59
  8
0
  6
CONTINUOUS
 10
222.8406039504
 20
217.2515737978
 30
0.0
 11
222.3406029371
 21
217.1125026574
 31
0.0
  0
LINE
  5
5A
  8
0
  6
CONTINUOUS
 10
222.8406039504
 20
217.2515737978
 30
0.0
 11
222.8406039504
 21
227.1793122557
 31
0.0
  0
LINE
  5
5B
  8
0
  6
CONTINUOUS
 10
222.8406039504
 20
217.2515737978
 30
0.0
 11
222.8406039504
 21
212.7154433322
 31
0.0
  0
LINE
  5
5C
  8
0
  6
CONTINUOUS
 10
94.2406063405
 20
217.1125026574
 30
0.0
 11
94.2406063405
 21
227.3183833962
 31
0.0
  0
POLYLINE
  5
5D
  8
0
  6
CONTINUOUS
 66
     1
 10
0.0
 20
0.0
 30
0.0
  0
VERTEX
  5
131
  8
0
  6
CONTINUOUS
 10
94.4906068472
 20
227.7179426668
 30
0.0
  0
VERTEX
  5
132
  8
0
  6
CONTINUOUS
 10
94.3632522104
 20
227.519636151
 30
0.0
  0
VERTEX
  5
133
  8
0
  6
CONTINUOUS
 10
94.2406063405
 20
227.3183833962
 30
0.0
  0
SEQEND
  5
130
  8
0
  6
CONTINUOUS
  0
LINE
  5
5E
  8
0
  6
CONTINUOUS
 10
94.4906068472
 20
216.7129433868
 30
0.0
 11
94.4906068472
 21
227.7179426668
 31
0.0
  0
POLYLINE
  5
5F
  8
0
  6
CONTINUOUS
 66
     1
 10
0.0
 20
0.0
 30
0.0
  0
VERTEX
  5
135
  8
0
  6
CONTINUOUS
 10
94.2406063405
 20
217.1125026574
 30
0.0
  0
VERTEX
  5
136
  8
0
  6
CONTINUOUS
 10
94.3632522104
 20
216.9112499026
 30
0.0
  0
VERTEX
  5
137
  8
0
  6
CONTINUOUS
 10
94.4906068472
 20
216.7129433868
 30
0.0
  0
SEQEND
  5
134
  8
0
  6
CONTINUOUS
  0
ARC
  5
60
  8
0
  6
CONTINUOUS
 10
102.8406055375
 20
222.2154413466
 30
0.0
 40
9.999998096323601
 50
213.3841588918
 51
270.0000062744
  0
ARC
  5
61
  8
0
  6
CONTINUOUS
 10
102.8406058328
 20
222.2154441587
 30
0.0
 40
9.999998644540657
 50
89.9999954174
 51
146.6158394163
  0
ARC
  5
62
  8
0
  6
CONTINUOUS
 10
102.8406066326
 20
222.2154430268
 30
0.0
 40
9.32500000000002
 50
157.2575632268
 51
202.7424367732
  0
ARC
  5
63
  8
0
  6
CONTINUOUS
 10
102.8406066326
 20
222.2154430268
 30
0.0
 40
9.425000000000011
 50
155.8485084838
 51
204.1514915162
  0
ARC
  5
64
  8
0
  6
CONTINUOUS
 10
102.8406066326
 20
222.2154430268
 30
0.0
 40
27.5
 50
21.3236862635
 51
180.0
  0
ARC
  5
65
  8
0
  6
CONTINUOUS
 10
102.8406066326
 20
222.2154430268
 30
0.0
 40
27.50000000000002
 50
180.0
 51
338.6763137365
  0
ARC
  5
66
  8
0
  6
CONTINUOUS
 10
102.8406066326
 20
222.2154430268
 30
0.0
 40
10.50000000000003
 50
72.2472098381
 51
287.7527901619
  0
ARC
  5
67
  8
0
  6
CONTINUOUS
 10
102.8406066326
 20
222.2154430268
 30
0.0
 40
9.400000000000022
 50
156.1906237743
 51
203.8093762257
  0
ARC
  5
68
  8
0
  6
CONTINUOUS
 10
102.8406066326
 20
222.2154430268
 30
0.0
 40
8.800000000000015
 50
167.7612442321
 51
192.2387557679
  0
DIMENSION
  5
69
  8
6
  6
CONTINUOUS
 62
     6
  2
*D3
 10
222.8406066326
 20
178.7154430268
 30
0.0
 11
157.6273619524
 21
178.7154430268
 31
0.0
 70
   160
  3
SLDDIMSTYLE0
 13
93.4406066326
 23
222.2154430268
 33
0.0
 14
222.8406066326
 24
217.2515735684
 34
0.0
 50
0.0
  0
DIMENSION
  5
74
  8
6
  6
CONTINUOUS
 62
     6
  2
*D4
 10
238.8406066326
 20
212.2154430268
 30
0.0
 11
238.8406066326
 21
221.0652188872
 31
0.0
 70
   160
  1
%%c<>
  3
SLDDIMSTYLE1
 13
222.3406066326
 23
232.2154430268
 33
0.0
 14
222.3406066326
 24
212.2154430268
 34
0.0
 50
90.0
  0
INSERT
  5
8D
  8
6
  6
CENTER
 62
     6
  2
SW_CENTERMARKSYMBOL_0
 10
102.8406066326
 20
222.2154430268
 30
0.0
  0
LINE
  5
8E
  8
6
  6
CENTER
 62
     6
 10
83.8406066326
 20
143.0279471665
 30
0.0
 11
83.8406066326
 21
126.4215114658
 31
0.0
  0
LINE
  5
8F
  8
6
  6
CENTER
 62
     6
 10
121.8406066326
 20
143.0279471665
 30
0.0
 11
121.8406066326
 21
126.4215114658
 31
0.0
  0
LINE
  5
90
  8
0
  6
CONTINUOUS
 10
75.3406067816
 20
136.9215113242
 30
0.0
 11
75.3406067816
 21
126.9215114895
 31
0.0
  0
LINE
  5
91
  8
0
  6
CONTINUOUS
 10
130.3406064836
 20
126.9215114895
 30
0.0
 11
130.3406064836
 21
136.9215113242
 31
0.0
  0
LINE
  5
92
  8
0
  6
CONTINUOUS
 10
75.3406067816
 20
126.9215114895
 30
0.0
 11
75.8406059322
 21
126.4215114658
 31
0.0
  0
LINE
  5
93
  8
0
  6
CONTINUOUS
 10
129.840607333
 20
126.4215114658
 30
0.0
 11
130.3406064836
 21
126.9215114895
 31
0.0
  0
LINE
  5
94
  8
0
  6
CONTINUOUS
 10
126.080124217
 20
136.9215113242
 30
0.0
 11
125.8547348408
 21
141.2221969236
 31
0.0
  0
LINE
  5
95
  8
0
  6
CONTINUOUS
 10
79.8264784244
 20
141.2221969236
 30
0.0
 11
79.6010890482
 21
136.9215113242
 31
0.0
  0
LINE
  5
96
  8
0
  6
CONTINUOUS
 10
125.8547348408
 20
141.2221969236
 30
0.0
 11
125.3001899896
 21
141.7215115522
 31
0.0
  0
LINE
  5
97
  8
0
  6
CONTINUOUS
 10
80.3810232756
 20
141.7215115522
 30
0.0
 11
79.8264784244
 21
141.2221969236
 31
0.0
  0
LINE
  5
98
  8
0
  6
CONTINUOUS
 10
94.7406064225
 20
69.0715129618
 30
0.0
 11
222.3406029371
 21
69.0715129618
 31
0.0
  0
POLYLINE
  5
99
  8
0
  6
CONTINUOUS
 66
     1
 10
0.0
 20
0.0
 30
0.0
  0
VERTEX
  5
139
  8
0
  6
CONTINUOUS
 10
94.4906068472
 20
69.3215097432
 30
0.0
  0
VERTEX
  5
13A
  8
0
  6
CONTINUOUS
 10
94.6179605526
 20
69.194156969
 30
0.0
  0
VERTEX
  5
13B
  8
0
  6
CONTINUOUS
 10
94.7406064225
 20
69.0715129618
 30
0.0
  0
SEQEND
  5
138
  8
0
  6
CONTINUOUS
  0
LINE
  5
9A
  8
0
  6
CONTINUOUS
 10
222.3406029371
 20
86.2715098207
 30
0.0
 11
111.4406069247
 21
86.2715098207
 31
0.0
  0
POLYLINE
  5
9B
  8
0
  6
CONTINUOUS
 66
     1
 10
0.0
 20
0.0
 30
0.0
  0
VERTEX
  5
13D
  8
0
  6
CONTINUOUS
 10
94.4906068472
 20
69.3215097432
 30
0.0
  0
VERTEX
  5
13E
  8
0
  6
CONTINUOUS
 10
95.0312652131
 20
69.8621685748
 30
0.0
  0
VERTEX
  5
13F
  8
0
  6
CONTINUOUS
 10
95.6379366545
 20
70.4688432757
 30
0.0
  0
VERTEX
  5
140
  8
0
  6
CONTINUOUS
 10
96.3054928435
 20
71.1363966708
 30
0.0
  0
VERTEX
  5
141
  8
0
  6
CONTINUOUS
 10
97.028290431
 20
71.8591961209
 30
0.0
  0
VERTEX
  5
142
  8
0
  6
CONTINUOUS
 10
97.8002194753
 20
72.6311246996
 30
0.0
  0
VERTEX
  5
143
  8
0
  6
CONTINUOUS
 10
98.614755596
 20
73.4456594233
 30
0.0
  0
VERTEX
  5
144
  8
0
  6
CONTINUOUS
 10
99.4650125941
 20
74.2959159557
 30
0.0
  0
VERTEX
  5
145
  8
0
  6
CONTINUOUS
 10
100.343803686
 20
75.1747082119
 30
0.0
  0
VERTEX
  5
146
  8
0
  6
CONTINUOUS
 10
101.2437005266
 20
76.0746042375
 30
0.0
  0
VERTEX
  5
147
  8
0
  6
CONTINUOUS
 10
102.1570960148
 20
76.9880007152
 30
0.0
  0
VERTEX
  5
148
  8
0
  6
CONTINUOUS
 10
103.0762692536
 20
77.9071751182
 30
0.0
  0
VERTEX
  5
149
  8
0
  6
CONTINUOUS
 10
103.9934504516
 20
78.8243564908
 30
0.0
  0
VERTEX
  5
14A
  8
0
  6
CONTINUOUS
 10
104.9008865812
 20
79.731792504
 30
0.0
  0
VERTEX
  5
14B
  8
0
  6
CONTINUOUS
 10
105.7909070951
 20
80.6218127851
 30
0.0
  0
VERTEX
  5
14C
  8
0
  6
CONTINUOUS
 10
106.6559886531
 20
81.4868922476
 30
0.0
  0
VERTEX
  5
14D
  8
0
  6
CONTINUOUS
 10
107.4888185104
 20
82.3197218721
 30
0.0
  0
VERTEX
  5
14E
  8
0
  6
CONTINUOUS
 10
108.2823570324
 20
83.1132608597
 30
0.0
  0
VERTEX
  5
14F
  8
0
  6
CONTINUOUS
 10
109.0298956697
 20
83.8607999627
 30
0.0
  0
VERTEX
  5
150
  8
0
  6
CONTINUOUS
 10
109.7251167958
 20
84.5560210888
 30
0.0
  0
VERTEX
  5
151
  8
0
  6
CONTINUOUS
 10
110.3621423682
 20
85.1930457298
 30
0.0
  0
VERTEX
  5
152
  8
0
  6
CONTINUOUS
 10
110.9355879454
 20
85.7664945666
 30
0.0
  0
VERTEX
  5
153
  8
0
  6
CONTINUOUS
 10
111.4406069247
 20
86.2715098207
 30
0.0
  0
SEQEND
  5
13C
  8
0
  6
CONTINUOUS
  0
LINE
  5
9C
  8
0
  6
CONTINUOUS
 10
222.3406029371
 20
69.0715129618
 30
0.0
 11
222.8406039504
 21
69.5715102498
 31
0.0
  0
LINE
  5
9D
  8
0
  6
CONTINUOUS
 10
222.8406039504
 20
85.7715125327
 30
0.0
 11
222.3406029371
 21
86.2715098207
 31
0.0
  0
LINE
  5
9E
  8
0
  6
CONTINUOUS
 10
222.8406039504
 20
85.7715125327
 30
0.0
 11
222.8406039504
 21
69.5715102498
 31
0.0
  0
LINE
  5
9F
  8
0
  6
CONTINUOUS
 10
94.2406063405
 20
69.5715102498
 30
0.0
 11
94.2406063405
 21
126.4215114658
 31
0.0
  0
LINE
  5
A0
  8
0
  6
CONTINUOUS
 10
111.4406069247
 20
126.4215114658
 30
0.0
 11
111.4406069247
 21
86.2715098207
 31
0.0
  0
POLYLINE
  5
A1
  8
0
  6
CONTINUOUS
 66
     1
 10
0.0
 20
0.0
 30
0.0
  0
VERTEX
  5
155
  8
0
  6
CONTINUOUS
 10
94.4906068472
 20
69.3215097432
 30
0.0
  0
VERTEX
  5
156
  8
0
  6
CONTINUOUS
 10
95.0312652131
 20
69.8621685748
 30
0.0
  0
VERTEX
  5
157
  8
0
  6
CONTINUOUS
 10
95.6379366545
 20
70.4688432757
 30
0.0
  0
VERTEX
  5
158
  8
0
  6
CONTINUOUS
 10
96.3054928435
 20
71.1363966708
 30
0.0
  0
VERTEX
  5
159
  8
0
  6
CONTINUOUS
 10
97.028290431
 20
71.8591961209
 30
0.0
  0
VERTEX
  5
15A
  8
0
  6
CONTINUOUS
 10
97.8002194753
 20
72.6311246996
 30
0.0
  0
VERTEX
  5
15B
  8
0
  6
CONTINUOUS
 10
98.614755596
 20
73.4456594233
 30
0.0
  0
VERTEX
  5
15C
  8
0
  6
CONTINUOUS
 10
99.4650125941
 20
74.2959159557
 30
0.0
  0
VERTEX
  5
15D
  8
0
  6
CONTINUOUS
 10
100.343803686
 20
75.1747082119
 30
0.0
  0
VERTEX
  5
15E
  8
0
  6
CONTINUOUS
 10
101.2437005266
 20
76.0746042375
 30
0.0
  0
VERTEX
  5
15F
  8
0
  6
CONTINUOUS
 10
102.1570960148
 20
76.9880007152
 30
0.0
  0
VERTEX
  5
160
  8
0
  6
CONTINUOUS
 10
103.0762692536
 20
77.9071751182
 30
0.0
  0
VERTEX
  5
161
  8
0
  6
CONTINUOUS
 10
103.9934504516
 20
78.8243564908
 30
0.0
  0
VERTEX
  5
162
  8
0
  6
CONTINUOUS
 10
104.9008865812
 20
79.731792504
 30
0.0
  0
VERTEX
  5
163
  8
0
  6
CONTINUOUS
 10
105.7909070951
 20
80.6218127851
 30
0.0
  0
VERTEX
  5
164
  8
0
  6
CONTINUOUS
 10
106.6559886531
 20
81.4868922476
 30
0.0
  0
VERTEX
  5
165
  8
0
  6
CONTINUOUS
 10
107.4888185104
 20
82.3197218721
 30
0.0
  0
VERTEX
  5
166
  8
0
  6
CONTINUOUS
 10
108.2823570324
 20
83.1132608597
 30
0.0
  0
VERTEX
  5
167
  8
0
  6
CONTINUOUS
 10
109.0298956697
 20
83.8607999627
 30
0.0
  0
VERTEX
  5
168
  8
0
  6
CONTINUOUS
 10
109.7251167958
 20
84.5560210888
 30
0.0
  0
VERTEX
  5
169
  8
0
  6
CONTINUOUS
 10
110.3621423682
 20
85.1930457298
 30
0.0
  0
VERTEX
  5
16A
  8
0
  6
CONTINUOUS
 10
110.9355879454
 20
85.7664945666
 30
0.0
  0
VERTEX
  5
16B
  8
0
  6
CONTINUOUS
 10
111.4406069247
 20
86.2715098207
 30
0.0
  0
SEQEND
  5
154
  8
0
  6
CONTINUOUS
  0
POLYLINE
  5
A2
  8
0
  6
CONTINUOUS
 66
     1
 10
0.0
 20
0.0
 30
0.0
  0
VERTEX
  5
16D
  8
0
  6
CONTINUOUS
 10
94.4906068472
 20
69.3215097432
 30
0.0
  0
VERTEX
  5
16E
  8
0
  6
CONTINUOUS
 10
94.3632522104
 20
69.4488662426
 30
0.0
  0
VERTEX
  5
16F
  8
0
  6
CONTINUOUS
 10
94.2406063405
 20
69.5715102498
 30
0.0
  0
SEQEND
  5
16C
  8
0
  6
CONTINUOUS
  0
LINE
  5
A3
  8
0
  6
CONTINUOUS
 10
75.3406067816
 20
136.9215113242
 30
0.0
 11
130.3406064836
 21
136.9215113242
 31
0.0
  0
LINE
  5
A4
  8
0
  6
CONTINUOUS
 10
129.840607333
 20
126.4215114658
 30
0.0
 11
75.8406059322
 21
126.4215114658
 31
0.0
  0
ARC
  5
A5
  8
0
  6
CONTINUOUS
 10
107.6926081282
 20
140.552266579
 30
0.0
 40
10.66972758325347
 50
340.1057212457
 51
358.0328444823
  0
LINE
  5
A6
  8
0
  6
CONTINUOUS
 10
118.3560477076
 20
140.1860111524
 30
0.0
 11
118.4196076793
 21
141.2221969236
 31
0.0
  0
ARC
  5
A7
  8
0
  6
CONTINUOUS
 10
97.7948600712
 20
140.5148887255
 30
0.0
 40
10.47485864651887
 50
181.7992027159
 51
200.0626727814
  0
LINE
  5
A8
  8
0
  6
CONTINUOUS
 10
87.3251655576
 20
140.1860111524
 30
0.0
 11
87.2616055859
 21
141.2221969236
 31
0.0
  0
LINE
  5
A9
  8
0
  6
CONTINUOUS
 10
119.0912933526
 20
141.7215115522
 30
0.0
 11
125.3001899896
 21
141.7215115522
 31
0.0
  0
LINE
  5
AA
  8
0
  6
CONTINUOUS
 10
118.4196076793
 20
141.2221969236
 30
0.0
 11
119.0912933526
 21
141.7215115522
 31
0.0
  0
LINE
  5
AB
  8
0
  6
CONTINUOUS
 10
80.3810232756
 20
141.7215115522
 30
0.0
 11
86.5899199126
 21
141.7215115522
 31
0.0
  0
LINE
  5
AC
  8
0
  6
CONTINUOUS
 10
86.5899199126
 20
141.7215115522
 30
0.0
 11
87.2616055859
 21
141.2221969236
 31
0.0
  0
LINE
  5
AD
  8
0
  6
CONTINUOUS
 10
85.1970729855
 20
141.7215115522
 30
0.0
 11
86.5899199126
 21
141.7215115522
 31
0.0
  0
LINE
  5
AE
  8
0
  6
CONTINUOUS
 10
120.4841402797
 20
141.7215115522
 30
0.0
 11
119.0912933526
 21
141.7215115522
 31
0.0
  0
DIMENSION
  5
AF
  8
6
  6
CONTINUOUS
 62
     6
  2
*D6
 10
121.8406066326
 20
160.368666016
 30
0.0
 11
101.4595770902
 21
160.368666016
 31
0.0
 70
   160
  3
SLDDIMSTYLE1
 13
83.8406066326
 23
143.0279471665
 33
0.0
 14
121.8406066326
 24
143.0279471665
 34
0.0
  0
DIMENSION
  5
B9
  8
6
  6
CONTINUOUS
 62
     6
  2
*D7
 10
88.0321091686
 20
151.7215114658
 30
0.0
 11
95.2248105322
 21
151.7215114658
 31
0.0
 70
   160
  1
%%c<>
  3
SLDDIMSTYLE0
 13
79.5906066326
 23
136.7215114658
 33
0.0
 14
88.0321091686
 24
136.7215114658
 34
0.0
  0
DIMENSION
  5
C6
  8
6
  6
CONTINUOUS
 62
     6
  2
*D8
 10
61.6947725399
 20
141.7215114658
 30
0.0
 11
61.6947725399
 21
128.6357933141
 31
0.0
 70
   160
  3
SLDDIMSTYLE0
 13
75.3406066326
 23
136.9215114658
 33
0.0
 14
81.3406066326
 24
141.7215114658
 34
0.0
 50
90.0
  0
DIMENSION
  5
D2
  8
6
  6
CONTINUOUS
 62
     6
  2
*D9
 10
111.4406066326
 20
104.6920350255
 30
0.0
 11
82.9390895373
 21
104.6920350255
 31
0.0
 70
   160
  3
SLDDIMSTYLE0
 13
94.2406066326
 23
126.6715114658
 33
0.0
 14
111.4406066326
 24
86.2715114658
 34
0.0
  0
DIMENSION
  5
DB
  8
6
  6
CONTINUOUS
 62
     6
  2
*D10
 10
238.8406066326
 20
69.0715114658
 30
0.0
 11
238.8406066326
 21
78.9039865112
 31
0.0
 70
   160
  3
SLDDIMSTYLE0
 13
222.3406066326
 23
86.2715114658
 33
0.0
 14
222.3406066326
 24
69.0715114658
 34
0.0
 50
90.0
  0
DIMENSION
  5
E7
  8
6
  6
CONTINUOUS
 62
     6
  2
*D11
 10
146.202088367
 20
126.4215114658
 30
0.0
 11
146.202088367
 21
132.3060367777
 31
0.0
 70
   160
  3
SLDDIMSTYLE1
 13
130.3406066326
 23
136.9215114658
 33
0.0
 14
129.8406066326
 24
126.4215114658
 34
0.0
 50
90.0
  0
LINE
  5
F3
  8
6
  6
CENTER
 62
     6
 10
121.8406066326
 20
134.7215114658
 30
0.0
 11
121.8406066326
 21
143.2221966984
 31
0.0
  0
LINE
  5
F4
  8
6
  6
CENTER
 62
     6
 10
83.8406066326
 20
134.7215114658
 30
0.0
 11
83.8406066326
 21
143.2221966984
 31
0.0
  0
LINE
  5
F5
  8
6
  6
CENTER
 62
     6
 10
102.8406066326
 20
139.0729717903
 30
0.0
 11
102.8406066326
 21
77.6872073269
 31
0.0
  0
LINE
  5
F6
  8
6
  6
CENTER
 62
     6
 10
102.857884579
 20
77.6715114658
 30
0.0
 11
224.3406066326
 21
77.6715114658
 31
0.0
  0
LINE
  5
F7
  8
0
  6
CONTINUOUS
 10
348.7671833035
 20
232.2154428033
 30
0.0
 11
300.0171850917
 21
232.2154428033
 31
0.0
  0
LINE
  5
F8
  8
0
  6
CONTINUOUS
 10
300.0171850917
 20
212.2154432503
 30
0.0
 11
348.7671833035
 21
212.2154432503
 31
0.0
  0
LINE
  5
F9
  8
0
  6
CONTINUOUS
 10
290.5171853972
 20
194.7154431758
 30
0.0
 11
299.5171850679
 21
194.7154431758
 31
0.0
  0
LINE
  5
FA
  8
0
  6
CONTINUOUS
 10
299.5171850679
 20
249.7154428778
 30
0.0
 11
289.5171852332
 21
249.7154428778
 31
0.0
  0
LINE
  5
FB
  8
0
  6
CONTINUOUS
 10
299.5171850679
 20
194.7154431758
 30
0.0
 11
300.0171850917
 21
195.2154423264
 31
0.0
  0
LINE
  5
FC
  8
0
  6
CONTINUOUS
 10
300.0171850917
 20
249.2154437271
 30
0.0
 11
299.5171850679
 21
249.7154428778
 31
0.0
  0
LINE
  5
FD
  8
0
  6
CONTINUOUS
 10
289.5171852332
 20
226.4549616878
 30
0.0
 11
285.2164996338
 21
226.2295723115
 31
0.0
  0
LINE
  5
FE
  8
0
  6
CONTINUOUS
 10
285.2164996338
 20
218.201313742
 30
0.0
 11
289.5171852332
 21
217.9759243657
 31
0.0
  0
LINE
  5
FF
  8
0
  6
CONTINUOUS
 10
285.2164996338
 20
226.2295723115
 30
0.0
 11
284.7171850053
 21
225.6750269947
 31
0.0
  0
LINE
  5
100
  8
0
  6
CONTINUOUS
 10
284.7171850053
 20
218.7558590589
 30
0.0
 11
285.2164996338
 21
218.201313742
 31
0.0
  0
ARC
  5
101
  8
0
  6
CONTINUOUS
 10
348.7671799543
 20
222.2154565142
 30
0.0
 40
10.00001326395368
 50
270.0000191897
 51
326.6157942997
  0
ARC
  5
102
  8
0
  6
CONTINUOUS
 10
348.7671859785
 20
222.2154407237
 30
0.0
 40
10.00000207951085
 50
33.3841711843
 51
90.0000153263
  0
LINE
  5
103
  8
0
  6
CONTINUOUS
 10
357.3671835956
 20
217.1125026574
 30
0.0
 11
357.3671835956
 21
227.3183833962
 31
0.0
  0
POLYLINE
  5
104
  8
0
  6
CONTINUOUS
 66
     1
 10
0.0
 20
0.0
 30
0.0
  0
VERTEX
  5
171
  8
0
  6
CONTINUOUS
 10
357.3671835956
 20
217.1125026574
 30
0.0
  0
VERTEX
  5
172
  8
0
  6
CONTINUOUS
 10
357.2445395884
 20
216.9112499026
 30
0.0
  0
VERTEX
  5
173
  8
0
  6
CONTINUOUS
 10
357.1171868143
 20
216.7129433868
 30
0.0
  0
SEQEND
  5
170
  8
0
  6
CONTINUOUS
  0
POLYLINE
  5
105
  8
0
  6
CONTINUOUS
 66
     1
 10
0.0
 20
0.0
 30
0.0
  0
VERTEX
  5
175
  8
0
  6
CONTINUOUS
 10
357.1171868143
 20
227.7179426668
 30
0.0
  0
VERTEX
  5
176
  8
0
  6
CONTINUOUS
 10
357.2445395884
 20
227.519636151
 30
0.0
  0
VERTEX
  5
177
  8
0
  6
CONTINUOUS
 10
357.3671835956
 20
227.3183833962
 30
0.0
  0
SEQEND
  5
174
  8
0
  6
CONTINUOUS
  0
LINE
  5
106
  8
0
  6
CONTINUOUS
 10
356.8671863076
 20
217.1125026574
 30
0.0
 11
356.8671863076
 21
227.3183833962
 31
0.0
  0
LINE
  5
107
  8
0
  6
CONTINUOUS
 10
300.0171850917
 20
217.1125026574
 30
0.0
 11
356.8671863076
 21
217.1125026574
 31
0.0
  0
LINE
  5
108
  8
0
  6
CONTINUOUS
 10
356.8671863076
 20
227.3183833962
 30
0.0
 11
300.0171850917
 21
227.3183833962
 31
0.0
  0
ARC
  5
109
  8
0
  6
CONTINUOUS
 10
348.7671859785
 20
222.2154407237
 30
0.0
 40
10.00000207951085
 50
33.3841711843
 51
90.0000153263
  0
ARC
  5
10A
  8
0
  6
CONTINUOUS
 10
348.7671799543
 20
222.2154565142
 30
0.0
 40
10.00001326395368
 50
270.0000191897
 51
326.6157942997
  0
LINE
  5
10B
  8
0
  6
CONTINUOUS
 10
290.5171853972
 20
194.7154431758
 30
0.0
 11
290.5171853972
 21
194.8795682905
 31
0.0
  0
LINE
  5
10C
  8
0
  6
CONTINUOUS
 10
290.5171853972
 20
194.8795682905
 30
0.0
 11
289.5171852332
 21
194.8795682905
 31
0.0
  0
LINE
  5
10D
  8
0
  6
CONTINUOUS
 10
289.5171852332
 20
194.8795682905
 30
0.0
 11
289.5171852332
 21
249.7154428778
 31
0.0
  0
LINE
  5
10E
  8
0
  6
CONTINUOUS
 10
300.0171850917
 20
222.2154430268
 30
0.0
 11
300.0171850917
 21
195.2154423264
 31
0.0
  0
LINE
  5
10F
  8
0
  6
CONTINUOUS
 10
300.0171850917
 20
249.2154437271
 30
0.0
 11
300.0171850917
 21
222.2154430268
 31
0.0
  0
LINE
  5
110
  8
0
  6
CONTINUOUS
 10
289.5171852332
 20
194.8795682905
 30
0.0
 11
289.5171852332
 21
196.0871062396
 31
0.0
  0
LINE
  5
111
  8
0
  6
CONTINUOUS
 10
285.2164996338
 20
226.2295723115
 30
0.0
 11
285.2164996338
 21
218.201313742
 31
0.0
  0
LINE
  5
112
  8
0
  6
CONTINUOUS
 10
284.7171850053
 20
218.7558590589
 30
0.0
 11
284.7171850053
 21
225.6750269947
 31
0.0
  0
LINE
  5
113
  8
0
  6
CONTINUOUS
 10
284.7171850053
 20
220.1154431017
 30
0.0
 11
284.7171850053
 21
219.7154430827
 31
0.0
  0
LINE
  5
114
  8
0
  6
CONTINUOUS
 10
284.7171850053
 20
224.7154429709
 30
0.0
 11
284.7171850053
 21
224.3154429519
 31
0.0
  0
DIMENSION
  5
115
  8
6
  6
CONTINUOUS
 62
     6
  2
*D12
 10
274.7171850917
 20
194.7154430268
 30
0.0
 11
274.7171850917
 21
223.5566448586
 31
0.0
 70
   160
  1
%%c<>
  3
SLDDIMSTYLE1
 13
289.5171850917
 23
249.7154430268
 33
0.0
 14
290.5171850917
 24
194.7154430268
 34
0.0
 50
90.0
  0
DIMENSION
  5
120
  8
6
  6
CONTINUOUS
 62
     6
  2
*D13
 10
357.3671850917
 20
178.7154430268
 30
0.0
 11
323.3362191306
 21
178.7154430268
 31
0.0
 70
   160
  3
SLDDIMSTYLE0
 13
289.5171850917
 23
194.8795691611
 33
0.0
 14
357.3671850917
 24
217.1125026979
 34
0.0
 50
0.0
  0
TEXT
  5
12A
  8
2
  6
CONTINUOUS
 62
     1
 10
362.6081859677
 20
39.9024298111
 30
0.0
 40
10.0
  1
135
 41
0.7
 11
362.6081859677
 21
37.045286954
 31
0.0
 73
     1
  0
LINE
  5
12B
  8
6
  6
CENTER
 62
     6
 10
282.840044499
 20
222.2154430268
 30
0.0
 11
359.7100983279
 21
222.2154430268
 31
0.0
  0
ENDSEC
  0
EOF
