  0
SECTION
  2
HEADER
  9
$ACADVER
  1
AC1009
  9
$DWGCODEPAGE
  3
ansi_1252
  9
$INSBASE
 10
0.0
 20
0.0
 30
0.0
  9
$EXTMIN
 10
0.0
 20
0.0
 30
0.0
  9
$EXTMAX
 10
420.0
 20
297.0
 30
0.0
  9
$LIMMIN
 10
0.0
 20
0.0
  9
$LIMMAX
 10
0.0
 20
0.0
  9
$ORTHOMODE
 70
     0
  9
$REGENMODE
 70
     1
  9
$FILLMODE
 70
     1
  9
$QTEXTMODE
 70
     0
  9
$MIRRTEXT
 70
     1
  9
$DRAGMODE
 70
     2
  9
$LTSCALE
 40
1.0
  9
$OSMODE
 70
    37
  9
$ATTMODE
 70
     1
  9
$TEXTSIZE
 40
3.5
  9
$TRACEWID
 40
1.0
  9
$TEXTSTYLE
  7
STANDARD
  9
$CLAYER
  8
0
  9
$CELTYPE
  6
BYLAYER
  9
$CECOLOR
 62
   256
  9
$DIMSCALE
 40
1.0
  9
$DIMASZ
 40
5.0
  9
$DIMEXO
 40
1.0
  9
$DIMDLI
 40
3.75
  9
$DIMRND
 40
0.0
  9
$DIMDLE
 40
0.0
  9
$DIMEXE
 40
1.0
  9
$DIMTP
 40
0.0
  9
$DIMTM
 40
0.0
  9
$DIMTXT
 40
3.5
  9
$DIMCEN
 40
2.5
  9
$DIMTSZ
 40
0.0
  9
$DIMTOL
 70
     0
  9
$DIMLIM
 70
     0
  9
$DIMTIH
 70
     1
  9
$DIMTOH
 70
     1
  9
$DIMSE1
 70
     0
  9
$DIMSE2
 70
     0
  9
$DIMTAD
 70
     1
  9
$DIMZIN
 70
     0
  9
$DIMBLK
  1

  9
$DIMASO
 70
     1
  9
$DIMSHO
 70
     1
  9
$DIMPOST
  1

  9
$DIMAPOST
  1

  9
$DIMALT
 70
     0
  9
$DIMALTD
 70
     3
  9
$DIMALTF
 40
0.0393700787
  9
$DIMLFAC
 40
1.0
  9
$DIMTOFL
 70
     1
  9
$DIMTVP
 40
0.0
  9
$DIMTIX
 70
     0
  9
$DIMSOXD
 70
     0
  9
$DIMSAH
 70
     0
  9
$DIMBLK1
  1

  9
$DIMBLK2
  1

  9
$DIMSTYLE
  2
ISO-25
  9
$DIMCLRD
 70
     0
  9
$DIMCLRE
 70
     0
  9
$DIMCLRT
 70
     0
  9
$DIMTFAC
 40
1.0
  9
$DIMGAP
 40
1.524
  9
$LUNITS
 70
     2
  9
$LUPREC
 70
     2
  9
$SKETCHINC
 40
1.0
  9
$FILLETRAD
 40
10.0
  9
$AUNITS
 70
     0
  9
$AUPREC
 70
     0
  9
$MENU
  1
.
  9
$ELEVATION
 40
0.0
  9
$PELEVATION
 40
0.0
  9
$THICKNESS
 40
0.0
  9
$LIMCHECK
 70
     0
  9
$CHAMFERA
 40
10.0
  9
$CHAMFERB
 40
10.0
  9
$SKPOLY
 70
     0
  9
$TDCREATE
 40
2454490.467615741
  9
$TDUPDATE
 40
2454490.467615752
  9
$TDINDWG
 40
0.0000000116
  9
$TDUSRTIMER
 40
0.0000000116
  9
$USRTIMER
 70
     1
  9
$ANGBASE
 50
0.0
  9
$ANGDIR
 70
     0
  9
$PDMODE
 70
     0
  9
$PDSIZE
 40
-1.0
  9
$PLINEWID
 40
0.0
  9
$COORDS
 70
     1
  9
$SPLFRAME
 70
     0
  9
$SPLINETYPE
 70
     6
  9
$SPLINESEGS
 70
     8
  9
$ATTDIA
 70
     0
  9
$ATTREQ
 70
     1
  9
$HANDLING
 70
     1
  9
$HANDSEED
  5
18A
  9
$SURFTAB1
 70
     6
  9
$SURFTAB2
 70
     6
  9
$SURFTYPE
 70
     6
  9
$SURFU
 70
     6
  9
$SURFV
 70
     6
  9
$UCSNAME
  2

  9
$UCSORG
 10
0.0
 20
0.0
 30
0.0
  9
$UCSXDIR
 10
1.0
 20
0.0
 30
0.0
  9
$UCSYDIR
 10
0.0
 20
1.0
 30
0.0
  9
$PUCSNAME
  2

  9
$PUCSORG
 10
0.0
 20
0.0
 30
0.0
  9
$PUCSXDIR
 10
1.0
 20
0.0
 30
0.0
  9
$PUCSYDIR
 10
0.0
 20
1.0
 30
0.0
  9
$USERI1
 70
     0
  9
$USERI2
 70
     0
  9
$USERI3
 70
     0
  9
$USERI4
 70
     0
  9
$USERI5
 70
     0
  9
$USERR1
 40
0.0
  9
$USERR2
 40
0.0
  9
$USERR3
 40
0.0
  9
$USERR4
 40
0.0
  9
$USERR5
 40
0.0
  9
$WORLDVIEW
 70
     1
  9
$SHADEDGE
 70
     3
  9
$SHADEDIF
 70
    70
  9
$TILEMODE
 70
     1
  9
$MAXACTVP
 70
    64
  9
$PLIMCHECK
 70
     0
  9
$PEXTMIN
 10
1.0000000000E+20
 20
1.0000000000E+20
 30
1.0000000000E+20
  9
$PEXTMAX
 10
-1.0000000000E+20
 20
-1.0000000000E+20
 30
-1.0000000000E+20
  9
$PLIMMIN
 10
0.0
 20
0.0
  9
$PLIMMAX
 10
420.0
 20
297.0
  9
$UNITMODE
 70
     0
  9
$VISRETAIN
 70
     1
  9
$PLINEGEN
 70
     0
  9
$PSLTSCALE
 70
     1
  0
ENDSEC
  0
SECTION
  2
TABLES
  0
TABLE
  2
VPORT
 70
     1
  0
VPORT
  2
*ACTIVE
 70
     0
 10
0.0
 20
0.0
 11
1.0
 21
1.0
 12
210.0
 22
148.5
 13
0.0
 23
0.0
 14
10.0
 24
10.0
 15
10.0
 25
10.0
 16
0.0
 26
0.0
 36
1.0
 17
0.0
 27
0.0
 37
0.0
 40
297.0
 41
1.4141414141
 42
50.0
 43
0.0
 44
0.0
 50
0.0
 51
0.0
 71
     0
 72
  2000
 73
     1
 74
     3
 75
     0
 76
     0
 77
     0
 78
     0
  0
ENDTAB
  0
TABLE
  2
LTYPE
 70
     6
  0
LTYPE
  2
CONTINUOUS
 70
     0
  3
Solid line
 72
    65
 73
     0
 40
0.0
  0
LTYPE
  2
HIDDEN
 70
     0
  3
Hidden __ __ __ __ __ __ __ __ __ __ __ __ __ __
 72
    65
 73
     2
 40
1.905
 49
1.27
 49
-0.635
  0
LTYPE
  2
PHANTOM
 70
     0
  3
Phantom ______  __  __  ______  __  __  ______
 72
    65
 73
     6
 40
12.7
 49
6.35
 49
-1.27
 49
1.27
 49
-1.27
 49
1.27
 49
-1.27
  0
LTYPE
  2
CENTER
 70
     0
  3
Center ____ _ ____ _ ____ _ ____ _ ____ _ ____
 72
    65
 73
     4
 40
10.16
 49
6.35
 49
-1.27
 49
1.27
 49
-1.27
  0
LTYPE
  2
CENTERX2
 70
     0
  3
Center (2x) ________  __  ________  __  _____
 72
    65
 73
     4
 40
20.32
 49
12.7
 49
-2.54
 49
2.54
 49
-2.54
  0
LTYPE
  2
DOT2
 70
     0
  3
Dot (.5x) ........................................
 72
    65
 73
     2
 40
0.635
 49
0.0
 49
-0.635
  0
ENDTAB
  0
TABLE
  2
LAYER
 70
     6
  0
LAYER
  2
0
 70
     0
 62
     7
  6
CONTINUOUS
  0
LAYER
  2
DEFPOINTS
 70
     0
 62
     7
  6
CONTINUOUS
  0
LAYER
  2
7
 70
     0
 62
     7
  6
CONTINUOUS
  0
LAYER
  2
1
 70
     0
 62
     1
  6
CONTINUOUS
  0
LAYER
  2
2
 70
     0
 62
     2
  6
PHANTOM
  0
LAYER
  2
6
 70
     0
 62
     6
  6
CONTINUOUS
  0
ENDTAB
  0
TABLE
  2
STYLE
 70
     1
  0
STYLE
  2
STANDARD
 70
     0
 40
0.0
 41
1.0
 50
0.0
 71
     0
 42
2.5
  3
txt
  4

  0
ENDTAB
  0
TABLE
  2
VIEW
 70
     0
  0
ENDTAB
  0
TABLE
  2
UCS
 70
     0
  0
ENDTAB
  0
TABLE
  2
APPID
 70
     1
  0
APPID
  2
ACAD
 70
     0
  0
ENDTAB
  0
TABLE
  2
DIMSTYLE
 70
     3
  0
DIMSTYLE
  2
ISO-25
 70
     0
  3

  4

  5

  6

  7

 40
1.0
 41
2.5
 42
0.625
 43
3.75
 44
1.25
 45
0.0
 46
0.0
 47
0.0
 48
0.0
140
2.5
141
2.5
142
0.0
143
0.0393700787
144
1.0
145
0.0
146
1.0
147
0.625
 71
     0
 72
     0
 73
     0
 74
     0
 75
     0
 76
     0
 77
     1
 78
     8
170
     0
171
     3
172
     1
173
     0
174
     0
175
     0
176
     0
177
     0
178
     0
  0
DIMSTYLE
  2
SLDDIMSTYLE0
 70
     0
  3

  4

  5

  6

  7

 40
1.0
 41
5.0
 42
0.0625
 43
0.38
 44
0.0
 45
0.0
 46
0.0
 47
0.0
 48
0.0
140
3.5
141
0.09
142
0.0
143
25.4
144
1.0
145
0.0
146
1.0
147
0.875
 71
     0
 72
     0
 73
     0
 74
     1
 75
     0
 76
     0
 77
     1
 78
    12
170
     0
171
     2
172
     0
173
     1
174
     0
175
     0
176
     0
177
     0
178
     0
  0
DIMSTYLE
  2
SLDDIMSTYLE1
 70
     0
  3

  4

  5

  6

  7

 40
1.0
 41
5.0
 42
0.0625
 43
0.38
 44
0.0
 45
0.0
 46
0.0
 47
0.0
 48
0.0
140
3.5
141
0.09
142
0.0
143
25.4
144
1.0
145
0.0
146
1.0
147
0.875
 71
     0
 72
     0
 73
     0
 74
     1
 75
     0
 76
     0
 77
     1
 78
    12
170
     0
171
     2
172
     0
173
     1
174
     0
175
     0
176
     0
177
     0
178
     0
  0
ENDTAB
  0
ENDSEC
  0
SECTION
  2
BLOCKS
  0
BLOCK
  8
0
  2
$MODEL_SPACE
 70
     0
 10
0.0
 20
0.0
 30
0.0
  3
$MODEL_SPACE
  1

  0
ENDBLK
  5
21
  8
0
  0
BLOCK
 67
     1
  8
0
  2
$PAPER_SPACE
 70
     0
 10
0.0
 20
0.0
 30
0.0
  3
$PAPER_SPACE
  1

  0
ENDBLK
  5
1D
 67
     1
  8
0
  0
BLOCK
  8
0
  2
SW_NOTE_0
 70
     0
 10
0.0
 20
0.0
 30
0.0
  3
SW_NOTE_0
  1

  0
TEXT
  5
41
  8
2
  6
CONTINUOUS
 62
     0
 10
0.0
 20
1.0
 30
0.0
 40
3.5
  1
Diese Zeichnung ist gemäß Urheberrecht gesetzlich geschützt
 41
0.6644067797
 11
0.0
 21
0.0
 31
0.0
 73
     1
  0
TEXT
  5
42
  8
2
  6
CONTINUOUS
 62
     0
 10
0.0
 20
-8.0513890609
 30
0.0
 40
3.5
  1
This drawing is protected under copyright law; unauthorizid disclosure,
 41
0.6605633803
 11
0.0
 21
-9.0513890609
 31
0.0
 73
     1
  0
TEXT
  5
43
  8
2
  6
CONTINUOUS
 62
     0
 10
0.0
 20
-12.5770835914
 30
0.0
 40
3.5
  1
reprodution or use is prohibted.
 41
0.65625
 11
0.0
 21
-13.5770835914
 31
0.0
 73
     1
  0
ENDBLK
  5
40
  8
0
  0
BLOCK
  8
0
  2
SW_NOTE_1
 70
     0
 10
0.0
 20
0.0
 30
0.0
  3
SW_NOTE_1
  1

  0
TEXT
  5
49
  8
2
  6
CONTINUOUS
 62
     0
 10
0.0
 20
1.0
 30
0.0
 40
3.5
  1
Vieler International GmbH+Co.KG
 41
0.6774193548
 11
0.0
 21
0.0
 31
0.0
 73
     1
  0
TEXT
  5
4A
  8
2
  6
CONTINUOUS
 62
     0
 10
22.5458340719
 20
-3.5256945305
 30
0.0
 40
3.5
  1
58642 Iserlohn
 41
0.7
 11
22.5458340719
 21
-4.5256945305
 31
0.0
 73
     1
  0
ENDBLK
  5
48
  8
0
  0
BLOCK
  8
0
  2
*D3
 70
     1
 10
0.0
 20
0.0
 30
0.0
  3
*D3
  1

  0
SOLID
  5
5E
  8
6
  6
CONTINUOUS
 62
     6
 10
83.0540794328
 20
179.5054912105
 30
0.0
 11
88.0540785619
 21
178.9054839535
 31
0.0
 12
88.0540803036
 22
180.1054839535
 32
0.0
 13
88.0540803036
 23
180.1054839535
 33
0.0
  0
SOLID
  5
5F
  8
6
  6
CONTINUOUS
 62
     6
 10
232.9186584486
 20
179.5052736947
 30
0.0
 11
227.9186593195
 21
180.1052809518
 31
0.0
 12
227.9186575778
 22
178.9052809518
 32
0.0
 13
227.9186575778
 23
178.9052809518
 33
0.0
  0
LINE
  5
60
  8
6
  6
CONTINUOUS
 62
     6
 10
83.0541281361
 20
213.0612322569
 30
0.0
 11
83.0540779814
 21
178.5054912105
 31
0.0
  0
LINE
  5
61
  8
6
  6
CONTINUOUS
 62
     6
 10
232.9187084461
 20
213.952603967
 30
0.0
 11
232.9186569972
 21
178.5052736947
 31
0.0
  0
LINE
  5
62
  8
6
  6
CONTINUOUS
 62
     6
 10
83.0540794328
 20
179.5054912105
 30
0.0
 11
232.9186584486
 21
179.5052736947
 31
0.0
  0
TEXT
  5
63
  8
6
  6
CONTINUOUS
 62
     6
 10
158.5078493969
 20
180.5053815211
 30
0.0
 40
3.5
  1
150
 50
359.99991684
 41
0.7
 11
158.5078479455
 21
179.5053815211
 31
0.0
 73
     1
  0
ENDBLK
  5
5D
  8
0
  0
BLOCK
  8
0
  2
*D4
 70
     1
 10
0.0
 20
0.0
 30
0.0
  3
*D4
  1

  0
SOLID
  5
69
  8
6
  6
CONTINUOUS
 62
     6
 10
249.0256029946
 20
228.9239420764
 30
0.0
 11
249.6256029946
 21
233.9239420764
 31
0.0
 12
248.4256029946
 22
233.9239420764
 32
0.0
 13
248.4256029946
 23
233.9239420764
 33
0.0
  0
SOLID
  5
6A
  8
6
  6
CONTINUOUS
 62
     6
 10
249.0256029946
 20
208.9239420764
 30
0.0
 11
248.4256029946
 21
203.9239420764
 31
0.0
 12
249.6256029946
 22
203.9239420764
 32
0.0
 13
249.6256029946
 23
203.9239420764
 33
0.0
  0
LINE
  5
6B
  8
6
  6
CONTINUOUS
 62
     6
 10
223.3189027097
 20
228.9239420764
 30
0.0
 11
250.0256029946
 21
228.9239420764
 31
0.0
  0
LINE
  5
6C
  8
6
  6
CONTINUOUS
 62
     6
 10
223.3197935013
 20
208.9239420764
 30
0.0
 11
250.0256029946
 21
208.9239420764
 31
0.0
  0
LINE
  5
6D
  8
6
  6
CONTINUOUS
 62
     6
 10
249.0256029946
 20
228.9239420764
 30
0.0
 11
249.0256029946
 21
238.9239420764
 31
0.0
  0
LINE
  5
6E
  8
6
  6
CONTINUOUS
 62
     6
 10
249.0256029946
 20
228.9239420764
 30
0.0
 11
249.0256029946
 21
208.9239420764
 31
0.0
  0
LINE
  5
6F
  8
6
  6
CONTINUOUS
 62
     6
 10
249.0256029946
 20
208.9239420764
 30
0.0
 11
249.0256029946
 21
198.9239420764
 31
0.0
  0
TEXT
  5
70
  8
6
  6
CONTINUOUS
 62
     6
 10
248.0256029946
 20
213.6907198087
 30
0.0
 40
3.5
  1
%%c
 50
90.0
 41
0.7
 11
249.0256029946
 21
213.6907198087
 31
0.0
 73
     1
  0
TEXT
  5
71
  8
6
  6
CONTINUOUS
 62
     6
 10
248.0256031692
 20
218.9659011213
 30
0.0
 40
3.5
  1
20
 50
90.0
 41
0.7
 11
249.0256031692
 21
218.9659011213
 31
0.0
 73
     1
  0
ENDBLK
  5
68
  8
0
  0
BLOCK
  8
0
  2
SW_CENTERMARKSYMBOL_0
 70
     0
 10
0.0
 20
0.0
 30
0.0
  3
SW_CENTERMARKSYMBOL_0
  1

  0
LINE
  5
75
  8
6
  6
CENTER
 62
     0
 10
0.0
 20
0.0
 30
0.0
 11
0.0
 21
2.5
 31
0.0
  0
LINE
  5
76
  8
6
  6
CENTER
 62
     0
 10
0.0
 20
0.0
 30
0.0
 11
-2.5
 21
0.0
 31
0.0
  0
LINE
  5
77
  8
6
  6
CENTER
 62
     0
 10
0.0
 20
0.0
 30
0.0
 11
0.0
 21
-2.5
 31
0.0
  0
LINE
  5
78
  8
6
  6
CENTER
 62
     0
 10
0.0
 20
0.0
 30
0.0
 11
2.5
 21
0.0
 31
0.0
  0
LINE
  5
79
  8
6
  6
CENTER
 62
     0
 10
0.0
 20
5.0
 30
0.0
 11
0.0
 21
30.0
 31
0.0
  0
LINE
  5
7A
  8
6
  6
CENTER
 62
     0
 10
-5.0
 20
0.0
 30
0.0
 11
-30.0
 21
0.0
 31
0.0
  0
LINE
  5
7B
  8
6
  6
CENTER
 62
     0
 10
0.0
 20
-5.0
 30
0.0
 11
0.0
 21
-30.0
 31
0.0
  0
LINE
  5
7C
  8
6
  6
CENTER
 62
     0
 10
5.0
 20
0.0
 30
0.0
 11
144.5986086341
 21
0.0
 31
0.0
  0
ENDBLK
  5
74
  8
0
  0
BLOCK
  8
0
  2
*D6
 70
     1
 10
0.0
 20
0.0
 30
0.0
  3
*D6
  1

  0
SOLID
  5
A6
  8
6
  6
CONTINUOUS
 62
     6
 10
74.0541295875
 20
159.9086888567
 30
0.0
 11
79.0541295875
 21
159.3086888567
 31
0.0
 12
79.0541295875
 22
160.5086888567
 32
0.0
 13
79.0541295875
 23
160.5086888567
 33
0.0
  0
SOLID
  5
A7
  8
6
  6
CONTINUOUS
 62
     6
 10
112.0541295875
 20
159.9086888567
 30
0.0
 11
107.0541295875
 21
160.5086888567
 31
0.0
 12
107.0541295875
 22
159.3086888567
 32
0.0
 13
107.0541295875
 23
159.3086888567
 33
0.0
  0
LINE
  5
A8
  8
6
  6
CONTINUOUS
 62
     6
 10
74.0541295875
 20
140.2151245574
 30
0.0
 11
74.0541295875
 21
160.9086888567
 31
0.0
  0
LINE
  5
A9
  8
6
  6
CONTINUOUS
 62
     6
 10
112.0541295875
 20
140.2151245574
 30
0.0
 11
112.0541295875
 21
160.9086888567
 31
0.0
  0
LINE
  5
AA
  8
6
  6
CONTINUOUS
 62
     6
 10
74.0541295875
 20
159.9086888567
 30
0.0
 11
112.0541295875
 21
159.9086888567
 31
0.0
  0
TEXT
  5
AB
  8
6
  6
CONTINUOUS
 62
     6
 10
90.9787184809
 20
160.9086886821
 30
0.0
 40
3.5
  1
38
 41
0.7
 11
90.9787184809
 21
159.9086886821
 31
0.0
 73
     1
  0
ENDBLK
  5
A5
  8
0
  0
BLOCK
  8
0
  2
*D7
 70
     1
 10
0.0
 20
0.0
 30
0.0
  3
*D7
  1

  0
SOLID
  5
B0
  8
6
  6
CONTINUOUS
 62
     6
 10
69.8041295875
 20
147.9086888567
 30
0.0
 11
64.8041295875
 21
148.5086888567
 31
0.0
 12
64.8041295875
 22
147.3086888567
 32
0.0
 13
64.8041295875
 23
147.3086888567
 33
0.0
  0
SOLID
  5
B1
  8
6
  6
CONTINUOUS
 62
     6
 10
78.2456321235
 20
147.9086888567
 30
0.0
 11
83.2456321235
 21
147.3086888567
 31
0.0
 12
83.2456321235
 22
148.5086888567
 32
0.0
 13
83.2456321235
 23
148.5086888567
 33
0.0
  0
LINE
  5
B2
  8
6
  6
CONTINUOUS
 62
     6
 10
69.8041295875
 20
133.9086888567
 30
0.0
 11
69.8041295875
 21
148.9086888567
 31
0.0
  0
LINE
  5
B3
  8
6
  6
CONTINUOUS
 62
     6
 10
78.2456321235
 20
133.9086888567
 30
0.0
 11
78.2456321235
 21
148.9086888567
 31
0.0
  0
LINE
  5
B4
  8
6
  6
CONTINUOUS
 62
     6
 10
69.8041295875
 20
147.9086888567
 30
0.0
 11
59.8041295875
 21
147.9086888567
 31
0.0
  0
LINE
  5
B5
  8
6
  6
CONTINUOUS
 62
     6
 10
69.8041295875
 20
147.9086888567
 30
0.0
 11
78.2456321235
 21
147.9086888567
 31
0.0
  0
LINE
  5
B6
  8
6
  6
CONTINUOUS
 62
     6
 10
78.2456321235
 20
147.9086888567
 30
0.0
 11
94.3377382183
 21
147.9086888567
 31
0.0
  0
TEXT
  5
B7
  8
6
  6
CONTINUOUS
 62
     6
 10
84.8922671393
 20
148.9086888567
 30
0.0
 40
3.5
  1
%%c
 50
360.0
 41
0.7
 11
84.8922671393
 21
147.9086888567
 31
0.0
 73
     1
  0
TEXT
  5
B8
  8
6
  6
CONTINUOUS
 62
     6
 10
90.1674484519
 20
148.9086886821
 30
0.0
 40
3.5
  1
8
 50
360.0
 41
0.7
 11
90.1674484519
 21
147.9086886821
 31
0.0
 73
     1
  0
ENDBLK
  5
AF
  8
0
  0
BLOCK
  8
0
  2
*D8
 70
     1
 10
0.0
 20
0.0
 30
0.0
  3
*D8
  1

  0
SOLID
  5
BD
  8
6
  6
CONTINUOUS
 62
     6
 10
50.6737494634
 20
133.1086888567
 30
0.0
 11
50.0737494634
 21
128.1086888567
 31
0.0
 12
51.2737494634
 22
128.1086888567
 32
0.0
 13
51.2737494634
 23
128.1086888567
 33
0.0
  0
SOLID
  5
BE
  8
6
  6
CONTINUOUS
 62
     6
 10
50.6737494634
 20
137.9086888567
 30
0.0
 11
51.2737494634
 21
142.9086888567
 31
0.0
 12
50.0737494634
 22
142.9086888567
 32
0.0
 13
50.0737494634
 23
142.9086888567
 33
0.0
  0
LINE
  5
BF
  8
6
  6
CONTINUOUS
 62
     6
 10
64.5541295875
 20
133.1086888567
 30
0.0
 11
49.6737494634
 21
133.1086888567
 31
0.0
  0
LINE
  5
C0
  8
6
  6
CONTINUOUS
 62
     6
 10
70.5541295875
 20
137.9086888567
 30
0.0
 11
49.6737494634
 21
137.9086888567
 31
0.0
  0
LINE
  5
C1
  8
6
  6
CONTINUOUS
 62
     6
 10
50.6737494634
 20
133.1086888567
 30
0.0
 11
50.6737494634
 21
123.7813737314
 31
0.0
  0
LINE
  5
C2
  8
6
  6
CONTINUOUS
 62
     6
 10
50.6737494634
 20
133.1086888567
 30
0.0
 11
50.6737494634
 21
137.9086888567
 31
0.0
  0
LINE
  5
C3
  8
6
  6
CONTINUOUS
 62
     6
 10
50.6737494634
 20
137.9086888567
 30
0.0
 11
50.6737494634
 21
147.9086888567
 31
0.0
  0
TEXT
  5
C4
  8
6
  6
CONTINUOUS
 62
     6
 10
49.673749638
 20
125.3688737314
 30
0.0
 40
3.5
  1
5
 50
90.0
 41
0.7
 11
50.673749638
 21
125.3688737314
 31
0.0
 73
     1
  0
ENDBLK
  5
BC
  8
0
  0
BLOCK
  8
0
  2
*D9
 70
     1
 10
0.0
 20
0.0
 30
0.0
  3
*D9
  1

  0
SOLID
  5
C9
  8
6
  6
CONTINUOUS
 62
     6
 10
83.0541295875
 20
104.7799259313
 30
0.0
 11
88.0541295875
 21
104.1799259313
 31
0.0
 12
88.0541295875
 22
105.3799259313
 32
0.0
 13
88.0541295875
 23
105.3799259313
 33
0.0
  0
SOLID
  5
CA
  8
6
  6
CONTINUOUS
 62
     6
 10
103.0541295875
 20
104.7799259313
 30
0.0
 11
98.0541295875
 21
105.3799259313
 31
0.0
 12
98.0541295875
 22
104.1799259313
 32
0.0
 13
98.0541295875
 23
104.1799259313
 33
0.0
  0
LINE
  5
CB
  8
6
  6
CONTINUOUS
 62
     6
 10
83.0541295875
 20
104.7799259313
 30
0.0
 11
66.0446912646
 21
104.7799259313
 31
0.0
  0
LINE
  5
CC
  8
6
  6
CONTINUOUS
 62
     6
 10
83.0541295875
 20
104.7799259313
 30
0.0
 11
103.0541295875
 21
104.7799259313
 31
0.0
  0
TEXT
  5
CD
  8
6
  6
CONTINUOUS
 62
     6
 10
67.6321912646
 20
105.7799259313
 30
0.0
 40
3.5
  1
%%c
 41
0.7
 11
67.6321912646
 21
104.7799259313
 31
0.0
 73
     1
  0
TEXT
  5
CE
  8
6
  6
CONTINUOUS
 62
     6
 10
72.9073725772
 20
105.7799257567
 30
0.0
 40
3.5
  1
20
 41
0.7
 11
72.9073725772
 21
104.7799257567
 31
0.0
 73
     1
  0
ENDBLK
  5
C8
  8
0
  0
BLOCK
  8
0
  2
*D10
 70
     1
 10
0.0
 20
0.0
 30
0.0
  3
*D10
  1

  0
SOLID
  5
D3
  8
6
  6
CONTINUOUS
 62
     6
 10
150.5053146466
 20
133.1086888567
 30
0.0
 11
151.1053146466
 21
138.1086888567
 31
0.0
 12
149.9053146466
 22
138.1086888567
 32
0.0
 13
149.9053146466
 23
138.1086888567
 33
0.0
  0
SOLID
  5
D4
  8
6
  6
CONTINUOUS
 62
     6
 10
150.5053146466
 20
128.1786888567
 30
0.0
 11
149.9053146466
 21
123.1786888567
 31
0.0
 12
151.1053146466
 22
123.1786888567
 32
0.0
 13
151.1053146466
 23
123.1786888567
 33
0.0
  0
LINE
  5
D5
  8
6
  6
CONTINUOUS
 62
     6
 10
121.5541295875
 20
133.1086888567
 30
0.0
 11
151.5053146466
 21
133.1086888567
 31
0.0
  0
LINE
  5
D6
  8
6
  6
CONTINUOUS
 62
     6
 10
210.9035360715
 20
128.1786888567
 30
0.0
 11
149.5053146466
 21
128.1786888567
 31
0.0
  0
LINE
  5
D7
  8
6
  6
CONTINUOUS
 62
     6
 10
150.5053146466
 20
133.1086888567
 30
0.0
 11
150.5053146466
 21
141.5773812917
 31
0.0
  0
LINE
  5
D8
  8
6
  6
CONTINUOUS
 62
     6
 10
150.5053146466
 20
133.1086888567
 30
0.0
 11
150.5053146466
 21
128.1786888567
 31
0.0
  0
LINE
  5
D9
  8
6
  6
CONTINUOUS
 62
     6
 10
150.5053146466
 20
128.1786888567
 30
0.0
 11
150.5053146466
 21
118.1786888567
 31
0.0
  0
TEXT
  5
DA
  8
6
  6
CONTINUOUS
 62
     6
 10
149.5053148212
 20
137.4070915253
 30
0.0
 40
3.5
  1
5
 50
90.0
 41
0.7
 11
150.5053148212
 21
137.4070915253
 31
0.0
 73
     1
  0
ENDBLK
  5
D2
  8
0
  0
BLOCK
  8
0
  2
*D11
 70
     1
 10
0.0
 20
0.0
 30
0.0
  3
*D11
  1

  0
SOLID
  5
DF
  8
6
  6
CONTINUOUS
 62
     6
 10
137.1053334741
 20
123.1086888567
 30
0.0
 11
136.5053334741
 21
118.1086888567
 31
0.0
 12
137.7053334741
 22
118.1086888567
 32
0.0
 13
137.7053334741
 23
118.1086888567
 33
0.0
  0
SOLID
  5
E0
  8
6
  6
CONTINUOUS
 62
     6
 10
137.1053334741
 20
133.1086888567
 30
0.0
 11
137.7053334741
 21
138.1086888567
 31
0.0
 12
136.5053334741
 22
138.1086888567
 32
0.0
 13
136.5053334741
 23
138.1086888567
 33
0.0
  0
LINE
  5
E1
  8
6
  6
CONTINUOUS
 62
     6
 10
121.5541295875
 20
123.1086888567
 30
0.0
 11
138.1053334741
 21
123.1086888567
 31
0.0
  0
LINE
  5
E2
  8
6
  6
CONTINUOUS
 62
     6
 10
121.5541295875
 20
133.1086888567
 30
0.0
 11
138.1053334741
 21
133.1086888567
 31
0.0
  0
LINE
  5
E3
  8
6
  6
CONTINUOUS
 62
     6
 10
137.1053334741
 20
123.1086888567
 30
0.0
 11
137.1053334741
 21
113.1086888567
 31
0.0
  0
LINE
  5
E4
  8
6
  6
CONTINUOUS
 62
     6
 10
137.1053334741
 20
123.1086888567
 30
0.0
 11
137.1053334741
 21
133.1086888567
 31
0.0
  0
LINE
  5
E5
  8
6
  6
CONTINUOUS
 62
     6
 10
137.1053334741
 20
133.1086888567
 30
0.0
 11
137.1053334741
 21
143.1086888567
 31
0.0
  0
TEXT
  5
E6
  8
6
  6
CONTINUOUS
 62
     6
 10
136.1053336487
 20
125.6428177886
 30
0.0
 40
3.5
  1
10
 50
90.0
 41
0.7
 11
137.1053336487
 21
125.6428177886
 31
0.0
 73
     1
  0
ENDBLK
  5
DE
  8
0
  0
BLOCK
  8
0
  2
*D12
 70
     1
 10
0.0
 20
0.0
 30
0.0
  3
*D12
  1

  0
SOLID
  5
10C
  8
6
  6
CONTINUOUS
 62
     6
 10
399.3887443834
 20
175.4239420764
 30
0.0
 11
394.3887443834
 21
176.0239420764
 31
0.0
 12
394.3887443834
 22
174.8239420764
 32
0.0
 13
394.3887443834
 23
174.8239420764
 33
0.0
  0
SOLID
  5
10D
  8
6
  6
CONTINUOUS
 62
     6
 10
323.0932147705
 20
175.4239420764
 30
0.0
 11
328.0932147705
 21
174.8239420764
 31
0.0
 12
328.0932147705
 22
176.0239420764
 32
0.0
 13
328.0932147705
 23
176.0239420764
 33
0.0
  0
LINE
  5
10E
  8
6
  6
CONTINUOUS
 62
     6
 10
399.3887443834
 20
213.6389037279
 30
0.0
 11
399.3887443834
 21
174.4239420764
 31
0.0
  0
LINE
  5
10F
  8
6
  6
CONTINUOUS
 62
     6
 10
323.0932147705
 20
190.5880682107
 30
0.0
 11
323.0932147705
 21
174.4239420764
 31
0.0
  0
LINE
  5
110
  8
6
  6
CONTINUOUS
 62
     6
 10
399.3887443834
 20
175.4239420764
 30
0.0
 11
323.0932147705
 21
175.4239420764
 31
0.0
  0
TEXT
  5
111
  8
6
  6
CONTINUOUS
 62
     6
 10
359.4474970962
 20
176.4239419018
 30
0.0
 40
3.5
  1
76
 50
0.0
 41
0.7
 11
359.4474970962
 21
175.4239419018
 31
0.0
 73
     1
  0
ENDBLK
  5
10B
  8
0
  0
BLOCK
  8
0
  2
*D13
 70
     1
 10
0.0
 20
0.0
 30
0.0
  3
*D13
  1

  0
SOLID
  5
116
  8
6
  6
CONTINUOUS
 62
     6
 10
308.2932147705
 20
246.4239420764
 30
0.0
 11
307.6932147705
 21
241.4239420764
 31
0.0
 12
308.8932147705
 22
241.4239420764
 32
0.0
 13
308.8932147705
 23
241.4239420764
 33
0.0
  0
SOLID
  5
117
  8
6
  6
CONTINUOUS
 62
     6
 10
308.2932147705
 20
191.4239420764
 30
0.0
 11
308.8932147705
 21
196.4239420764
 31
0.0
 12
307.6932147705
 22
196.4239420764
 32
0.0
 13
307.6932147705
 23
196.4239420764
 33
0.0
  0
LINE
  5
118
  8
6
  6
CONTINUOUS
 62
     6
 10
322.0932147705
 20
246.4239420764
 30
0.0
 11
307.2932147705
 21
246.4239420764
 31
0.0
  0
LINE
  5
119
  8
6
  6
CONTINUOUS
 62
     6
 10
323.0932147705
 20
191.4239420764
 30
0.0
 11
307.2932147705
 21
191.4239420764
 31
0.0
  0
LINE
  5
11A
  8
6
  6
CONTINUOUS
 62
     6
 10
308.2932147705
 20
246.4239420764
 30
0.0
 11
308.2932147705
 21
191.4239420764
 31
0.0
  0
TEXT
  5
11B
  8
6
  6
CONTINUOUS
 62
     6
 10
307.2932147705
 20
214.9368770483
 30
0.0
 40
3.5
  1
%%c
 50
90.0
 41
0.7
 11
308.2932147705
 21
214.9368770483
 31
0.0
 73
     1
  0
TEXT
  5
11C
  8
6
  6
CONTINUOUS
 62
     6
 10
307.2932149452
 20
220.2120583608
 30
0.0
 40
3.5
  1
55
 50
90.0
 41
0.7
 11
308.2932149452
 21
220.2120583608
 31
0.0
 73
     1
  0
ENDBLK
  5
115
  8
0
  0
ENDSEC
  0
SECTION
  2
ENTITIES
  0
LINE
  5
34
  8
6
  6
CONTINUOUS
 62
     6
 10
20.0
 20
287.0
 30
0.0
 11
20.0
 21
9.0
 31
0.0
  0
LINE
  5
35
  8
6
  6
CONTINUOUS
 62
     6
 10
20.0
 20
148.5
 30
0.0
 11
13.375265605
 21
148.5
 31
0.0
  0
LINE
  5
36
  8
6
  6
CONTINUOUS
 62
     6
 10
20.0
 20
287.0
 30
0.0
 11
414.5
 21
287.0
 31
0.0
  0
LINE
  5
37
  8
6
  6
CONTINUOUS
 62
     6
 10
20.0
 20
9.0
 30
0.0
 11
414.5
 21
9.0
 31
0.0
  0
LINE
  5
38
  8
6
  6
CONTINUOUS
 62
     6
 10
0.0
 20
297.0
 30
0.0
 11
420.0
 21
297.0
 31
0.0
  0
LINE
  5
39
  8
6
  6
CONTINUOUS
 62
     6
 10
420.0
 20
297.0
 30
0.0
 11
420.0
 21
0.0
 31
0.0
  0
LINE
  5
3A
  8
6
  6
CONTINUOUS
 62
     6
 10
420.0
 20
0.0
 30
0.0
 11
0.0
 21
0.0
 31
0.0
  0
LINE
  5
3B
  8
6
  6
CONTINUOUS
 62
     6
 10
0.0
 20
0.0
 30
0.0
 11
0.0
 21
297.0
 31
0.0
  0
LINE
  5
3C
  8
6
  6
CONTINUOUS
 62
     6
 10
414.5
 20
52.5
 30
0.0
 11
414.5
 21
287.0
 31
0.0
  0
LINE
  5
3D
  8
6
  6
CONTINUOUS
 62
     6
 10
414.5
 20
52.5
 30
0.0
 11
414.5
 21
9.0
 31
0.0
  0
INSERT
  5
44
  8
2
  6
CONTINUOUS
 62
     1
  2
SW_NOTE_0
 10
25.131147541
 20
27.4759448138
 30
0.0
  0
TEXT
  5
45
  8
2
  6
CONTINUOUS
 62
     1
 10
312.7010196007
 20
39.8322418184
 30
0.0
 40
10.0
  1
Modell 
 41
0.7
 11
312.7010196007
 21
36.9750989613
 31
0.0
 73
     1
  0
INSERT
  5
4B
  8
2
  6
CONTINUOUS
 62
     1
  2
SW_NOTE_1
 10
309.7662955082
 20
27.4759448138
 30
0.0
  0
TEXT
  5
4C
  8
2
  6
CONTINUOUS
 62
     1
 10
300.4572681642
 20
14.8988612224
 30
0.0
 40
3.5
  1
Datum/Date 01/2008    Maßstab/Scale 1:1
 41
0.6461538462
 11
300.4572681642
 21
13.8988612224
 31
0.0
 73
     1
  0
LINE
  5
4D
  8
6
  6
CONTINUOUS
 62
     6
 10
83.0541295875
 20
218.9239420764
 30
0.0
 11
83.0541295875
 21
214.0612322569
 31
0.0
  0
LINE
  5
4E
  8
6
  6
CONTINUOUS
 62
     6
 10
232.9187156766
 20
218.9343469019
 30
0.0
 11
232.9187098975
 21
214.952603967
 31
0.0
  0
LINE
  5
4F
  8
0
  6
CONTINUOUS
 10
92.8556917989
 20
208.9239422999
 30
0.0
 11
222.3155040611
 21
208.9239422999
 31
0.0
  0
LINE
  5
50
  8
0
  6
CONTINUOUS
 10
222.3163683285
 20
228.9239418529
 30
0.0
 11
92.8454169389
 21
228.9239418529
 31
0.0
  0
ARC
  5
51
  8
0
  6
CONTINUOUS
 10
93.0541295792
 20
218.9239418756
 30
0.0
 40
9.999999768143091
 50
179.9999988494
 51
266.5742294623
  0
ARC
  5
52
  8
0
  6
CONTINUOUS
 10
93.0541302498
 20
218.9239420426
 30
0.0
 40
10.00000043873517
 50
90.6080658945
 51
179.9999998062
  0
ARC
  5
53
  8
0
  6
CONTINUOUS
 10
92.9465590764
 20
218.9129665057
 30
0.0
 40
9.966572831555322
 50
90.5687069585
 51
269.5319819881
  0
POLYLINE
  5
54
  8
0
  6
CONTINUOUS
 66
     1
 10
0.0
 20
0.0
 30
0.0
  0
VERTEX
  5
120
  8
0
  6
CONTINUOUS
 10
229.9347061981
 20
211.9564003147
 30
0.0
  0
VERTEX
  5
121
  8
0
  6
CONTINUOUS
 10
231.2727410663
 20
213.5603650309
 30
0.0
  0
VERTEX
  5
122
  8
0
  6
CONTINUOUS
 10
232.2289783825
 20
215.3678002138
 30
0.0
  0
VERTEX
  5
123
  8
0
  6
CONTINUOUS
 10
232.778413998
 20
217.2988889575
 30
0.0
  0
VERTEX
  5
124
  8
0
  6
CONTINUOUS
 10
232.9125691522
 20
219.2729735758
 30
0.0
  0
VERTEX
  5
125
  8
0
  6
CONTINUOUS
 10
232.6373149027
 20
221.2192743387
 30
0.0
  0
VERTEX
  5
126
  8
0
  6
CONTINUOUS
 10
231.9537390341
 20
223.10249869
 30
0.0
  0
VERTEX
  5
127
  8
0
  6
CONTINUOUS
 10
230.8721680511
 20
224.8425640933
 30
0.0
  0
VERTEX
  5
128
  8
0
  6
CONTINUOUS
 10
230.427413093
 20
225.3769481391
 30
0.0
  0
VERTEX
  5
129
  8
0
  6
CONTINUOUS
 10
229.9427230228
 20
225.8836942561
 30
0.0
  0
VERTEX
  5
12A
  8
0
  6
CONTINUOUS
 10
229.4197667707
 20
226.3600084767
 30
0.0
  0
VERTEX
  5
12B
  8
0
  6
CONTINUOUS
 10
228.0048270096
 20
227.3718220018
 30
0.0
  0
VERTEX
  5
12C
  8
0
  6
CONTINUOUS
 10
226.2652356495
 20
228.2095569022
 30
0.0
  0
VERTEX
  5
12D
  8
0
  6
CONTINUOUS
 10
225.2774674763
 20
228.5293190576
 30
0.0
  0
VERTEX
  5
12E
  8
0
  6
CONTINUOUS
 10
224.2170263399
 20
228.7636305042
 30
0.0
  0
VERTEX
  5
12F
  8
0
  6
CONTINUOUS
 10
223.0913330187
 20
228.8976189517
 30
0.0
  0
VERTEX
  5
130
  8
0
  6
CONTINUOUS
 10
222.298203813
 20
228.9103706203
 30
0.0
  0
SEQEND
  5
11F
  8
0
  6
CONTINUOUS
  0
ARC
  5
55
  8
0
  6
CONTINUOUS
 10
222.6677235217
 20
219.2041110008
 30
0.0
 40
10.26344715036523
 50
267.8649528501
 51
315.0760748458
  0
ARC
  5
56
  8
0
  6
CONTINUOUS
 10
93.0541295875
 20
218.9239420764
 30
0.0
 40
10.49999999999999
 50
72.2472098381
 51
287.7527901619
  0
ARC
  5
57
  8
0
  6
CONTINUOUS
 10
93.0541295875
 20
218.9239420764
 30
0.0
 40
27.5
 50
21.3236862635
 51
180.0
  0
ARC
  5
58
  8
0
  6
CONTINUOUS
 10
93.0541295875
 20
218.9239420764
 30
0.0
 40
27.5
 50
180.0
 51
338.6763137365
  0
DIMENSION
  5
59
  8
6
  6
CONTINUOUS
 62
     6
  2
*D3
 10
232.9186584486
 20
179.5052736947
 30
0.0
 11
162.3867978899
 21
179.5053760658
 31
0.0
 70
   160
  3
SLDDIMSTYLE0
 13
83.0541295875
 23
214.0612322569
 33
0.0
 14
232.9187098975
 24
214.952603967
 34
0.0
 50
-0.00008316
  0
DIMENSION
  5
64
  8
6
  6
CONTINUOUS
 62
     6
  2
*D4
 10
249.0256029946
 20
208.9239420764
 30
0.0
 11
249.0256029946
 21
218.9134828788
 31
0.0
 70
   160
  1
%%c<>
  3
SLDDIMSTYLE1
 13
222.3189027097
 23
228.9239420764
 33
0.0
 14
222.3197935013
 24
208.9239420764
 34
0.0
 50
90.0
  0
INSERT
  5
7D
  8
6
  6
CENTER
 62
     6
  2
SW_CENTERMARKSYMBOL_0
 10
93.0541295875
 20
218.9239420764
 30
0.0
  0
LINE
  5
7E
  8
6
  6
CENTER
 62
     6
 10
74.0541295875
 20
139.2151245574
 30
0.0
 11
74.0541295875
 21
122.6086888567
 31
0.0
  0
LINE
  5
7F
  8
6
  6
CENTER
 62
     6
 10
112.0541295875
 20
139.2151245574
 30
0.0
 11
112.0541295875
 21
122.6086888567
 31
0.0
  0
LINE
  5
80
  8
0
  6
CONTINUOUS
 10
230.9982616772
 20
128.1785729446
 30
0.0
 11
230.9982616772
 21
128.1786888942
 31
0.0
  0
LINE
  5
81
  8
0
  6
CONTINUOUS
 10
213.8766859044
 20
128.1786888942
 30
0.0
 11
213.8766859044
 21
128.1784914539
 31
0.0
  0
LINE
  5
82
  8
0
  6
CONTINUOUS
 10
103.054129364
 20
82.5601827458
 30
0.0
 11
103.054129364
 21
96.8586888269
 31
0.0
  0
LINE
  5
83
  8
0
  6
CONTINUOUS
 10
83.0541298111
 20
96.8586888269
 30
0.0
 11
83.0541298111
 21
69.9131202057
 31
0.0
  0
LINE
  5
84
  8
0
  6
CONTINUOUS
 10
83.0541298111
 20
122.6086888567
 30
0.0
 11
83.0541298111
 21
96.8586888269
 31
0.0
  0
LINE
  5
85
  8
0
  6
CONTINUOUS
 10
103.054129364
 20
96.8586888269
 30
0.0
 11
103.054129364
 21
122.6086888567
 31
0.0
  0
ARC
  5
86
  8
0
  6
CONTINUOUS
 10
133.6604533031
 20
161.8586888567
 30
0.0
 40
85.00000000000003
 50
270.0
 51
336.437419672
  0
ARC
  5
87
  8
0
  6
CONTINUOUS
 10
133.6604533031
 20
161.8586888567
 30
0.0
 40
85.00000000000003
 50
248.8882188137
 51
270.0
  0
ARC
  5
88
  8
0
  6
CONTINUOUS
 10
133.6604533031
 20
161.8586888567
 30
0.0
 40
105.0000000000001
 50
241.1946125464
 51
340.9595764257
  0
POLYLINE
  5
89
  8
0
  6
CONTINUOUS
 66
     1
 10
0.0
 20
0.0
 30
0.0
  0
VERTEX
  5
132
  8
0
  6
CONTINUOUS
 10
232.918738233
 20
127.6133746945
 30
0.0
  0
VERTEX
  5
133
  8
0
  6
CONTINUOUS
 10
232.7475238909
 20
127.8960315615
 30
0.0
  0
VERTEX
  5
134
  8
0
  6
CONTINUOUS
 10
232.5762946476
 20
128.1786888942
 30
0.0
  0
SEQEND
  5
131
  8
0
  6
CONTINUOUS
  0
POLYLINE
  5
8A
  8
0
  6
CONTINUOUS
 66
     1
 10
0.0
 20
0.0
 30
0.0
  0
VERTEX
  5
136
  8
0
  6
CONTINUOUS
 10
211.9039062728
 20
128.1786888942
 30
0.0
  0
VERTEX
  5
137
  8
0
  6
CONTINUOUS
 10
211.7378775348
 20
128.0275184766
 30
0.0
  0
VERTEX
  5
138
  8
0
  6
CONTINUOUS
 10
211.5718562473
 20
127.8763485246
 30
0.0
  0
SEQEND
  5
135
  8
0
  6
CONTINUOUS
  0
LINE
  5
8B
  8
0
  6
CONTINUOUS
 10
65.5541297365
 20
133.1086887151
 30
0.0
 11
65.5541297365
 21
123.1086888804
 31
0.0
  0
LINE
  5
8C
  8
0
  6
CONTINUOUS
 10
120.5541294385
 20
123.1086888804
 30
0.0
 11
120.5541294385
 21
133.1086887151
 31
0.0
  0
LINE
  5
8D
  8
0
  6
CONTINUOUS
 10
65.5541297365
 20
123.1086888804
 30
0.0
 11
66.0541288872
 21
122.6086888567
 31
0.0
  0
LINE
  5
8E
  8
0
  6
CONTINUOUS
 10
120.0541302879
 20
122.6086888567
 30
0.0
 11
120.5541294385
 21
123.1086888804
 31
0.0
  0
LINE
  5
8F
  8
0
  6
CONTINUOUS
 10
116.293647172
 20
133.1086887151
 30
0.0
 11
116.0682577957
 21
137.4093743146
 31
0.0
  0
LINE
  5
90
  8
0
  6
CONTINUOUS
 10
70.0400013794
 20
137.4093743146
 30
0.0
 11
69.8146120031
 21
133.1086887151
 31
0.0
  0
LINE
  5
91
  8
0
  6
CONTINUOUS
 10
116.0682577957
 20
137.4093743146
 30
0.0
 11
115.5137129445
 21
137.9086889431
 31
0.0
  0
LINE
  5
92
  8
0
  6
CONTINUOUS
 10
70.5945462306
 20
137.9086889431
 30
0.0
 11
70.0400013794
 21
137.4093743146
 31
0.0
  0
POLYLINE
  5
93
  8
0
  6
CONTINUOUS
 66
     1
 10
0.0
 20
0.0
 30
0.0
  0
VERTEX
  5
13A
  8
0
  6
CONTINUOUS
 10
103.054129364
 20
82.5601827458
 30
0.0
  0
VERTEX
  5
13B
  8
0
  6
CONTINUOUS
 10
103.0399564971
 20
82.5511824444
 30
0.0
  0
VERTEX
  5
13C
  8
0
  6
CONTINUOUS
 10
102.9268129115
 20
82.4793290451
 30
0.0
  0
VERTEX
  5
13D
  8
0
  6
CONTINUOUS
 10
102.7018081714
 20
82.3364343599
 30
0.0
  0
VERTEX
  5
13E
  8
0
  6
CONTINUOUS
 10
102.3674913068
 20
82.1241151646
 30
0.0
  0
VERTEX
  5
13F
  8
0
  6
CONTINUOUS
 10
101.9276500065
 20
81.8447854474
 30
0.0
  0
VERTEX
  5
140
  8
0
  6
CONTINUOUS
 10
101.3872687091
 20
81.5016005293
 30
0.0
  0
VERTEX
  5
141
  8
0
  6
CONTINUOUS
 10
100.7524694633
 20
81.0984570638
 30
0.0
  0
VERTEX
  5
142
  8
0
  6
CONTINUOUS
 10
100.0304448735
 20
80.6399185315
 30
0.0
  0
VERTEX
  5
143
  8
0
  6
CONTINUOUS
 10
99.2293756772
 20
80.1311779872
 30
0.0
  0
VERTEX
  5
144
  8
0
  6
CONTINUOUS
 10
98.3583385442
 20
79.5780059055
 30
0.0
  0
VERTEX
  5
145
  8
0
  6
CONTINUOUS
 10
97.4272026998
 20
78.9866644994
 30
0.0
  0
VERTEX
  5
146
  8
0
  6
CONTINUOUS
 10
96.446518166
 20
78.3638555661
 30
0.0
  0
VERTEX
  5
147
  8
0
  6
CONTINUOUS
 10
95.4273965527
 20
77.7166385308
 30
0.0
  0
VERTEX
  5
148
  8
0
  6
CONTINUOUS
 10
94.3813848626
 20
77.0523410395
 30
0.0
  0
VERTEX
  5
149
  8
0
  6
CONTINUOUS
 10
93.3203348159
 20
76.3784956292
 30
0.0
  0
VERTEX
  5
14A
  8
0
  6
CONTINUOUS
 10
92.2562685065
 20
75.7027354196
 30
0.0
  0
VERTEX
  5
14B
  8
0
  6
CONTINUOUS
 10
91.2012423706
 20
75.0327158824
 30
0.0
  0
VERTEX
  5
14C
  8
0
  6
CONTINUOUS
 10
90.16721005
 20
74.3760254339
 30
0.0
  0
VERTEX
  5
14D
  8
0
  6
CONTINUOUS
 10
89.1658878737
 20
73.7401109293
 30
0.0
  0
VERTEX
  5
14E
  8
0
  6
CONTINUOUS
 10
88.2086207476
 20
73.1321770802
 30
0.0
  0
VERTEX
  5
14F
  8
0
  6
CONTINUOUS
 10
87.3062553201
 20
72.559108223
 30
0.0
  0
VERTEX
  5
150
  8
0
  6
CONTINUOUS
 10
86.4690158833
 20
72.0273975387
 30
0.0
  0
VERTEX
  5
151
  8
0
  6
CONTINUOUS
 10
85.7063879576
 20
71.543072547
 30
0.0
  0
VERTEX
  5
152
  8
0
  6
CONTINUOUS
 10
85.0270128195
 20
71.1116168753
 30
0.0
  0
VERTEX
  5
153
  8
0
  6
CONTINUOUS
 10
84.4385883157
 20
70.7379255548
 30
0.0
  0
VERTEX
  5
154
  8
0
  6
CONTINUOUS
 10
83.9477822502
 20
70.426223065
 30
0.0
  0
VERTEX
  5
155
  8
0
  6
CONTINUOUS
 10
83.5601536874
 20
70.1800521568
 30
0.0
  0
VERTEX
  5
156
  8
0
  6
CONTINUOUS
 10
83.280095676
 20
70.0021956221
 30
0.0
  0
VERTEX
  5
157
  8
0
  6
CONTINUOUS
 10
83.1107812319
 20
69.8946688429
 30
0.0
  0
VERTEX
  5
158
  8
0
  6
CONTINUOUS
 10
83.0541298111
 20
69.8586899892
 30
0.0
  0
SEQEND
  5
139
  8
0
  6
CONTINUOUS
  0
POLYLINE
  5
94
  8
0
  6
CONTINUOUS
 66
     1
 10
0.0
 20
0.0
 30
0.0
  0
VERTEX
  5
15A
  8
0
  6
CONTINUOUS
 10
92.948004718
 20
76.142040278
 30
0.0
  0
VERTEX
  5
15B
  8
0
  6
CONTINUOUS
 10
91.6511349697
 20
75.3184307471
 30
0.0
  0
VERTEX
  5
15C
  8
0
  6
CONTINUOUS
 10
89.726623226
 20
74.0962226048
 30
0.0
  0
VERTEX
  5
15D
  8
0
  6
CONTINUOUS
 10
87.8399180566
 20
72.8980239585
 30
0.0
  0
VERTEX
  5
15E
  8
0
  6
CONTINUOUS
 10
86.3101429623
 20
71.9265017763
 30
0.0
  0
VERTEX
  5
15F
  8
0
  6
CONTINUOUS
 10
84.9485684503
 20
71.0617985681
 30
0.0
  0
VERTEX
  5
160
  8
0
  6
CONTINUOUS
 10
84.0610320066
 20
70.4981472448
 30
0.0
  0
VERTEX
  5
161
  8
0
  6
CONTINUOUS
 10
83.4138764386
 20
70.0871545926
 30
0.0
  0
VERTEX
  5
162
  8
0
  6
CONTINUOUS
 10
83.1196297277
 20
69.9002865806
 30
0.0
  0
VERTEX
  5
163
  8
0
  6
CONTINUOUS
 10
83.0805281494
 20
69.8754537955
 30
0.0
  0
SEQEND
  5
159
  8
0
  6
CONTINUOUS
  0
LINE
  5
95
  8
0
  6
CONTINUOUS
 10
211.9349453915
 20
128.1786888942
 30
0.0
 11
232.5703341831
 21
128.1786888942
 31
0.0
  0
LINE
  5
96
  8
0
  6
CONTINUOUS
 10
65.5541297365
 20
133.1086887151
 30
0.0
 11
120.5541294385
 21
133.1086887151
 31
0.0
  0
LINE
  5
97
  8
0
  6
CONTINUOUS
 10
120.0541302879
 20
122.6086888567
 30
0.0
 11
66.0541288872
 21
122.6086888567
 31
0.0
  0
ARC
  5
98
  8
0
  6
CONTINUOUS
 10
97.9061310831
 20
136.7394439699
 30
0.0
 40
10.66972758325345
 50
340.1057212457
 51
358.0328444823
  0
LINE
  5
99
  8
0
  6
CONTINUOUS
 10
108.5695706625
 20
136.3731885433
 30
0.0
 11
108.6331306343
 21
137.4093743146
 31
0.0
  0
ARC
  5
9A
  8
0
  6
CONTINUOUS
 10
87.7808197798
 20
136.6581168962
 30
0.0
 40
10.24609374644734
 50
181.5935142987
 51
200.2683611987
  0
LINE
  5
9B
  8
0
  6
CONTINUOUS
 10
77.5386885126
 20
136.3731885433
 30
0.0
 11
77.4751285408
 21
137.4093743146
 31
0.0
  0
LINE
  5
9C
  8
0
  6
CONTINUOUS
 10
109.3048163075
 20
137.9086889431
 30
0.0
 11
115.5137129445
 21
137.9086889431
 31
0.0
  0
LINE
  5
9D
  8
0
  6
CONTINUOUS
 10
108.6331306343
 20
137.4093743146
 30
0.0
 11
109.3048163075
 21
137.9086889431
 31
0.0
  0
LINE
  5
9E
  8
0
  6
CONTINUOUS
 10
70.5945462306
 20
137.9086889431
 30
0.0
 11
76.8034428675
 21
137.9086889431
 31
0.0
  0
LINE
  5
9F
  8
0
  6
CONTINUOUS
 10
76.8034428675
 20
137.9086889431
 30
0.0
 11
77.4751285408
 21
137.4093743146
 31
0.0
  0
LINE
  5
A0
  8
0
  6
CONTINUOUS
 10
75.4105959405
 20
137.9086889431
 30
0.0
 11
76.8034428675
 21
137.9086889431
 31
0.0
  0
LINE
  5
A1
  8
0
  6
CONTINUOUS
 10
110.6976632346
 20
137.9086889431
 30
0.0
 11
109.3048163075
 21
137.9086889431
 31
0.0
  0
DIMENSION
  5
A2
  8
6
  6
CONTINUOUS
 62
     6
  2
*D6
 10
112.0541295875
 20
159.9086888567
 30
0.0
 11
93.5638908947
 21
159.9086888567
 31
0.0
 70
   160
  3
SLDDIMSTYLE1
 13
74.0541295875
 23
139.2151245574
 33
0.0
 14
112.0541295875
 24
139.2151245574
 34
0.0
  0
DIMENSION
  5
AC
  8
6
  6
CONTINUOUS
 62
     6
  2
*D7
 10
78.2456321235
 20
147.9086888567
 30
0.0
 11
88.8212526788
 21
147.9086888567
 31
0.0
 70
   160
  1
%%c<>
  3
SLDDIMSTYLE0
 13
69.8041295875
 23
132.9086888567
 33
0.0
 14
78.2456321235
 24
132.9086888567
 34
0.0
  0
DIMENSION
  5
B9
  8
6
  6
CONTINUOUS
 62
     6
  2
*D8
 10
50.6737494634
 20
137.9086888567
 30
0.0
 11
50.6737494634
 21
126.6602686146
 31
0.0
 70
   160
  3
SLDDIMSTYLE0
 13
65.5541295875
 23
133.1086888567
 33
0.0
 14
71.5541295875
 24
137.9086888567
 34
0.0
 50
90.0
  0
DIMENSION
  5
C5
  8
6
  6
CONTINUOUS
 62
     6
  2
*D9
 10
103.0541295875
 20
104.7799259313
 30
0.0
 11
72.8549543347
 21
104.7799259313
 31
0.0
 70
   160
  1
%%c<>
  3
SLDDIMSTYLE1
 13
83.0541295875
 23
96.8586888567
 33
0.0
 14
103.0541295875
 24
96.8586888567
 34
0.0
  0
DIMENSION
  5
CF
  8
6
  6
CONTINUOUS
 62
     6
  2
*D10
 10
150.5053146466
 20
128.1786888567
 30
0.0
 11
150.5053146466
 21
138.6984864085
 31
0.0
 70
   160
  3
SLDDIMSTYLE0
 13
120.5541295875
 23
133.1086888567
 33
0.0
 14
211.9035360715
 24
128.1786888567
 34
0.0
 50
90.0
  0
DIMENSION
  5
DB
  8
6
  6
CONTINUOUS
 62
     6
  2
*D11
 10
137.1053334741
 20
133.1086888567
 30
0.0
 11
137.1053334741
 21
128.2279902024
 31
0.0
 70
   160
  3
SLDDIMSTYLE1
 13
120.5541295875
 23
123.1086888567
 33
0.0
 14
120.5541295875
 24
133.1086888567
 34
0.0
 50
90.0
  0
ARC
  5
E7
  8
6
  6
CENTER
 62
     6
 10
133.6604533031
 20
161.8586888567
 30
0.0
 40
95.00000000000004
 50
244.7233205737
 51
342.1711287534
  0
LINE
  5
E8
  8
6
  6
CENTER
 62
     6
 10
93.0541295875
 20
76.040213439
 30
0.0
 11
93.0541295875
 21
135.6930033539
 31
0.0
  0
LINE
  5
E9
  8
6
  6
CONTINUOUS
 62
     6
 10
399.3887443834
 20
218.9139982137
 30
0.0
 11
399.3887443834
 21
214.6389037279
 31
0.0
  0
LINE
  5
EA
  8
0
  6
CONTINUOUS
 10
379.9924691224
 20
228.9239418529
 30
0.0
 11
359.3432148003
 21
228.9239418529
 31
0.0
  0
LINE
  5
EB
  8
0
  6
CONTINUOUS
 10
359.3432148003
 20
208.9239422999
 30
0.0
 11
379.9924691224
 21
208.9239422999
 31
0.0
  0
LINE
  5
EC
  8
0
  6
CONTINUOUS
 10
333.5932147705
 20
208.9239422999
 30
0.0
 11
359.3432148003
 21
208.9239422999
 31
0.0
  0
LINE
  5
ED
  8
0
  6
CONTINUOUS
 10
359.3432148003
 20
228.9239418529
 30
0.0
 11
333.5932147705
 21
228.9239418529
 31
0.0
  0
ARC
  5
EE
  8
0
  6
CONTINUOUS
 10
389.3432147705
 20
218.9239420764
 30
0.0
 40
10.0
 50
270.0
 51
90.0
  0
LINE
  5
EF
  8
0
  6
CONTINUOUS
 10
379.9924691224
 20
208.9239422999
 30
0.0
 11
380.1355724239
 21
208.9239422999
 31
0.0
  0
LINE
  5
F0
  8
0
  6
CONTINUOUS
 10
380.1355724239
 20
208.9239422999
 30
0.0
 11
389.3432159924
 21
208.9239422999
 31
0.0
  0
LINE
  5
F1
  8
0
  6
CONTINUOUS
 10
389.3432159924
 20
228.9239418529
 30
0.0
 11
380.131120702
 21
228.9239418529
 31
0.0
  0
LINE
  5
F2
  8
0
  6
CONTINUOUS
 10
380.131120702
 20
228.9239418529
 30
0.0
 11
379.9924691224
 21
228.9239418529
 31
0.0
  0
LINE
  5
F3
  8
0
  6
CONTINUOUS
 10
324.093215076
 20
191.4239422254
 30
0.0
 11
333.0932147468
 21
191.4239422254
 31
0.0
  0
LINE
  5
F4
  8
0
  6
CONTINUOUS
 10
333.0932147468
 20
246.4239419274
 30
0.0
 11
323.0932149121
 21
246.4239419274
 31
0.0
  0
LINE
  5
F5
  8
0
  6
CONTINUOUS
 10
333.0932147468
 20
191.4239422254
 30
0.0
 11
333.5932147705
 21
191.9239413761
 31
0.0
  0
LINE
  5
F6
  8
0
  6
CONTINUOUS
 10
333.5932147705
 20
245.9239427768
 30
0.0
 11
333.0932147468
 21
246.4239419274
 31
0.0
  0
LINE
  5
F7
  8
0
  6
CONTINUOUS
 10
323.0932149121
 20
223.1634607375
 30
0.0
 11
318.7925293127
 21
222.9380713612
 31
0.0
  0
LINE
  5
F8
  8
0
  6
CONTINUOUS
 10
318.7925293127
 20
214.9098127916
 30
0.0
 11
323.0932149121
 21
214.6844234154
 31
0.0
  0
LINE
  5
F9
  8
0
  6
CONTINUOUS
 10
318.7925293127
 20
222.9380713612
 30
0.0
 11
318.2932146841
 21
222.3835260443
 31
0.0
  0
LINE
  5
FA
  8
0
  6
CONTINUOUS
 10
318.2932146841
 20
215.4643581085
 30
0.0
 11
318.7925293127
 21
214.9098127916
 31
0.0
  0
LINE
  5
FB
  8
0
  6
CONTINUOUS
 10
386.3432136381
 20
218.9239420764
 30
0.0
 11
386.3420662486
 21
218.7337145657
 31
0.0
  0
LINE
  5
FC
  8
0
  6
CONTINUOUS
 10
380.3719495439
 20
208.9418106549
 30
0.0
 11
379.9924691224
 21
208.9239422999
 31
0.0
  0
POLYLINE
  5
FD
  8
0
  6
CONTINUOUS
 66
     1
 10
0.0
 20
0.0
 30
0.0
  0
VERTEX
  5
165
  8
0
  6
CONTINUOUS
 10
379.9924691224
 20
228.9239418529
 30
0.0
  0
VERTEX
  5
166
  8
0
  6
CONTINUOUS
 10
380.4991682076
 20
228.8920617498
 30
0.0
  0
VERTEX
  5
167
  8
0
  6
CONTINUOUS
 10
381.1691877448
 20
228.7507829092
 30
0.0
  0
VERTEX
  5
168
  8
0
  6
CONTINUOUS
 10
381.8258781934
 20
228.4981625922
 30
0.0
  0
VERTEX
  5
169
  8
0
  6
CONTINUOUS
 10
382.4617926979
 20
228.1370618217
 30
0.0
  0
VERTEX
  5
16A
  8
0
  6
CONTINUOUS
 10
383.069726547
 20
227.671572829
 30
0.0
  0
VERTEX
  5
16B
  8
0
  6
CONTINUOUS
 10
383.6427954042
 20
227.1069696941
 30
0.0
  0
VERTEX
  5
16C
  8
0
  6
CONTINUOUS
 10
384.1745060885
 20
226.4496496715
 30
0.0
  0
VERTEX
  5
16D
  8
0
  6
CONTINUOUS
 10
384.6588310802
 20
225.7070605479
 30
0.0
  0
VERTEX
  5
16E
  8
0
  6
CONTINUOUS
 10
385.090286752
 20
224.8876158915
 30
0.0
  0
VERTEX
  5
16F
  8
0
  6
CONTINUOUS
 10
385.4639780724
 20
224.0006000571
 30
0.0
  0
VERTEX
  5
170
  8
0
  6
CONTINUOUS
 10
385.7756805622
 20
223.0560638778
 30
0.0
  0
VERTEX
  5
171
  8
0
  6
CONTINUOUS
 10
386.0218514705
 20
222.0647091813
 30
0.0
  0
VERTEX
  5
172
  8
0
  6
CONTINUOUS
 10
386.1997080052
 20
221.0377684165
 30
0.0
  0
VERTEX
  5
173
  8
0
  6
CONTINUOUS
 10
386.3072347844
 20
219.9868769454
 30
0.0
  0
VERTEX
  5
174
  8
0
  6
CONTINUOUS
 10
386.3432136381
 20
218.9239420764
 30
0.0
  0
SEQEND
  5
164
  8
0
  6
CONTINUOUS
  0
POLYLINE
  5
FE
  8
0
  6
CONTINUOUS
 66
     1
 10
0.0
 20
0.0
 30
0.0
  0
VERTEX
  5
176
  8
0
  6
CONTINUOUS
 10
380.0594349408
 20
228.8813366391
 30
0.0
  0
VERTEX
  5
177
  8
0
  6
CONTINUOUS
 10
380.8834728801
 20
228.8519580685
 30
0.0
  0
VERTEX
  5
178
  8
0
  6
CONTINUOUS
 10
382.1056810224
 20
228.4165321685
 30
0.0
  0
VERTEX
  5
179
  8
0
  6
CONTINUOUS
 10
383.3038796687
 20
227.5448226206
 30
0.0
  0
VERTEX
  5
17A
  8
0
  6
CONTINUOUS
 10
384.2754018509
 20
226.4049317524
 30
0.0
  0
VERTEX
  5
17B
  8
0
  6
CONTINUOUS
 10
385.1401050591
 20
224.8723249719
 30
0.0
  0
VERTEX
  5
17C
  8
0
  6
CONTINUOUS
 10
385.7037563825
 20
223.3725333422
 30
0.0
  0
VERTEX
  5
17D
  8
0
  6
CONTINUOUS
 10
386.1147490346
 20
221.6309491847
 30
0.0
  0
VERTEX
  5
17E
  8
0
  6
CONTINUOUS
 10
386.3016170466
 20
220.0882308021
 30
0.0
  0
VERTEX
  5
17F
  8
0
  6
CONTINUOUS
 10
386.3364708626
 20
218.4544515399
 30
0.0
  0
VERTEX
  5
180
  8
0
  6
CONTINUOUS
 10
386.2288695776
 20
216.9995352229
 30
0.0
  0
VERTEX
  5
181
  8
0
  6
CONTINUOUS
 10
385.9860849583
 20
215.5581401963
 30
0.0
  0
VERTEX
  5
182
  8
0
  6
CONTINUOUS
 10
385.6281590664
 20
214.235474246
 30
0.0
  0
VERTEX
  5
183
  8
0
  6
CONTINUOUS
 10
385.1523724401
 20
213.0026047885
 30
0.0
  0
VERTEX
  5
184
  8
0
  6
CONTINUOUS
 10
384.5528093183
 20
211.8669919506
 30
0.0
  0
VERTEX
  5
185
  8
0
  6
CONTINUOUS
 10
383.853043338
 20
210.8889593579
 30
0.0
  0
VERTEX
  5
186
  8
0
  6
CONTINUOUS
 10
383.010516783
 20
210.0425007589
 30
0.0
  0
VERTEX
  5
187
  8
0
  6
CONTINUOUS
 10
382.0899379456
 20
209.4230473809
 30
0.0
  0
VERTEX
  5
188
  8
0
  6
CONTINUOUS
 10
381.0248178446
 20
209.0255849831
 30
0.0
  0
VERTEX
  5
189
  8
0
  6
CONTINUOUS
 10
380.0594274902
 20
208.9421394117
 30
0.0
  0
SEQEND
  5
175
  8
0
  6
CONTINUOUS
  0
LINE
  5
FF
  8
0
  6
CONTINUOUS
 10
324.093215076
 20
191.4239422254
 30
0.0
 11
324.093215076
 21
191.5880673401
 31
0.0
  0
LINE
  5
100
  8
0
  6
CONTINUOUS
 10
324.093215076
 20
191.5880673401
 30
0.0
 11
323.0932149121
 21
191.5880673401
 31
0.0
  0
LINE
  5
101
  8
0
  6
CONTINUOUS
 10
323.0932149121
 20
191.5880673401
 30
0.0
 11
323.0932149121
 21
246.4239419274
 31
0.0
  0
LINE
  5
102
  8
0
  6
CONTINUOUS
 10
333.5932147705
 20
218.9239420764
 30
0.0
 11
333.5932147705
 21
191.9239413761
 31
0.0
  0
LINE
  5
103
  8
0
  6
CONTINUOUS
 10
333.5932147705
 20
245.9239427768
 30
0.0
 11
333.5932147705
 21
218.9239420764
 31
0.0
  0
LINE
  5
104
  8
0
  6
CONTINUOUS
 10
323.0932149121
 20
191.5880673401
 30
0.0
 11
323.0932149121
 21
192.7956052892
 31
0.0
  0
LINE
  5
105
  8
0
  6
CONTINUOUS
 10
318.2932146841
 20
215.4643581085
 30
0.0
 11
318.2932146841
 21
222.3835260443
 31
0.0
  0
LINE
  5
106
  8
0
  6
CONTINUOUS
 10
318.2932146841
 20
216.8239421513
 30
0.0
 11
318.2932146841
 21
216.4239421323
 31
0.0
  0
LINE
  5
107
  8
0
  6
CONTINUOUS
 10
318.2932146841
 20
221.4239420205
 30
0.0
 11
318.2932146841
 21
221.0239420015
 31
0.0
  0
DIMENSION
  5
108
  8
6
  6
CONTINUOUS
 62
     6
  2
*D12
 10
323.0932147705
 20
175.4239420764
 30
0.0
 11
362.03266951
 21
175.4239420764
 31
0.0
 70
   160
  3
SLDDIMSTYLE0
 13
399.3887443834
 23
214.6389037279
 33
0.0
 14
323.0932147705
 24
191.5880682107
 34
0.0
  0
DIMENSION
  5
112
  8
6
  6
CONTINUOUS
 62
     6
  2
*D13
 10
308.2932147705
 20
191.4239420764
 30
0.0
 11
308.2932147705
 21
220.1596401183
 31
0.0
 70
   160
  1
%%c<>
  3
SLDDIMSTYLE1
 13
323.0932147705
 23
246.4239420764
 33
0.0
 14
324.0932147705
 24
191.4239420764
 34
0.0
 50
90.0
  0
TEXT
  5
11D
  8
2
  6
CONTINUOUS
 62
     1
 10
362.0957298229
 20
39.7743344402
 30
0.0
 40
10.0
  1
143
 41
0.7
 11
362.0957298229
 21
36.9171915831
 31
0.0
 73
     1
  0
LINE
  5
11E
  8
6
  6
CENTER
 62
     6
 10
317.4504192284
 20
218.9239420764
 30
0.0
 11
403.7687584332
 21
218.9239420764
 31
0.0
  0
ENDSEC
  0
EOF
