  0
SECTION
  2
HEADER
  9
$ACADVER
  1
AC1009
  9
$DWGCODEPAGE
  3
ansi_1252
  9
$INSBASE
 10
0.0
 20
0.0
 30
0.0
  9
$EXTMIN
 10
0.0
 20
0.0
 30
0.0
  9
$EXTMAX
 10
420.0
 20
297.0
 30
0.0
  9
$LIMMIN
 10
0.0
 20
0.0
  9
$LIMMAX
 10
0.0
 20
0.0
  9
$ORTHOMODE
 70
     0
  9
$REGENMODE
 70
     1
  9
$FILLMODE
 70
     1
  9
$QTEXTMODE
 70
     0
  9
$MIRRTEXT
 70
     1
  9
$DRAGMODE
 70
     2
  9
$LTSCALE
 40
1.0
  9
$OSMODE
 70
    37
  9
$ATTMODE
 70
     1
  9
$TEXTSIZE
 40
3.5
  9
$TRACEWID
 40
1.0
  9
$TEXTSTYLE
  7
STANDARD
  9
$CLAYER
  8
0
  9
$CELTYPE
  6
BYLAYER
  9
$CECOLOR
 62
   256
  9
$DIMSCALE
 40
1.0
  9
$DIMASZ
 40
5.0
  9
$DIMEXO
 40
1.0
  9
$DIMDLI
 40
3.75
  9
$DIMRND
 40
0.0
  9
$DIMDLE
 40
0.0
  9
$DIMEXE
 40
1.0
  9
$DIMTP
 40
0.0
  9
$DIMTM
 40
0.0
  9
$DIMTXT
 40
3.5
  9
$DIMCEN
 40
2.5
  9
$DIMTSZ
 40
0.0
  9
$DIMTOL
 70
     0
  9
$DIMLIM
 70
     0
  9
$DIMTIH
 70
     1
  9
$DIMTOH
 70
     1
  9
$DIMSE1
 70
     0
  9
$DIMSE2
 70
     0
  9
$DIMTAD
 70
     1
  9
$DIMZIN
 70
     0
  9
$DIMBLK
  1

  9
$DIMASO
 70
     1
  9
$DIMSHO
 70
     1
  9
$DIMPOST
  1

  9
$DIMAPOST
  1

  9
$DIMALT
 70
     0
  9
$DIMALTD
 70
     3
  9
$DIMALTF
 40
0.0393700787
  9
$DIMLFAC
 40
1.0
  9
$DIMTOFL
 70
     1
  9
$DIMTVP
 40
0.0
  9
$DIMTIX
 70
     0
  9
$DIMSOXD
 70
     0
  9
$DIMSAH
 70
     0
  9
$DIMBLK1
  1

  9
$DIMBLK2
  1

  9
$DIMSTYLE
  2
ISO-25
  9
$DIMCLRD
 70
     0
  9
$DIMCLRE
 70
     0
  9
$DIMCLRT
 70
     0
  9
$DIMTFAC
 40
1.0
  9
$DIMGAP
 40
1.524
  9
$LUNITS
 70
     2
  9
$LUPREC
 70
     2
  9
$SKETCHINC
 40
1.0
  9
$FILLETRAD
 40
10.0
  9
$AUNITS
 70
     0
  9
$AUPREC
 70
     0
  9
$MENU
  1
.
  9
$ELEVATION
 40
0.0
  9
$PELEVATION
 40
0.0
  9
$THICKNESS
 40
0.0
  9
$LIMCHECK
 70
     0
  9
$CHAMFERA
 40
10.0
  9
$CHAMFERB
 40
10.0
  9
$SKPOLY
 70
     0
  9
$TDCREATE
 40
2454490.474364873
  9
$TDUPDATE
 40
2454490.474364884
  9
$TDINDWG
 40
0.0000000116
  9
$TDUSRTIMER
 40
0.0000000116
  9
$USRTIMER
 70
     1
  9
$ANGBASE
 50
0.0
  9
$ANGDIR
 70
     0
  9
$PDMODE
 70
     0
  9
$PDSIZE
 40
-1.0
  9
$PLINEWID
 40
0.0
  9
$COORDS
 70
     1
  9
$SPLFRAME
 70
     0
  9
$SPLINETYPE
 70
     6
  9
$SPLINESEGS
 70
     8
  9
$ATTDIA
 70
     0
  9
$ATTREQ
 70
     1
  9
$HANDLING
 70
     1
  9
$HANDSEED
  5
19A
  9
$SURFTAB1
 70
     6
  9
$SURFTAB2
 70
     6
  9
$SURFTYPE
 70
     6
  9
$SURFU
 70
     6
  9
$SURFV
 70
     6
  9
$UCSNAME
  2

  9
$UCSORG
 10
0.0
 20
0.0
 30
0.0
  9
$UCSXDIR
 10
1.0
 20
0.0
 30
0.0
  9
$UCSYDIR
 10
0.0
 20
1.0
 30
0.0
  9
$PUCSNAME
  2

  9
$PUCSORG
 10
0.0
 20
0.0
 30
0.0
  9
$PUCSXDIR
 10
1.0
 20
0.0
 30
0.0
  9
$PUCSYDIR
 10
0.0
 20
1.0
 30
0.0
  9
$USERI1
 70
     0
  9
$USERI2
 70
     0
  9
$USERI3
 70
     0
  9
$USERI4
 70
     0
  9
$USERI5
 70
     0
  9
$USERR1
 40
0.0
  9
$USERR2
 40
0.0
  9
$USERR3
 40
0.0
  9
$USERR4
 40
0.0
  9
$USERR5
 40
0.0
  9
$WORLDVIEW
 70
     1
  9
$SHADEDGE
 70
     3
  9
$SHADEDIF
 70
    70
  9
$TILEMODE
 70
     1
  9
$MAXACTVP
 70
    64
  9
$PLIMCHECK
 70
     0
  9
$PEXTMIN
 10
1.0000000000E+20
 20
1.0000000000E+20
 30
1.0000000000E+20
  9
$PEXTMAX
 10
-1.0000000000E+20
 20
-1.0000000000E+20
 30
-1.0000000000E+20
  9
$PLIMMIN
 10
0.0
 20
0.0
  9
$PLIMMAX
 10
420.0
 20
297.0
  9
$UNITMODE
 70
     0
  9
$VISRETAIN
 70
     1
  9
$PLINEGEN
 70
     0
  9
$PSLTSCALE
 70
     1
  0
ENDSEC
  0
SECTION
  2
TABLES
  0
TABLE
  2
VPORT
 70
     1
  0
VPORT
  2
*ACTIVE
 70
     0
 10
0.0
 20
0.0
 11
1.0
 21
1.0
 12
210.0
 22
148.5
 13
0.0
 23
0.0
 14
10.0
 24
10.0
 15
10.0
 25
10.0
 16
0.0
 26
0.0
 36
1.0
 17
0.0
 27
0.0
 37
0.0
 40
297.0
 41
1.4141414141
 42
50.0
 43
0.0
 44
0.0
 50
0.0
 51
0.0
 71
     0
 72
  2000
 73
     1
 74
     3
 75
     0
 76
     0
 77
     0
 78
     0
  0
ENDTAB
  0
TABLE
  2
LTYPE
 70
     6
  0
LTYPE
  2
CONTINUOUS
 70
     0
  3
Solid line
 72
    65
 73
     0
 40
0.0
  0
LTYPE
  2
HIDDEN
 70
     0
  3
Hidden __ __ __ __ __ __ __ __ __ __ __ __ __ __
 72
    65
 73
     2
 40
1.905
 49
1.27
 49
-0.635
  0
LTYPE
  2
PHANTOM
 70
     0
  3
Phantom ______  __  __  ______  __  __  ______
 72
    65
 73
     6
 40
12.7
 49
6.35
 49
-1.27
 49
1.27
 49
-1.27
 49
1.27
 49
-1.27
  0
LTYPE
  2
CENTER
 70
     0
  3
Center ____ _ ____ _ ____ _ ____ _ ____ _ ____
 72
    65
 73
     4
 40
10.16
 49
6.35
 49
-1.27
 49
1.27
 49
-1.27
  0
LTYPE
  2
CENTERX2
 70
     0
  3
Center (2x) ________  __  ________  __  _____
 72
    65
 73
     4
 40
20.32
 49
12.7
 49
-2.54
 49
2.54
 49
-2.54
  0
LTYPE
  2
DOT2
 70
     0
  3
Dot (.5x) ........................................
 72
    65
 73
     2
 40
0.635
 49
0.0
 49
-0.635
  0
ENDTAB
  0
TABLE
  2
LAYER
 70
     6
  0
LAYER
  2
0
 70
     0
 62
     7
  6
CONTINUOUS
  0
LAYER
  2
DEFPOINTS
 70
     0
 62
     7
  6
CONTINUOUS
  0
LAYER
  2
7
 70
     0
 62
     7
  6
CONTINUOUS
  0
LAYER
  2
1
 70
     0
 62
     1
  6
CONTINUOUS
  0
LAYER
  2
2
 70
     0
 62
     2
  6
PHANTOM
  0
LAYER
  2
6
 70
     0
 62
     6
  6
CONTINUOUS
  0
ENDTAB
  0
TABLE
  2
STYLE
 70
     1
  0
STYLE
  2
STANDARD
 70
     0
 40
0.0
 41
1.0
 50
0.0
 71
     0
 42
2.5
  3
txt
  4

  0
ENDTAB
  0
TABLE
  2
VIEW
 70
     0
  0
ENDTAB
  0
TABLE
  2
UCS
 70
     0
  0
ENDTAB
  0
TABLE
  2
APPID
 70
     1
  0
APPID
  2
ACAD
 70
     0
  0
ENDTAB
  0
TABLE
  2
DIMSTYLE
 70
     4
  0
DIMSTYLE
  2
ISO-25
 70
     0
  3

  4

  5

  6

  7

 40
1.0
 41
2.5
 42
0.625
 43
3.75
 44
1.25
 45
0.0
 46
0.0
 47
0.0
 48
0.0
140
2.5
141
2.5
142
0.0
143
0.0393700787
144
1.0
145
0.0
146
1.0
147
0.625
 71
     0
 72
     0
 73
     0
 74
     0
 75
     0
 76
     0
 77
     1
 78
     8
170
     0
171
     3
172
     1
173
     0
174
     0
175
     0
176
     0
177
     0
178
     0
  0
DIMSTYLE
  2
SLDDIMSTYLE0
 70
     0
  3

  4

  5

  6

  7

 40
1.0
 41
5.0
 42
0.0625
 43
0.38
 44
0.0
 45
0.0
 46
0.0
 47
0.0
 48
0.0
140
3.5
141
0.09
142
0.0
143
25.4
144
1.0
145
0.0
146
1.0
147
0.875
 71
     0
 72
     0
 73
     0
 74
     1
 75
     0
 76
     0
 77
     1
 78
    12
170
     0
171
     2
172
     0
173
     1
174
     0
175
     0
176
     0
177
     0
178
     0
  0
DIMSTYLE
  2
SLDDIMSTYLE1
 70
     0
  3

  4

  5

  6

  7

 40
1.0
 41
5.0
 42
0.0625
 43
0.38
 44
0.0
 45
0.0
 46
0.0
 47
0.0
 48
0.0
140
3.5
141
0.09
142
0.0
143
25.4
144
1.0
145
0.0
146
1.0
147
0.875
 71
     0
 72
     0
 73
     0
 74
     1
 75
     0
 76
     0
 77
     1
 78
    12
170
     0
171
     2
172
     0
173
     1
174
     0
175
     0
176
     0
177
     0
178
     0
  0
DIMSTYLE
  2
SLDDIMSTYLE2
 70
     0
  3

  4

  5

  6

  7

 40
1.0
 41
5.0
 42
0.0625
 43
0.38
 44
0.0
 45
0.0
 46
0.0
 47
0.0
 48
0.0
140
3.5
141
0.09
142
0.0
143
25.4
144
1.0
145
0.0
146
1.0
147
0.875
 71
     0
 72
     0
 73
     0
 74
     1
 75
     0
 76
     0
 77
     1
 78
    12
170
     0
171
     2
172
     0
173
     1
174
     0
175
     0
176
     0
177
     0
178
     0
  0
ENDTAB
  0
ENDSEC
  0
SECTION
  2
BLOCKS
  0
BLOCK
  8
0
  2
$MODEL_SPACE
 70
     0
 10
0.0
 20
0.0
 30
0.0
  3
$MODEL_SPACE
  1

  0
ENDBLK
  5
21
  8
0
  0
BLOCK
 67
     1
  8
0
  2
$PAPER_SPACE
 70
     0
 10
0.0
 20
0.0
 30
0.0
  3
$PAPER_SPACE
  1

  0
ENDBLK
  5
1D
 67
     1
  8
0
  0
BLOCK
  8
0
  2
SW_NOTE_0
 70
     0
 10
0.0
 20
0.0
 30
0.0
  3
SW_NOTE_0
  1

  0
TEXT
  5
41
  8
2
  6
CONTINUOUS
 62
     0
 10
0.0
 20
1.0
 30
0.0
 40
3.5
  1
Diese Zeichnung ist gemäß Urheberrecht gesetzlich geschützt
 41
0.6644067797
 11
0.0
 21
0.0
 31
0.0
 73
     1
  0
TEXT
  5
42
  8
2
  6
CONTINUOUS
 62
     0
 10
0.0
 20
-8.0513890609
 30
0.0
 40
3.5
  1
This drawing is protected under copyright law; unauthorizid disclosure,
 41
0.6605633803
 11
0.0
 21
-9.0513890609
 31
0.0
 73
     1
  0
TEXT
  5
43
  8
2
  6
CONTINUOUS
 62
     0
 10
0.0
 20
-12.5770835914
 30
0.0
 40
3.5
  1
reprodution or use is prohibted.
 41
0.65625
 11
0.0
 21
-13.5770835914
 31
0.0
 73
     1
  0
ENDBLK
  5
40
  8
0
  0
BLOCK
  8
0
  2
SW_NOTE_1
 70
     0
 10
0.0
 20
0.0
 30
0.0
  3
SW_NOTE_1
  1

  0
TEXT
  5
49
  8
2
  6
CONTINUOUS
 62
     0
 10
0.0
 20
1.0
 30
0.0
 40
3.5
  1
Vieler International GmbH+Co.KG
 41
0.6774193548
 11
0.0
 21
0.0
 31
0.0
 73
     1
  0
TEXT
  5
4A
  8
2
  6
CONTINUOUS
 62
     0
 10
22.5458340719
 20
-3.5256945305
 30
0.0
 40
3.5
  1
58642 Iserlohn
 41
0.7
 11
22.5458340719
 21
-4.5256945305
 31
0.0
 73
     1
  0
ENDBLK
  5
48
  8
0
  0
BLOCK
  8
0
  2
*D3
 70
     1
 10
0.0
 20
0.0
 30
0.0
  3
*D3
  1

  0
SOLID
  5
60
  8
6
  6
CONTINUOUS
 62
     6
 10
269.912177042
 20
181.7694259663
 30
0.0
 11
264.912177042
 21
182.2694259663
 31
0.0
 12
264.912177042
 22
181.2694259663
 32
0.0
 13
264.912177042
 23
181.2694259663
 33
0.0
  0
SOLID
  5
61
  8
6
  6
CONTINUOUS
 62
     6
 10
68.6174455988
 20
181.7694259663
 30
0.0
 11
73.6174455988
 21
181.2694259663
 31
0.0
 12
73.6174455988
 22
182.2694259663
 32
0.0
 13
73.6174455988
 23
182.2694259663
 33
0.0
  0
LINE
  5
62
  8
6
  6
CONTINUOUS
 62
     6
 10
269.912177042
 20
216.1453379914
 30
0.0
 11
269.912177042
 21
180.7694259663
 31
0.0
  0
LINE
  5
63
  8
6
  6
CONTINUOUS
 62
     6
 10
68.6174455988
 20
216.1453379914
 30
0.0
 11
68.6174455988
 21
180.7694259663
 31
0.0
  0
LINE
  5
64
  8
6
  6
CONTINUOUS
 62
     6
 10
269.912177042
 20
181.7694259663
 30
0.0
 11
68.6174455988
 21
181.7694259663
 31
0.0
  0
TEXT
  5
65
  8
6
  6
CONTINUOUS
 62
     6
 10
161.5822086171
 20
182.7694257916
 30
0.0
 40
3.5
  1
201
 50
0.0
 41
0.7
 11
161.5822086171
 21
181.7694257916
 31
0.0
 73
     1
  0
ENDBLK
  5
5F
  8
0
  0
BLOCK
  8
0
  2
*D4
 70
     1
 10
0.0
 20
0.0
 30
0.0
  3
*D4
  1

  0
SOLID
  5
6B
  8
6
  6
CONTINUOUS
 62
     6
 10
281.8449485961
 20
212.2154430268
 30
0.0
 11
281.3449485961
 21
207.2154430268
 31
0.0
 12
282.3449485961
 22
207.2154430268
 32
0.0
 13
282.3449485961
 23
207.2154430268
 33
0.0
  0
SOLID
  5
6C
  8
6
  6
CONTINUOUS
 62
     6
 10
281.8449485961
 20
232.2154430268
 30
0.0
 11
282.3449485961
 21
237.2154430268
 31
0.0
 12
281.3449485961
 22
237.2154430268
 32
0.0
 13
281.3449485961
 23
237.2154430268
 33
0.0
  0
LINE
  5
6D
  8
6
  6
CONTINUOUS
 62
     6
 10
254.8485612018
 20
212.2154430268
 30
0.0
 11
282.8449485961
 21
212.2154430268
 31
0.0
  0
LINE
  5
6E
  8
6
  6
CONTINUOUS
 62
     6
 10
254.8485612018
 20
232.2154430268
 30
0.0
 11
282.8449485961
 21
232.2154430268
 31
0.0
  0
LINE
  5
6F
  8
6
  6
CONTINUOUS
 62
     6
 10
281.8449485961
 20
212.2154430268
 30
0.0
 11
281.8449485961
 21
202.2154430268
 31
0.0
  0
LINE
  5
70
  8
6
  6
CONTINUOUS
 62
     6
 10
281.8449485961
 20
212.2154430268
 30
0.0
 11
281.8449485961
 21
232.2154430268
 31
0.0
  0
LINE
  5
71
  8
6
  6
CONTINUOUS
 62
     6
 10
281.8449485961
 20
232.2154430268
 30
0.0
 11
281.8449485961
 21
242.2154430268
 31
0.0
  0
TEXT
  5
72
  8
6
  6
CONTINUOUS
 62
     6
 10
280.8449485961
 20
217.6357979028
 30
0.0
 40
3.5
  1
%%c
 50
90.0
 41
0.7
 11
281.8449485961
 21
217.6357979028
 31
0.0
 73
     1
  0
TEXT
  5
73
  8
6
  6
CONTINUOUS
 62
     6
 10
280.8449487707
 20
222.9119867507
 30
0.0
 40
3.5
  1
20
 50
90.0
 41
0.7
 11
281.8449487707
 21
222.9119867507
 31
0.0
 73
     1
  0
ENDBLK
  5
6A
  8
0
  0
BLOCK
  8
0
  2
SW_CENTERMARKSYMBOL_0
 70
     0
 10
0.0
 20
0.0
 30
0.0
  3
SW_CENTERMARKSYMBOL_0
  1

  0
LINE
  5
77
  8
6
  6
CENTER
 62
     0
 10
0.0
 20
0.0
 30
0.0
 11
0.0
 21
2.5
 31
0.0
  0
LINE
  5
78
  8
6
  6
CENTER
 62
     0
 10
0.0
 20
0.0
 30
0.0
 11
-2.5
 21
0.0
 31
0.0
  0
LINE
  5
79
  8
6
  6
CENTER
 62
     0
 10
0.0
 20
0.0
 30
0.0
 11
0.0
 21
-2.5
 31
0.0
  0
LINE
  5
7A
  8
6
  6
CENTER
 62
     0
 10
0.0
 20
0.0
 30
0.0
 11
2.5
 21
0.0
 31
0.0
  0
LINE
  5
7B
  8
6
  6
CENTER
 62
     0
 10
0.0
 20
5.0
 30
0.0
 11
0.0
 21
30.0
 31
0.0
  0
LINE
  5
7C
  8
6
  6
CENTER
 62
     0
 10
-5.0
 20
0.0
 30
0.0
 11
-30.0
 21
0.0
 31
0.0
  0
LINE
  5
7D
  8
6
  6
CENTER
 62
     0
 10
0.0
 20
-5.0
 30
0.0
 11
0.0
 21
-30.0
 31
0.0
  0
LINE
  5
7E
  8
6
  6
CENTER
 62
     0
 10
5.0
 20
0.0
 30
0.0
 11
195.3092939638
 21
0.0
 31
0.0
  0
ENDBLK
  5
76
  8
0
  0
BLOCK
  8
0
  2
*D6
 70
     1
 10
0.0
 20
0.0
 30
0.0
  3
*D6
  1

  0
SOLID
  5
A5
  8
6
  6
CONTINUOUS
 62
     6
 10
59.5674455988
 20
173.2457602995
 30
0.0
 11
64.5674455988
 21
172.7457602995
 31
0.0
 12
64.5674455988
 22
173.7457602995
 32
0.0
 13
64.5674455988
 23
173.7457602995
 33
0.0
  0
SOLID
  5
A6
  8
6
  6
CONTINUOUS
 62
     6
 10
97.5674455988
 20
173.2457602995
 30
0.0
 11
92.5674455988
 21
173.7457602995
 31
0.0
 12
92.5674455988
 22
172.7457602995
 32
0.0
 13
92.5674455988
 23
172.7457602995
 33
0.0
  0
LINE
  5
A7
  8
6
  6
CONTINUOUS
 62
     6
 10
59.5674455988
 20
156.90504145
 30
0.0
 11
59.5674455988
 21
174.2457602995
 31
0.0
  0
LINE
  5
A8
  8
6
  6
CONTINUOUS
 62
     6
 10
97.5674455988
 20
156.90504145
 30
0.0
 11
97.5674455988
 21
174.2457602995
 31
0.0
  0
LINE
  5
A9
  8
6
  6
CONTINUOUS
 62
     6
 10
59.5674455988
 20
173.2457602995
 30
0.0
 11
97.5674455988
 21
173.2457602995
 31
0.0
  0
TEXT
  5
AA
  8
6
  6
CONTINUOUS
 62
     6
 10
74.6017965194
 20
174.2457601249
 30
0.0
 40
3.5
  1
38
 41
0.7
 11
74.6017965194
 21
173.2457601249
 31
0.0
 73
     1
  0
ENDBLK
  5
A4
  8
0
  0
BLOCK
  8
0
  2
*D7
 70
     1
 10
0.0
 20
0.0
 30
0.0
  3
*D7
  1

  0
SOLID
  5
B0
  8
6
  6
CONTINUOUS
 62
     6
 10
120.0316481513
 20
149.7986057492
 30
0.0
 11
120.5316481513
 21
154.7986057492
 31
0.0
 12
119.5316481513
 22
154.7986057492
 32
0.0
 13
119.5316481513
 23
154.7986057492
 33
0.0
  0
SOLID
  5
B1
  8
6
  6
CONTINUOUS
 62
     6
 10
120.0316481513
 20
139.2986057492
 30
0.0
 11
119.5316481513
 21
134.2986057492
 31
0.0
 12
120.5316481513
 22
134.2986057492
 32
0.0
 13
120.5316481513
 23
134.2986057492
 33
0.0
  0
LINE
  5
B2
  8
6
  6
CONTINUOUS
 62
     6
 10
107.0674455988
 20
149.7986057492
 30
0.0
 11
121.0316481513
 21
149.7986057492
 31
0.0
  0
LINE
  5
B3
  8
6
  6
CONTINUOUS
 62
     6
 10
106.5674455988
 20
139.2986057492
 30
0.0
 11
121.0316481513
 21
139.2986057492
 31
0.0
  0
LINE
  5
B4
  8
6
  6
CONTINUOUS
 62
     6
 10
120.0316481513
 20
149.7986057492
 30
0.0
 11
120.0316481513
 21
159.7986057492
 31
0.0
  0
LINE
  5
B5
  8
6
  6
CONTINUOUS
 62
     6
 10
120.0316481513
 20
149.7986057492
 30
0.0
 11
120.0316481513
 21
139.2986057492
 31
0.0
  0
LINE
  5
B6
  8
6
  6
CONTINUOUS
 62
     6
 10
120.0316481513
 20
139.2986057492
 30
0.0
 11
120.0316481513
 21
129.2986057492
 31
0.0
  0
TEXT
  5
B7
  8
6
  6
CONTINUOUS
 62
     6
 10
119.031648326
 20
142.0788854501
 30
0.0
 40
3.5
  1
10
 50
90.0
 41
0.7
 11
120.031648326
 21
142.0788854501
 31
0.0
 73
     1
  0
ENDBLK
  5
AF
  8
0
  0
BLOCK
  8
0
  2
*D8
 70
     1
 10
0.0
 20
0.0
 30
0.0
  3
*D8
  1

  0
SOLID
  5
BC
  8
6
  6
CONTINUOUS
 62
     6
 10
55.3174455988
 20
164.5986057492
 30
0.0
 11
50.3174455988
 21
165.0986057492
 31
0.0
 12
50.3174455988
 22
164.0986057492
 32
0.0
 13
50.3174455988
 23
164.0986057492
 33
0.0
  0
SOLID
  5
BD
  8
6
  6
CONTINUOUS
 62
     6
 10
63.7589481348
 20
164.5986057492
 30
0.0
 11
68.7589481348
 21
164.0986057492
 31
0.0
 12
68.7589481348
 22
165.0986057492
 32
0.0
 13
68.7589481348
 23
165.0986057492
 33
0.0
  0
LINE
  5
BE
  8
6
  6
CONTINUOUS
 62
     6
 10
55.3174455988
 20
150.5986057492
 30
0.0
 11
55.3174455988
 21
165.5986057492
 31
0.0
  0
LINE
  5
BF
  8
6
  6
CONTINUOUS
 62
     6
 10
63.7589481348
 20
150.5986057492
 30
0.0
 11
63.7589481348
 21
165.5986057492
 31
0.0
  0
LINE
  5
C0
  8
6
  6
CONTINUOUS
 62
     6
 10
55.3174455988
 20
164.5986057492
 30
0.0
 11
45.3174455988
 21
164.5986057492
 31
0.0
  0
LINE
  5
C1
  8
6
  6
CONTINUOUS
 62
     6
 10
55.3174455988
 20
164.5986057492
 30
0.0
 11
63.7589481348
 21
164.5986057492
 31
0.0
  0
LINE
  5
C2
  8
6
  6
CONTINUOUS
 62
     6
 10
63.7589481348
 20
164.5986057492
 30
0.0
 11
76.4682804793
 21
164.5986057492
 31
0.0
  0
TEXT
  5
C3
  8
6
  6
CONTINUOUS
 62
     6
 10
67.0225185175
 20
165.5986057492
 30
0.0
 40
3.5
  1
%%c
 50
360.0
 41
0.7
 11
67.0225185175
 21
164.5986057492
 31
0.0
 73
     1
  0
TEXT
  5
C4
  8
6
  6
CONTINUOUS
 62
     6
 10
72.2987073655
 20
165.5986055746
 30
0.0
 40
3.5
  1
8
 50
360.0
 41
0.7
 11
72.2987073655
 21
164.5986055746
 31
0.0
 73
     1
  0
ENDBLK
  5
BB
  8
0
  0
BLOCK
  8
0
  2
*D9
 70
     1
 10
0.0
 20
0.0
 30
0.0
  3
*D9
  1

  0
SOLID
  5
C9
  8
6
  6
CONTINUOUS
 62
     6
 10
37.4216115061
 20
149.7986057492
 30
0.0
 11
36.9216115061
 21
144.7986057492
 31
0.0
 12
37.9216115061
 22
144.7986057492
 32
0.0
 13
37.9216115061
 23
144.7986057492
 33
0.0
  0
SOLID
  5
CA
  8
6
  6
CONTINUOUS
 62
     6
 10
37.4216115061
 20
154.5986057492
 30
0.0
 11
37.9216115061
 21
159.5986057492
 31
0.0
 12
36.9216115061
 22
159.5986057492
 32
0.0
 13
36.9216115061
 23
159.5986057492
 33
0.0
  0
LINE
  5
CB
  8
6
  6
CONTINUOUS
 62
     6
 10
50.0674455988
 20
149.7986057492
 30
0.0
 11
36.4216115061
 21
149.7986057492
 31
0.0
  0
LINE
  5
CC
  8
6
  6
CONTINUOUS
 62
     6
 10
56.0674455988
 20
154.5986057492
 30
0.0
 11
36.4216115061
 21
154.5986057492
 31
0.0
  0
LINE
  5
CD
  8
6
  6
CONTINUOUS
 62
     6
 10
37.4216115061
 20
149.7986057492
 30
0.0
 11
37.4216115061
 21
138.6343510407
 31
0.0
  0
LINE
  5
CE
  8
6
  6
CONTINUOUS
 62
     6
 10
37.4216115061
 20
149.7986057492
 30
0.0
 11
37.4216115061
 21
154.5986057492
 31
0.0
  0
LINE
  5
CF
  8
6
  6
CONTINUOUS
 62
     6
 10
37.4216115061
 20
154.5986057492
 30
0.0
 11
37.4216115061
 21
164.5986057492
 31
0.0
  0
TEXT
  5
D0
  8
6
  6
CONTINUOUS
 62
     6
 10
36.4216116807
 20
140.2218510407
 30
0.0
 40
3.5
  1
5
 50
90.0
 41
0.7
 11
37.4216116807
 21
140.2218510407
 31
0.0
 73
     1
  0
ENDBLK
  5
C8
  8
0
  0
BLOCK
  8
0
  2
*D10
 70
     1
 10
0.0
 20
0.0
 30
0.0
  3
*D10
  1

  0
SOLID
  5
D5
  8
6
  6
CONTINUOUS
 62
     6
 10
68.5674455988
 20
115.5495834929
 30
0.0
 11
73.5674455988
 21
115.0495834929
 31
0.0
 12
73.5674455988
 22
116.0495834929
 32
0.0
 13
73.5674455988
 23
116.0495834929
 33
0.0
  0
SOLID
  5
D6
  8
6
  6
CONTINUOUS
 62
     6
 10
88.5674455988
 20
115.5495834929
 30
0.0
 11
83.5674455988
 21
116.0495834929
 31
0.0
 12
83.5674455988
 22
115.0495834929
 32
0.0
 13
83.5674455988
 23
115.0495834929
 33
0.0
  0
LINE
  5
D7
  8
6
  6
CONTINUOUS
 62
     6
 10
68.5674455988
 20
115.5495834929
 30
0.0
 11
49.9778607127
 21
115.5495834929
 31
0.0
  0
LINE
  5
D8
  8
6
  6
CONTINUOUS
 62
     6
 10
68.5674455988
 20
115.5495834929
 30
0.0
 11
88.5674455988
 21
115.5495834929
 31
0.0
  0
TEXT
  5
D9
  8
6
  6
CONTINUOUS
 62
     6
 10
51.5653607127
 20
116.5495834929
 30
0.0
 40
3.5
  1
%%c
 41
0.7
 11
51.5653607127
 21
115.5495834929
 31
0.0
 73
     1
  0
TEXT
  5
DA
  8
6
  6
CONTINUOUS
 62
     6
 10
56.8415495606
 20
116.5495833183
 30
0.0
 40
3.5
  1
20
 41
0.7
 11
56.8415495606
 21
115.5495833183
 31
0.0
 73
     1
  0
ENDBLK
  5
D4
  8
0
  0
BLOCK
  8
0
  2
*D11
 70
     1
 10
0.0
 20
0.0
 30
0.0
  3
*D11
  1

  0
SOLID
  5
100
  8
6
  6
CONTINUOUS
 62
     6
 10
398.4815707679
 20
184.7154430268
 30
0.0
 11
393.4815707679
 21
185.2154430268
 31
0.0
 12
393.4815707679
 22
184.2154430268
 32
0.0
 13
393.4815707679
 23
184.2154430268
 33
0.0
  0
SOLID
  5
101
  8
6
  6
CONTINUOUS
 62
     6
 10
309.1558357387
 20
184.7154430268
 30
0.0
 11
314.1558357387
 21
184.2154430268
 31
0.0
 12
314.1558357387
 22
185.2154430268
 32
0.0
 13
314.1558357387
 23
185.2154430268
 33
0.0
  0
LINE
  5
102
  8
6
  6
CONTINUOUS
 62
     6
 10
398.4815707679
 20
215.7960357749
 30
0.0
 11
398.4815707679
 21
183.7154430268
 31
0.0
  0
LINE
  5
103
  8
6
  6
CONTINUOUS
 62
     6
 10
309.1558357387
 20
193.8795691611
 30
0.0
 11
309.1558357387
 21
183.7154430268
 31
0.0
  0
LINE
  5
104
  8
6
  6
CONTINUOUS
 62
     6
 10
398.4815707679
 20
184.7154430268
 30
0.0
 11
309.1558357387
 21
184.7154430268
 31
0.0
  0
TEXT
  5
105
  8
6
  6
CONTINUOUS
 62
     6
 10
351.2346256071
 20
185.7154428522
 30
0.0
 40
3.5
  1
89
 50
0.0
 41
0.7
 11
351.2346256071
 21
184.7154428522
 31
0.0
 73
     1
  0
ENDBLK
  5
FF
  8
0
  0
BLOCK
  8
0
  2
*D12
 70
     1
 10
0.0
 20
0.0
 30
0.0
  3
*D12
  1

  0
SOLID
  5
10A
  8
6
  6
CONTINUOUS
 62
     6
 10
294.3558357387
 20
249.7154430268
 30
0.0
 11
293.8558357387
 21
244.7154430268
 31
0.0
 12
294.8558357387
 22
244.7154430268
 32
0.0
 13
294.8558357387
 23
244.7154430268
 33
0.0
  0
SOLID
  5
10B
  8
6
  6
CONTINUOUS
 62
     6
 10
294.3558357387
 20
194.7154430268
 30
0.0
 11
294.8558357387
 21
199.7154430268
 31
0.0
 12
293.8558357387
 22
199.7154430268
 32
0.0
 13
293.8558357387
 23
199.7154430268
 33
0.0
  0
LINE
  5
10C
  8
6
  6
CONTINUOUS
 62
     6
 10
308.1558357387
 20
249.7154430268
 30
0.0
 11
293.3558357387
 21
249.7154430268
 31
0.0
  0
LINE
  5
10D
  8
6
  6
CONTINUOUS
 62
     6
 10
309.1558357387
 20
194.7154430268
 30
0.0
 11
293.3558357387
 21
194.7154430268
 31
0.0
  0
LINE
  5
10E
  8
6
  6
CONTINUOUS
 62
     6
 10
294.3558357387
 20
249.7154430268
 30
0.0
 11
294.3558357387
 21
194.7154430268
 31
0.0
  0
TEXT
  5
10F
  8
6
  6
CONTINUOUS
 62
     6
 10
293.3558357387
 20
220.2813318633
 30
0.0
 40
3.5
  1
%%c
 50
90.0
 41
0.7
 11
294.3558357387
 21
220.2813318633
 31
0.0
 73
     1
  0
TEXT
  5
110
  8
6
  6
CONTINUOUS
 62
     6
 10
293.3558359134
 20
225.5575207112
 30
0.0
 40
3.5
  1
55
 50
90.0
 41
0.7
 11
294.3558359134
 21
225.5575207112
 31
0.0
 73
     1
  0
ENDBLK
  5
109
  8
0
  0
ENDSEC
  0
SECTION
  2
ENTITIES
  0
LINE
  5
34
  8
6
  6
CONTINUOUS
 62
     6
 10
20.0
 20
287.0
 30
0.0
 11
20.0
 21
9.0
 31
0.0
  0
LINE
  5
35
  8
6
  6
CONTINUOUS
 62
     6
 10
20.0
 20
148.5
 30
0.0
 11
13.375265605
 21
148.5
 31
0.0
  0
LINE
  5
36
  8
6
  6
CONTINUOUS
 62
     6
 10
20.0
 20
287.0
 30
0.0
 11
414.5
 21
287.0
 31
0.0
  0
LINE
  5
37
  8
6
  6
CONTINUOUS
 62
     6
 10
20.0
 20
9.0
 30
0.0
 11
414.5
 21
9.0
 31
0.0
  0
LINE
  5
38
  8
6
  6
CONTINUOUS
 62
     6
 10
0.0
 20
297.0
 30
0.0
 11
420.0
 21
297.0
 31
0.0
  0
LINE
  5
39
  8
6
  6
CONTINUOUS
 62
     6
 10
420.0
 20
297.0
 30
0.0
 11
420.0
 21
0.0
 31
0.0
  0
LINE
  5
3A
  8
6
  6
CONTINUOUS
 62
     6
 10
420.0
 20
0.0
 30
0.0
 11
0.0
 21
0.0
 31
0.0
  0
LINE
  5
3B
  8
6
  6
CONTINUOUS
 62
     6
 10
0.0
 20
0.0
 30
0.0
 11
0.0
 21
297.0
 31
0.0
  0
LINE
  5
3C
  8
6
  6
CONTINUOUS
 62
     6
 10
414.5
 20
52.5
 30
0.0
 11
414.5
 21
287.0
 31
0.0
  0
LINE
  5
3D
  8
6
  6
CONTINUOUS
 62
     6
 10
414.5
 20
52.5
 30
0.0
 11
414.5
 21
9.0
 31
0.0
  0
INSERT
  5
44
  8
2
  6
CONTINUOUS
 62
     1
  2
SW_NOTE_0
 10
25.131147541
 20
27.4759448138
 30
0.0
  0
TEXT
  5
45
  8
2
  6
CONTINUOUS
 62
     1
 10
312.7010196007
 20
39.8322418184
 30
0.0
 40
10.0
  1
Modell 
 41
0.7
 11
312.7010196007
 21
36.9750989613
 31
0.0
 73
     1
  0
INSERT
  5
4B
  8
2
  6
CONTINUOUS
 62
     1
  2
SW_NOTE_1
 10
309.7662955082
 20
27.4759448138
 30
0.0
  0
TEXT
  5
4C
  8
2
  6
CONTINUOUS
 62
     1
 10
300.4572681642
 20
14.8988612224
 30
0.0
 40
3.5
  1
Datum/Date 01/2008    Maßstab/Scale 1:1
 41
0.6461538462
 11
300.4572681642
 21
13.8988612224
 31
0.0
 73
     1
  0
LINE
  5
4D
  8
6
  6
CONTINUOUS
 62
     6
 10
68.6174455988
 20
222.2154430268
 30
0.0
 11
68.6174455988
 21
217.1453379914
 31
0.0
  0
LINE
  5
4E
  8
6
  6
CONTINUOUS
 62
     6
 10
269.912177042
 20
222.2154430268
 30
0.0
 11
269.912177042
 21
217.1453379914
 31
0.0
  0
LINE
  5
4F
  8
0
  6
CONTINUOUS
 10
253.8485679257
 20
212.2154432503
 30
0.0
 11
258.3986672985
 21
212.2154432503
 31
0.0
  0
LINE
  5
50
  8
0
  6
CONTINUOUS
 10
258.3986672985
 20
232.2154428033
 30
0.0
 11
253.8485679257
 21
232.2154428033
 31
0.0
  0
LINE
  5
51
  8
0
  6
CONTINUOUS
 10
92.2388502809
 20
232.2154428033
 30
0.0
 11
78.5674455988
 21
232.2154428033
 31
0.0
  0
LINE
  5
52
  8
0
  6
CONTINUOUS
 10
78.5674455988
 20
212.2154432503
 30
0.0
 11
92.2388502809
 21
212.2154432503
 31
0.0
  0
LINE
  5
53
  8
0
  6
CONTINUOUS
 10
253.8485679257
 20
232.2154428033
 30
0.0
 11
92.2388502809
 21
232.2154428033
 31
0.0
  0
LINE
  5
54
  8
0
  6
CONTINUOUS
 10
92.2388502809
 20
212.2154432503
 30
0.0
 11
253.8485679257
 21
212.2154432503
 31
0.0
  0
POLYLINE
  5
55
  8
0
  6
CONTINUOUS
 66
     1
 10
0.0
 20
0.0
 30
0.0
  0
VERTEX
  5
114
  8
0
  6
CONTINUOUS
 10
258.3986672985
 20
232.2154428033
 30
0.0
  0
VERTEX
  5
115
  8
0
  6
CONTINUOUS
 10
258.7833854782
 20
232.2098585931
 30
0.0
  0
VERTEX
  5
116
  8
0
  6
CONTINUOUS
 10
260.3137049305
 20
232.0761458171
 30
0.0
  0
VERTEX
  5
117
  8
0
  6
CONTINUOUS
 10
261.809841119
 20
231.7664680225
 30
0.0
  0
VERTEX
  5
118
  8
0
  6
CONTINUOUS
 10
263.245106064
 20
231.2863526089
 30
0.0
  0
VERTEX
  5
119
  8
0
  6
CONTINUOUS
 10
264.5938846695
 20
230.6443658811
 30
0.0
  0
VERTEX
  5
11A
  8
0
  6
CONTINUOUS
 10
265.8321115601
 20
229.8519649697
 30
0.0
  0
VERTEX
  5
11B
  8
0
  6
CONTINUOUS
 10
266.9376883137
 20
228.9232901452
 30
0.0
  0
VERTEX
  5
11C
  8
0
  6
CONTINUOUS
 10
267.8908857929
 20
227.8749138271
 30
0.0
  0
VERTEX
  5
11D
  8
0
  6
CONTINUOUS
 10
268.6746868717
 20
226.7255444234
 30
0.0
  0
VERTEX
  5
11E
  8
0
  6
CONTINUOUS
 10
269.275129162
 20
225.4956915197
 30
0.0
  0
VERTEX
  5
11F
  8
0
  6
CONTINUOUS
 10
269.6814689266
 20
224.2073028968
 30
0.0
  0
VERTEX
  5
120
  8
0
  6
CONTINUOUS
 10
269.8864642012
 20
222.8833693583
 30
0.0
  0
VERTEX
  5
121
  8
0
  6
CONTINUOUS
 10
269.8864642012
 20
221.5475166953
 30
0.0
  0
VERTEX
  5
122
  8
0
  6
CONTINUOUS
 10
269.6814689266
 20
220.2235831567
 30
0.0
  0
VERTEX
  5
123
  8
0
  6
CONTINUOUS
 10
269.275129162
 20
218.9351945338
 30
0.0
  0
VERTEX
  5
124
  8
0
  6
CONTINUOUS
 10
268.6746868717
 20
217.7053416302
 30
0.0
  0
VERTEX
  5
125
  8
0
  6
CONTINUOUS
 10
267.8908857929
 20
216.5559722265
 30
0.0
  0
VERTEX
  5
126
  8
0
  6
CONTINUOUS
 10
266.9376883137
 20
215.5075959084
 30
0.0
  0
VERTEX
  5
127
  8
0
  6
CONTINUOUS
 10
265.8321115601
 20
214.5789210839
 30
0.0
  0
VERTEX
  5
128
  8
0
  6
CONTINUOUS
 10
264.5938846695
 20
213.7865201724
 30
0.0
  0
VERTEX
  5
129
  8
0
  6
CONTINUOUS
 10
263.245106064
 20
213.1445334447
 30
0.0
  0
VERTEX
  5
12A
  8
0
  6
CONTINUOUS
 10
261.809841119
 20
212.664418031
 30
0.0
  0
VERTEX
  5
12B
  8
0
  6
CONTINUOUS
 10
260.3137049305
 20
212.3547402365
 30
0.0
  0
VERTEX
  5
12C
  8
0
  6
CONTINUOUS
 10
258.7833854782
 20
212.2210274605
 30
0.0
  0
VERTEX
  5
12D
  8
0
  6
CONTINUOUS
 10
258.3986672985
 20
212.2154432503
 30
0.0
  0
SEQEND
  5
113
  8
0
  6
CONTINUOUS
  0
ARC
  5
56
  8
0
  6
CONTINUOUS
 10
78.5674452022
 20
222.2154430268
 30
0.0
 40
9.999999776482648
 50
89.9999977275
 51
270.0000022725
  0
ARC
  5
57
  8
0
  6
CONTINUOUS
 10
78.5674452022
 20
222.2154430268
 30
0.0
 40
9.999999776482648
 50
89.9999977275
 51
270.0000022725
  0
ARC
  5
58
  8
0
  6
CONTINUOUS
 10
78.5674455988
 20
222.2154430268
 30
0.0
 40
27.5
 50
21.3236862635
 51
180.0
  0
ARC
  5
59
  8
0
  6
CONTINUOUS
 10
78.5674455988
 20
222.2154430268
 30
0.0
 40
27.50000000000001
 50
180.0
 51
338.6763137365
  0
ARC
  5
5A
  8
0
  6
CONTINUOUS
 10
78.5674455988
 20
222.2154430268
 30
0.0
 40
10.5
 50
72.247209838
 51
287.7527901619
  0
DIMENSION
  5
5B
  8
6
  6
CONTINUOUS
 62
     6
  2
*D3
 10
68.6174455988
 20
181.7694259663
 30
0.0
 11
165.4604111342
 21
181.7694259663
 31
0.0
 70
   160
  3
SLDDIMSTYLE0
 13
269.912177042
 23
217.1453379914
 33
0.0
 14
68.6174455988
 24
217.1453379914
 34
0.0
  0
DIMENSION
  5
66
  8
6
  6
CONTINUOUS
 62
     6
  2
*D4
 10
281.8449485961
 20
232.2154430268
 30
0.0
 11
281.8449485961
 21
222.8585118637
 31
0.0
 70
   160
  1
%%c<>
  3
SLDDIMSTYLE1
 13
253.8485612018
 23
212.2154430268
 33
0.0
 14
253.8485612018
 24
232.2154430268
 34
0.0
 50
90.0
  0
INSERT
  5
7F
  8
6
  6
CENTER
 62
     6
  2
SW_CENTERMARKSYMBOL_0
 10
78.5674455988
 20
222.2154430268
 30
0.0
  0
LINE
  5
80
  8
6
  6
CENTER
 62
     6
 10
59.5674455988
 20
155.90504145
 30
0.0
 11
59.5674455988
 21
139.2986057492
 31
0.0
  0
LINE
  5
81
  8
6
  6
CENTER
 62
     6
 10
97.5674455988
 20
155.90504145
 30
0.0
 11
97.5674455988
 21
139.2986057492
 31
0.0
  0
LINE
  5
82
  8
0
  6
CONTINUOUS
 10
262.5340077507
 20
131.1185490506
 30
0.0
 11
269.9121836054
 21
144.0486055965
 31
0.0
  0
LINE
  5
83
  8
0
  6
CONTINUOUS
 10
246.8851658928
 20
144.0486055965
 30
0.0
 11
245.1631131994
 21
141.0307539793
 31
0.0
  0
LINE
  5
84
  8
0
  6
CONTINUOUS
 10
68.5674458223
 20
139.2986057492
 30
0.0
 11
68.5674458223
 21
78.7486052307
 31
0.0
  0
LINE
  5
85
  8
0
  6
CONTINUOUS
 10
88.5674453753
 20
92.2387754711
 30
0.0
 11
88.5674453753
 21
139.2986057492
 31
0.0
  0
LINE
  5
86
  8
0
  6
CONTINUOUS
 10
95.984915592
 20
89.2419247123
 30
0.0
 11
88.5674453753
 21
92.2387754711
 31
0.0
  0
LINE
  5
87
  8
0
  6
CONTINUOUS
 10
68.5674458223
 20
78.7486052307
 30
0.0
 11
88.4927849698
 21
70.6982491704
 31
0.0
  0
ARC
  5
88
  8
0
  6
CONTINUOUS
 10
140.9377076452
 20
200.5039858868
 30
0.0
 40
120.0
 50
248.0
 51
330.29
  0
ARC
  5
89
  8
0
  6
CONTINUOUS
 10
140.9377076452
 20
200.5039858868
 30
0.0
 40
140.0
 50
248.0
 51
330.29
  0
LINE
  5
8A
  8
0
  6
CONTINUOUS
 10
51.0674457478
 20
149.7986056077
 30
0.0
 11
51.0674457478
 21
139.798605773
 31
0.0
  0
LINE
  5
8B
  8
0
  6
CONTINUOUS
 10
106.0674454498
 20
139.798605773
 30
0.0
 11
106.0674454498
 21
149.7986056077
 31
0.0
  0
LINE
  5
8C
  8
0
  6
CONTINUOUS
 10
51.0674457478
 20
139.798605773
 30
0.0
 11
51.5674448984
 21
139.2986057492
 31
0.0
  0
LINE
  5
8D
  8
0
  6
CONTINUOUS
 10
105.5674462992
 20
139.2986057492
 30
0.0
 11
106.0674454498
 21
139.798605773
 31
0.0
  0
LINE
  5
8E
  8
0
  6
CONTINUOUS
 10
101.8069631832
 20
149.7986056077
 30
0.0
 11
101.581573807
 21
154.0992912071
 31
0.0
  0
LINE
  5
8F
  8
0
  6
CONTINUOUS
 10
55.5533173906
 20
154.0992912071
 30
0.0
 11
55.3279280144
 21
149.7986056077
 31
0.0
  0
LINE
  5
90
  8
0
  6
CONTINUOUS
 10
101.581573807
 20
154.0992912071
 30
0.0
 11
101.0270289558
 21
154.5986058357
 31
0.0
  0
LINE
  5
91
  8
0
  6
CONTINUOUS
 10
56.1078622418
 20
154.5986058357
 30
0.0
 11
55.5533173906
 21
154.0992912071
 31
0.0
  0
LINE
  5
92
  8
0
  6
CONTINUOUS
 10
246.8851658928
 20
144.0486055965
 30
0.0
 11
269.9121836054
 21
144.0486055965
 31
0.0
  0
POLYLINE
  5
93
  8
0
  6
CONTINUOUS
 66
     1
 10
0.0
 20
0.0
 30
0.0
  0
VERTEX
  5
12F
  8
0
  6
CONTINUOUS
 10
68.5674458223
 20
78.7486052307
 30
0.0
  0
VERTEX
  5
130
  8
0
  6
CONTINUOUS
 10
68.5879917296
 20
78.7624633106
 30
0.0
  0
VERTEX
  5
131
  8
0
  6
CONTINUOUS
 10
68.7518542114
 20
78.8729889485
 30
0.0
  0
VERTEX
  5
132
  8
0
  6
CONTINUOUS
 10
69.0768885839
 20
79.0922297331
 30
0.0
  0
VERTEX
  5
133
  8
0
  6
CONTINUOUS
 10
69.5577565062
 20
79.4165795835
 30
0.0
  0
VERTEX
  5
134
  8
0
  6
CONTINUOUS
 10
70.1865640881
 20
79.8407150599
 30
0.0
  0
VERTEX
  5
135
  8
0
  6
CONTINUOUS
 10
70.952986222
 20
80.3576735946
 30
0.0
  0
VERTEX
  5
136
  8
0
  6
CONTINUOUS
 10
71.8444365489
 20
80.9589652511
 30
0.0
  0
VERTEX
  5
137
  8
0
  6
CONTINUOUS
 10
72.8462788689
 20
81.6347142848
 30
0.0
  0
VERTEX
  5
138
  8
0
  6
CONTINUOUS
 10
73.9420627656
 20
82.3738305064
 30
0.0
  0
VERTEX
  5
139
  8
0
  6
CONTINUOUS
 10
75.113795087
 20
83.164173195
 30
0.0
  0
VERTEX
  5
13A
  8
0
  6
CONTINUOUS
 10
76.3422363384
 20
83.9927671643
 30
0.0
  0
VERTEX
  5
13B
  8
0
  6
CONTINUOUS
 10
77.6072153535
 20
84.8460076543
 30
0.0
  0
VERTEX
  5
13C
  8
0
  6
CONTINUOUS
 10
78.8879613688
 20
85.7098801228
 30
0.0
  0
VERTEX
  5
13D
  8
0
  6
CONTINUOUS
 10
80.1634445966
 20
86.5702061149
 30
0.0
  0
VERTEX
  5
13E
  8
0
  6
CONTINUOUS
 10
81.4127215131
 20
87.4128518792
 30
0.0
  0
VERTEX
  5
13F
  8
0
  6
CONTINUOUS
 10
82.6152789819
 20
88.2239891382
 30
0.0
  0
VERTEX
  5
140
  8
0
  6
CONTINUOUS
 10
83.751371451
 20
88.9902925285
 30
0.0
  0
VERTEX
  5
141
  8
0
  6
CONTINUOUS
 10
84.8023438307
 20
89.6991817447
 30
0.0
  0
VERTEX
  5
142
  8
0
  6
CONTINUOUS
 10
85.7509391795
 20
90.3390189799
 30
0.0
  0
VERTEX
  5
143
  8
0
  6
CONTINUOUS
 10
86.5815815928
 20
90.8992951902
 30
0.0
  0
VERTEX
  5
144
  8
0
  6
CONTINUOUS
 10
87.2806323173
 20
91.3708089086
 30
0.0
  0
VERTEX
  5
145
  8
0
  6
CONTINUOUS
 10
87.8366132679
 20
91.7458227071
 30
0.0
  0
VERTEX
  5
146
  8
0
  6
CONTINUOUS
 10
88.2403946894
 20
92.0181786808
 30
0.0
  0
VERTEX
  5
147
  8
0
  6
CONTINUOUS
 10
88.485345565
 20
92.1833990308
 30
0.0
  0
VERTEX
  5
148
  8
0
  6
CONTINUOUS
 10
88.5674453753
 20
92.2387754711
 30
0.0
  0
SEQEND
  5
12E
  8
0
  6
CONTINUOUS
  0
POLYLINE
  5
94
  8
0
  6
CONTINUOUS
 66
     1
 10
0.0
 20
0.0
 30
0.0
  0
VERTEX
  5
14A
  8
0
  6
CONTINUOUS
 10
68.5674458223
 20
78.7486052307
 30
0.0
  0
VERTEX
  5
14B
  8
0
  6
CONTINUOUS
 10
68.5879917296
 20
78.7624633106
 30
0.0
  0
VERTEX
  5
14C
  8
0
  6
CONTINUOUS
 10
68.7518542114
 20
78.8729889485
 30
0.0
  0
VERTEX
  5
14D
  8
0
  6
CONTINUOUS
 10
69.0768885839
 20
79.0922297331
 30
0.0
  0
VERTEX
  5
14E
  8
0
  6
CONTINUOUS
 10
69.5577565062
 20
79.4165795835
 30
0.0
  0
VERTEX
  5
14F
  8
0
  6
CONTINUOUS
 10
70.1865640881
 20
79.8407150599
 30
0.0
  0
VERTEX
  5
150
  8
0
  6
CONTINUOUS
 10
70.952986222
 20
80.3576735946
 30
0.0
  0
VERTEX
  5
151
  8
0
  6
CONTINUOUS
 10
71.8444365489
 20
80.9589652511
 30
0.0
  0
VERTEX
  5
152
  8
0
  6
CONTINUOUS
 10
72.8462788689
 20
81.6347142848
 30
0.0
  0
VERTEX
  5
153
  8
0
  6
CONTINUOUS
 10
73.9420627656
 20
82.3738305064
 30
0.0
  0
VERTEX
  5
154
  8
0
  6
CONTINUOUS
 10
75.113795087
 20
83.164173195
 30
0.0
  0
VERTEX
  5
155
  8
0
  6
CONTINUOUS
 10
76.3422363384
 20
83.9927671643
 30
0.0
  0
VERTEX
  5
156
  8
0
  6
CONTINUOUS
 10
77.6072153535
 20
84.8460076543
 30
0.0
  0
VERTEX
  5
157
  8
0
  6
CONTINUOUS
 10
78.8879613688
 20
85.7098801228
 30
0.0
  0
VERTEX
  5
158
  8
0
  6
CONTINUOUS
 10
80.1634445966
 20
86.5702061149
 30
0.0
  0
VERTEX
  5
159
  8
0
  6
CONTINUOUS
 10
81.4127215131
 20
87.4128518792
 30
0.0
  0
VERTEX
  5
15A
  8
0
  6
CONTINUOUS
 10
82.6152789819
 20
88.2239891382
 30
0.0
  0
VERTEX
  5
15B
  8
0
  6
CONTINUOUS
 10
83.751371451
 20
88.9902925285
 30
0.0
  0
VERTEX
  5
15C
  8
0
  6
CONTINUOUS
 10
84.8023438307
 20
89.6991817447
 30
0.0
  0
VERTEX
  5
15D
  8
0
  6
CONTINUOUS
 10
85.7509391795
 20
90.3390189799
 30
0.0
  0
VERTEX
  5
15E
  8
0
  6
CONTINUOUS
 10
86.5815815928
 20
90.8992951902
 30
0.0
  0
VERTEX
  5
15F
  8
0
  6
CONTINUOUS
 10
87.2806323173
 20
91.3708089086
 30
0.0
  0
VERTEX
  5
160
  8
0
  6
CONTINUOUS
 10
87.8366132679
 20
91.7458227071
 30
0.0
  0
VERTEX
  5
161
  8
0
  6
CONTINUOUS
 10
88.2403946894
 20
92.0181786808
 30
0.0
  0
VERTEX
  5
162
  8
0
  6
CONTINUOUS
 10
88.485345565
 20
92.1833990308
 30
0.0
  0
VERTEX
  5
163
  8
0
  6
CONTINUOUS
 10
88.5674453753
 20
92.2387754711
 30
0.0
  0
SEQEND
  5
149
  8
0
  6
CONTINUOUS
  0
LINE
  5
95
  8
0
  6
CONTINUOUS
 10
51.0674457478
 20
149.7986056077
 30
0.0
 11
106.0674454498
 21
149.7986056077
 31
0.0
  0
LINE
  5
96
  8
0
  6
CONTINUOUS
 10
105.5674462992
 20
139.2986057492
 30
0.0
 11
51.5674448984
 21
139.2986057492
 31
0.0
  0
ARC
  5
97
  8
0
  6
CONTINUOUS
 10
83.4194470944
 20
153.4293608624
 30
0.0
 40
10.66972758325345
 50
340.1057212457
 51
358.0328444823
  0
LINE
  5
98
  8
0
  6
CONTINUOUS
 10
94.0828866738
 20
153.0631054359
 30
0.0
 11
94.1464466455
 21
154.0992912071
 31
0.0
  0
ARC
  5
99
  8
0
  6
CONTINUOUS
 10
73.294135791
 20
153.3480337887
 30
0.0
 40
10.24609374644736
 50
181.5935142987
 51
200.2683611987
  0
LINE
  5
9A
  8
0
  6
CONTINUOUS
 10
63.0520045238
 20
153.0631054359
 30
0.0
 11
62.9884445521
 21
154.0992912071
 31
0.0
  0
LINE
  5
9B
  8
0
  6
CONTINUOUS
 10
94.8181323188
 20
154.5986058357
 30
0.0
 11
101.0270289558
 21
154.5986058357
 31
0.0
  0
LINE
  5
9C
  8
0
  6
CONTINUOUS
 10
94.1464466455
 20
154.0992912071
 30
0.0
 11
94.8181323188
 21
154.5986058357
 31
0.0
  0
LINE
  5
9D
  8
0
  6
CONTINUOUS
 10
56.1078622418
 20
154.5986058357
 30
0.0
 11
62.3167588788
 21
154.5986058357
 31
0.0
  0
LINE
  5
9E
  8
0
  6
CONTINUOUS
 10
62.3167588788
 20
154.5986058357
 30
0.0
 11
62.9884445521
 21
154.0992912071
 31
0.0
  0
LINE
  5
9F
  8
0
  6
CONTINUOUS
 10
60.9239119517
 20
154.5986058357
 30
0.0
 11
62.3167588788
 21
154.5986058357
 31
0.0
  0
LINE
  5
A0
  8
0
  6
CONTINUOUS
 10
96.2109792459
 20
154.5986058357
 30
0.0
 11
94.8181323188
 21
154.5986058357
 31
0.0
  0
DIMENSION
  5
A1
  8
6
  6
CONTINUOUS
 62
     6
  2
*D6
 10
97.5674455988
 20
173.2457602995
 30
0.0
 11
77.1864160564
 21
173.2457602995
 31
0.0
 70
   160
  3
SLDDIMSTYLE1
 13
59.5674455988
 23
155.90504145
 33
0.0
 14
97.5674455988
 24
155.90504145
 34
0.0
  0
DIMENSION
  5
AB
  8
6
  6
CONTINUOUS
 62
     6
  2
*D7
 10
120.0316481513
 20
139.2986057492
 30
0.0
 11
120.0316481513
 21
144.6635049871
 31
0.0
 70
   160
  1
10
  3
SLDDIMSTYLE2
 13
106.0674455988
 23
149.7986057492
 33
0.0
 14
105.5674455988
 24
139.2986057492
 34
0.0
 50
90.0
  0
DIMENSION
  5
B8
  8
6
  6
CONTINUOUS
 62
     6
  2
*D8
 10
63.7589481348
 20
164.5986057492
 30
0.0
 11
70.9516494984
 21
164.5986057492
 31
0.0
 70
   160
  1
%%c<>
  3
SLDDIMSTYLE0
 13
55.3174455988
 23
149.5986057492
 33
0.0
 14
63.7589481348
 24
149.5986057492
 34
0.0
  0
DIMENSION
  5
C5
  8
6
  6
CONTINUOUS
 62
     6
  2
*D9
 10
37.4216115061
 20
154.5986057492
 30
0.0
 11
37.4216115061
 21
141.5128875976
 31
0.0
 70
   160
  3
SLDDIMSTYLE0
 13
51.0674455988
 23
149.7986057492
 33
0.0
 14
57.0674455988
 24
154.5986057492
 34
0.0
 50
90.0
  0
DIMENSION
  5
D1
  8
6
  6
CONTINUOUS
 62
     6
  2
*D10
 10
88.5674455988
 20
115.5495834929
 30
0.0
 11
56.7880746737
 21
115.5495834929
 31
0.0
 70
   160
  1
%%c<>
  3
SLDDIMSTYLE1
 13
68.5674455988
 23
141.0486057492
 33
0.0
 14
88.5674455988
 24
92.2387760861
 34
0.0
  0
LINE
  5
DB
  8
6
  6
CENTER
 62
     6
 10
97.5674455988
 20
147.5986057492
 30
0.0
 11
97.5674455988
 21
156.0992909819
 31
0.0
  0
LINE
  5
DC
  8
6
  6
CENTER
 62
     6
 10
59.5674455988
 20
147.5986057492
 30
0.0
 11
59.5674455988
 21
156.0992909819
 31
0.0
  0
LINE
  5
DD
  8
6
  6
CENTER
 62
     6
 10
78.5674455988
 20
85.5662821806
 30
0.0
 11
78.5674455988
 21
151.5885646535
 31
0.0
  0
LINE
  5
DE
  8
6
  6
CENTER
 62
     6
 10
259.2496256257
 20
145.5398863776
 30
0.0
 11
252.8573406704
 21
134.3375612931
 31
0.0
  0
LINE
  5
DF
  8
6
  6
CENTER
 62
     6
 10
78.6760486832
 20
85.4498124234
 30
0.0
 11
92.1684663474
 21
79.9985218371
 31
0.0
  0
ARC
  5
E0
  8
6
  6
CENTER
 62
     6
 10
140.9377076452
 20
200.5039858868
 30
0.0
 40
130.0
 50
248.0
 51
330.29
  0
LINE
  5
E1
  8
6
  6
CONTINUOUS
 62
     6
 10
398.4815707679
 20
222.2154430268
 30
0.0
 11
398.4815707679
 21
216.7960357749
 31
0.0
  0
LINE
  5
E2
  8
0
  6
CONTINUOUS
 10
319.6558357387
 20
212.2154432503
 30
0.0
 11
373.4607511371
 21
212.2154432503
 31
0.0
  0
LINE
  5
E3
  8
0
  6
CONTINUOUS
 10
373.4607511371
 20
232.2154428033
 30
0.0
 11
319.6558357387
 21
232.2154428033
 31
0.0
  0
LINE
  5
E4
  8
0
  6
CONTINUOUS
 10
378.9843582719
 20
232.2154428033
 30
0.0
 11
373.4607511371
 21
232.2154428033
 31
0.0
  0
LINE
  5
E5
  8
0
  6
CONTINUOUS
 10
373.4607511371
 20
212.2154432503
 30
0.0
 11
378.9843582719
 21
212.2154432503
 31
0.0
  0
ARC
  5
E6
  8
0
  6
CONTINUOUS
 10
388.4504556012
 20
222.2154430268
 30
0.0
 40
10.00000000000003
 50
270.0
 51
90.0
  0
LINE
  5
E7
  8
0
  6
CONTINUOUS
 10
388.450458756
 20
232.2154428033
 30
0.0
 11
378.9843582719
 21
232.2154428033
 31
0.0
  0
LINE
  5
E8
  8
0
  6
CONTINUOUS
 10
378.9843582719
 20
212.2154432503
 30
0.0
 11
388.450458756
 21
212.2154432503
 31
0.0
  0
LINE
  5
E9
  8
0
  6
CONTINUOUS
 10
310.1558360442
 20
194.7154431758
 30
0.0
 11
319.155835715
 21
194.7154431758
 31
0.0
  0
LINE
  5
EA
  8
0
  6
CONTINUOUS
 10
319.155835715
 20
249.7154428778
 30
0.0
 11
309.1558358803
 21
249.7154428778
 31
0.0
  0
LINE
  5
EB
  8
0
  6
CONTINUOUS
 10
319.155835715
 20
194.7154431758
 30
0.0
 11
319.6558357387
 21
195.2154423264
 31
0.0
  0
LINE
  5
EC
  8
0
  6
CONTINUOUS
 10
319.6558357387
 20
249.2154437271
 30
0.0
 11
319.155835715
 21
249.7154428778
 31
0.0
  0
LINE
  5
ED
  8
0
  6
CONTINUOUS
 10
309.1558358803
 20
226.4549616878
 30
0.0
 11
304.8551502808
 21
226.2295723115
 31
0.0
  0
LINE
  5
EE
  8
0
  6
CONTINUOUS
 10
304.8551502808
 20
218.201313742
 30
0.0
 11
309.1558358803
 21
217.9759243657
 31
0.0
  0
LINE
  5
EF
  8
0
  6
CONTINUOUS
 10
304.8551502808
 20
226.2295723115
 30
0.0
 11
304.3558356523
 21
225.6750269947
 31
0.0
  0
LINE
  5
F0
  8
0
  6
CONTINUOUS
 10
304.3558356523
 20
218.7558590589
 30
0.0
 11
304.8551502808
 21
218.201313742
 31
0.0
  0
POLYLINE
  5
F1
  8
0
  6
CONTINUOUS
 66
     1
 10
0.0
 20
0.0
 30
0.0
  0
VERTEX
  5
165
  8
0
  6
CONTINUOUS
 10
373.4607511371
 20
212.2154432503
 30
0.0
  0
VERTEX
  5
166
  8
0
  6
CONTINUOUS
 10
374.1084338337
 20
212.2616517512
 30
0.0
  0
VERTEX
  5
167
  8
0
  6
CONTINUOUS
 10
374.9616743236
 20
212.4661636693
 30
0.0
  0
VERTEX
  5
168
  8
0
  6
CONTINUOUS
 10
375.790268293
 20
212.8307587621
 30
0.0
  0
VERTEX
  5
169
  8
0
  6
CONTINUOUS
 10
376.5806109815
 20
213.3494495568
 30
0.0
  0
VERTEX
  5
16A
  8
0
  6
CONTINUOUS
 10
377.3197272032
 20
214.0137200398
 30
0.0
  0
VERTEX
  5
16B
  8
0
  6
CONTINUOUS
 10
377.9954762369
 20
214.8126630267
 30
0.0
  0
VERTEX
  5
16C
  8
0
  6
CONTINUOUS
 10
378.5967678934
 20
215.7331589763
 30
0.0
  0
VERTEX
  5
16D
  8
0
  6
CONTINUOUS
 10
379.1137264281
 20
216.7600939204
 30
0.0
  0
VERTEX
  5
16E
  8
0
  6
CONTINUOUS
 10
379.5378619045
 20
217.8766057981
 30
0.0
  0
VERTEX
  5
16F
  8
0
  6
CONTINUOUS
 10
379.8622117549
 20
219.0643608258
 30
0.0
  0
VERTEX
  5
170
  8
0
  6
CONTINUOUS
 10
380.0814525395
 20
220.3038567598
 30
0.0
  0
VERTEX
  5
171
  8
0
  6
CONTINUOUS
 10
380.1919781774
 20
221.5747408257
 30
0.0
  0
VERTEX
  5
172
  8
0
  6
CONTINUOUS
 10
380.1919781774
 20
222.8561452278
 30
0.0
  0
VERTEX
  5
173
  8
0
  6
CONTINUOUS
 10
380.0814525395
 20
224.1270292937
 30
0.0
  0
VERTEX
  5
174
  8
0
  6
CONTINUOUS
 10
379.8622117549
 20
225.3665252277
 30
0.0
  0
VERTEX
  5
175
  8
0
  6
CONTINUOUS
 10
379.5378619045
 20
226.5542802555
 30
0.0
  0
VERTEX
  5
176
  8
0
  6
CONTINUOUS
 10
379.1137264281
 20
227.6707921331
 30
0.0
  0
VERTEX
  5
177
  8
0
  6
CONTINUOUS
 10
378.5967678934
 20
228.6977270772
 30
0.0
  0
VERTEX
  5
178
  8
0
  6
CONTINUOUS
 10
377.9954762369
 20
229.6182230269
 30
0.0
  0
VERTEX
  5
179
  8
0
  6
CONTINUOUS
 10
377.3197272032
 20
230.4171660138
 30
0.0
  0
VERTEX
  5
17A
  8
0
  6
CONTINUOUS
 10
376.5806109815
 20
231.0814364967
 30
0.0
  0
VERTEX
  5
17B
  8
0
  6
CONTINUOUS
 10
375.790268293
 20
231.6001272914
 30
0.0
  0
VERTEX
  5
17C
  8
0
  6
CONTINUOUS
 10
374.9616743236
 20
231.9647223843
 30
0.0
  0
VERTEX
  5
17D
  8
0
  6
CONTINUOUS
 10
374.1084338337
 20
232.1692343024
 30
0.0
  0
VERTEX
  5
17E
  8
0
  6
CONTINUOUS
 10
373.4607511371
 20
232.2154428033
 30
0.0
  0
SEQEND
  5
164
  8
0
  6
CONTINUOUS
  0
POLYLINE
  5
F2
  8
0
  6
CONTINUOUS
 66
     1
 10
0.0
 20
0.0
 30
0.0
  0
VERTEX
  5
180
  8
0
  6
CONTINUOUS
 10
373.4607511371
 20
212.2154432503
 30
0.0
  0
VERTEX
  5
181
  8
0
  6
CONTINUOUS
 10
374.1084338337
 20
212.2616517512
 30
0.0
  0
VERTEX
  5
182
  8
0
  6
CONTINUOUS
 10
374.9616743236
 20
212.4661636693
 30
0.0
  0
VERTEX
  5
183
  8
0
  6
CONTINUOUS
 10
375.790268293
 20
212.8307587621
 30
0.0
  0
VERTEX
  5
184
  8
0
  6
CONTINUOUS
 10
376.5806109815
 20
213.3494495568
 30
0.0
  0
VERTEX
  5
185
  8
0
  6
CONTINUOUS
 10
377.3197272032
 20
214.0137200398
 30
0.0
  0
VERTEX
  5
186
  8
0
  6
CONTINUOUS
 10
377.9954762369
 20
214.8126630267
 30
0.0
  0
VERTEX
  5
187
  8
0
  6
CONTINUOUS
 10
378.5967678934
 20
215.7331589763
 30
0.0
  0
VERTEX
  5
188
  8
0
  6
CONTINUOUS
 10
379.1137264281
 20
216.7600939204
 30
0.0
  0
VERTEX
  5
189
  8
0
  6
CONTINUOUS
 10
379.5378619045
 20
217.8766057981
 30
0.0
  0
VERTEX
  5
18A
  8
0
  6
CONTINUOUS
 10
379.8622117549
 20
219.0643608258
 30
0.0
  0
VERTEX
  5
18B
  8
0
  6
CONTINUOUS
 10
380.0814525395
 20
220.3038567598
 30
0.0
  0
VERTEX
  5
18C
  8
0
  6
CONTINUOUS
 10
380.1919781774
 20
221.5747408257
 30
0.0
  0
VERTEX
  5
18D
  8
0
  6
CONTINUOUS
 10
380.1919781774
 20
222.8561452278
 30
0.0
  0
VERTEX
  5
18E
  8
0
  6
CONTINUOUS
 10
380.0814525395
 20
224.1270292937
 30
0.0
  0
VERTEX
  5
18F
  8
0
  6
CONTINUOUS
 10
379.8622117549
 20
225.3665252277
 30
0.0
  0
VERTEX
  5
190
  8
0
  6
CONTINUOUS
 10
379.5378619045
 20
226.5542802555
 30
0.0
  0
VERTEX
  5
191
  8
0
  6
CONTINUOUS
 10
379.1137264281
 20
227.6707921331
 30
0.0
  0
VERTEX
  5
192
  8
0
  6
CONTINUOUS
 10
378.5967678934
 20
228.6977270772
 30
0.0
  0
VERTEX
  5
193
  8
0
  6
CONTINUOUS
 10
377.9954762369
 20
229.6182230269
 30
0.0
  0
VERTEX
  5
194
  8
0
  6
CONTINUOUS
 10
377.3197272032
 20
230.4171660138
 30
0.0
  0
VERTEX
  5
195
  8
0
  6
CONTINUOUS
 10
376.5806109815
 20
231.0814364967
 30
0.0
  0
VERTEX
  5
196
  8
0
  6
CONTINUOUS
 10
375.790268293
 20
231.6001272914
 30
0.0
  0
VERTEX
  5
197
  8
0
  6
CONTINUOUS
 10
374.9616743236
 20
231.9647223843
 30
0.0
  0
VERTEX
  5
198
  8
0
  6
CONTINUOUS
 10
374.1084338337
 20
232.1692343024
 30
0.0
  0
VERTEX
  5
199
  8
0
  6
CONTINUOUS
 10
373.4607511371
 20
232.2154428033
 30
0.0
  0
SEQEND
  5
17F
  8
0
  6
CONTINUOUS
  0
LINE
  5
F3
  8
0
  6
CONTINUOUS
 10
310.1558360442
 20
194.7154431758
 30
0.0
 11
310.1558360442
 21
194.8795682905
 31
0.0
  0
LINE
  5
F4
  8
0
  6
CONTINUOUS
 10
310.1558360442
 20
194.8795682905
 30
0.0
 11
309.1558358803
 21
194.8795682905
 31
0.0
  0
LINE
  5
F5
  8
0
  6
CONTINUOUS
 10
309.1558358803
 20
194.8795682905
 30
0.0
 11
309.1558358803
 21
249.7154428778
 31
0.0
  0
LINE
  5
F6
  8
0
  6
CONTINUOUS
 10
319.6558357387
 20
222.2154430268
 30
0.0
 11
319.6558357387
 21
195.2154423264
 31
0.0
  0
LINE
  5
F7
  8
0
  6
CONTINUOUS
 10
319.6558357387
 20
249.2154437271
 30
0.0
 11
319.6558357387
 21
222.2154430268
 31
0.0
  0
LINE
  5
F8
  8
0
  6
CONTINUOUS
 10
309.1558358803
 20
194.8795682905
 30
0.0
 11
309.1558358803
 21
196.0871062396
 31
0.0
  0
LINE
  5
F9
  8
0
  6
CONTINUOUS
 10
304.3558356523
 20
218.7558590589
 30
0.0
 11
304.3558356523
 21
225.6750269947
 31
0.0
  0
LINE
  5
FA
  8
0
  6
CONTINUOUS
 10
304.3558356523
 20
220.1154431017
 30
0.0
 11
304.3558356523
 21
219.7154430827
 31
0.0
  0
LINE
  5
FB
  8
0
  6
CONTINUOUS
 10
304.3558356523
 20
224.7154429709
 30
0.0
 11
304.3558356523
 21
224.3154429519
 31
0.0
  0
DIMENSION
  5
FC
  8
6
  6
CONTINUOUS
 62
     6
  2
*D11
 10
309.1558357387
 20
184.7154430268
 30
0.0
 11
353.8192451441
 21
184.7154430268
 31
0.0
 70
   160
  3
SLDDIMSTYLE0
 13
398.4815707679
 23
216.7960357749
 33
0.0
 14
309.1558357387
 24
194.8795691611
 34
0.0
  0
DIMENSION
  5
106
  8
6
  6
CONTINUOUS
 62
     6
  2
*D12
 10
294.3558357387
 20
194.7154430268
 30
0.0
 11
294.3558357387
 21
225.5040458243
 31
0.0
 70
   160
  1
%%c<>
  3
SLDDIMSTYLE1
 13
309.1558357387
 23
249.7154430268
 33
0.0
 14
310.1558357387
 24
194.7154430268
 34
0.0
 50
90.0
  0
TEXT
  5
111
  8
2
  6
CONTINUOUS
 62
     1
 10
359.8069498887
 20
39.6688942994
 30
0.0
 40
10.0
  1
148
 41
0.7
 11
359.8069498887
 21
36.8117514422
 31
0.0
 73
     1
  0
LINE
  5
112
  8
6
  6
CENTER
 62
     6
 10
302.7112067253
 20
222.2154430268
 30
0.0
 11
401.1415613616
 21
222.2154430268
 31
0.0
  0
ENDSEC
  0
EOF
