  0
SECTION
  2
HEADER
  9
$ACADVER
  1
AC1009
  9
$DWGCODEPAGE
  3
ansi_1252
  9
$INSBASE
 10
0.0
 20
0.0
 30
0.0
  9
$EXTMIN
 10
0.0
 20
0.0
 30
0.0
  9
$EXTMAX
 10
420.0
 20
297.0
 30
0.0
  9
$LIMMIN
 10
0.0
 20
0.0
  9
$LIMMAX
 10
0.0
 20
0.0
  9
$ORTHOMODE
 70
     0
  9
$REGENMODE
 70
     1
  9
$FILLMODE
 70
     1
  9
$QTEXTMODE
 70
     0
  9
$MIRRTEXT
 70
     1
  9
$DRAGMODE
 70
     2
  9
$LTSCALE
 40
1.0
  9
$OSMODE
 70
    37
  9
$ATTMODE
 70
     1
  9
$TEXTSIZE
 40
3.5
  9
$TRACEWID
 40
1.0
  9
$TEXTSTYLE
  7
STANDARD
  9
$CLAYER
  8
0
  9
$CELTYPE
  6
BYLAYER
  9
$CECOLOR
 62
   256
  9
$DIMSCALE
 40
1.0
  9
$DIMASZ
 40
5.0
  9
$DIMEXO
 40
1.0
  9
$DIMDLI
 40
3.75
  9
$DIMRND
 40
0.0
  9
$DIMDLE
 40
0.0
  9
$DIMEXE
 40
1.0
  9
$DIMTP
 40
0.0
  9
$DIMTM
 40
0.0
  9
$DIMTXT
 40
3.5
  9
$DIMCEN
 40
2.5
  9
$DIMTSZ
 40
0.0
  9
$DIMTOL
 70
     0
  9
$DIMLIM
 70
     0
  9
$DIMTIH
 70
     1
  9
$DIMTOH
 70
     1
  9
$DIMSE1
 70
     0
  9
$DIMSE2
 70
     0
  9
$DIMTAD
 70
     1
  9
$DIMZIN
 70
     0
  9
$DIMBLK
  1

  9
$DIMASO
 70
     1
  9
$DIMSHO
 70
     1
  9
$DIMPOST
  1

  9
$DIMAPOST
  1

  9
$DIMALT
 70
     0
  9
$DIMALTD
 70
     3
  9
$DIMALTF
 40
0.0393700787
  9
$DIMLFAC
 40
1.0
  9
$DIMTOFL
 70
     1
  9
$DIMTVP
 40
0.0
  9
$DIMTIX
 70
     0
  9
$DIMSOXD
 70
     0
  9
$DIMSAH
 70
     0
  9
$DIMBLK1
  1

  9
$DIMBLK2
  1

  9
$DIMSTYLE
  2
ISO-25
  9
$DIMCLRD
 70
     0
  9
$DIMCLRE
 70
     0
  9
$DIMCLRT
 70
     0
  9
$DIMTFAC
 40
1.0
  9
$DIMGAP
 40
1.524
  9
$LUNITS
 70
     2
  9
$LUPREC
 70
     2
  9
$SKETCHINC
 40
1.0
  9
$FILLETRAD
 40
10.0
  9
$AUNITS
 70
     0
  9
$AUPREC
 70
     0
  9
$MENU
  1
.
  9
$ELEVATION
 40
0.0
  9
$PELEVATION
 40
0.0
  9
$THICKNESS
 40
0.0
  9
$LIMCHECK
 70
     0
  9
$CHAMFERA
 40
10.0
  9
$CHAMFERB
 40
10.0
  9
$SKPOLY
 70
     0
  9
$TDCREATE
 40
2454490.532924803
  9
$TDUPDATE
 40
2454490.532924815
  9
$TDINDWG
 40
0.0000000116
  9
$TDUSRTIMER
 40
0.0000000116
  9
$USRTIMER
 70
     1
  9
$ANGBASE
 50
0.0
  9
$ANGDIR
 70
     0
  9
$PDMODE
 70
     0
  9
$PDSIZE
 40
-1.0
  9
$PLINEWID
 40
0.0
  9
$COORDS
 70
     1
  9
$SPLFRAME
 70
     0
  9
$SPLINETYPE
 70
     6
  9
$SPLINESEGS
 70
     8
  9
$ATTDIA
 70
     0
  9
$ATTREQ
 70
     1
  9
$HANDLING
 70
     1
  9
$HANDSEED
  5
18F
  9
$SURFTAB1
 70
     6
  9
$SURFTAB2
 70
     6
  9
$SURFTYPE
 70
     6
  9
$SURFU
 70
     6
  9
$SURFV
 70
     6
  9
$UCSNAME
  2

  9
$UCSORG
 10
0.0
 20
0.0
 30
0.0
  9
$UCSXDIR
 10
1.0
 20
0.0
 30
0.0
  9
$UCSYDIR
 10
0.0
 20
1.0
 30
0.0
  9
$PUCSNAME
  2

  9
$PUCSORG
 10
0.0
 20
0.0
 30
0.0
  9
$PUCSXDIR
 10
1.0
 20
0.0
 30
0.0
  9
$PUCSYDIR
 10
0.0
 20
1.0
 30
0.0
  9
$USERI1
 70
     0
  9
$USERI2
 70
     0
  9
$USERI3
 70
     0
  9
$USERI4
 70
     0
  9
$USERI5
 70
     0
  9
$USERR1
 40
0.0
  9
$USERR2
 40
0.0
  9
$USERR3
 40
0.0
  9
$USERR4
 40
0.0
  9
$USERR5
 40
0.0
  9
$WORLDVIEW
 70
     1
  9
$SHADEDGE
 70
     3
  9
$SHADEDIF
 70
    70
  9
$TILEMODE
 70
     1
  9
$MAXACTVP
 70
    64
  9
$PLIMCHECK
 70
     0
  9
$PEXTMIN
 10
1.0000000000E+20
 20
1.0000000000E+20
 30
1.0000000000E+20
  9
$PEXTMAX
 10
-1.0000000000E+20
 20
-1.0000000000E+20
 30
-1.0000000000E+20
  9
$PLIMMIN
 10
0.0
 20
0.0
  9
$PLIMMAX
 10
420.0
 20
297.0
  9
$UNITMODE
 70
     0
  9
$VISRETAIN
 70
     1
  9
$PLINEGEN
 70
     0
  9
$PSLTSCALE
 70
     1
  0
ENDSEC
  0
SECTION
  2
TABLES
  0
TABLE
  2
VPORT
 70
     1
  0
VPORT
  2
*ACTIVE
 70
     0
 10
0.0
 20
0.0
 11
1.0
 21
1.0
 12
210.0
 22
148.5
 13
0.0
 23
0.0
 14
10.0
 24
10.0
 15
10.0
 25
10.0
 16
0.0
 26
0.0
 36
1.0
 17
0.0
 27
0.0
 37
0.0
 40
297.0
 41
1.4141414141
 42
50.0
 43
0.0
 44
0.0
 50
0.0
 51
0.0
 71
     0
 72
  2000
 73
     1
 74
     3
 75
     0
 76
     0
 77
     0
 78
     0
  0
ENDTAB
  0
TABLE
  2
LTYPE
 70
     6
  0
LTYPE
  2
CONTINUOUS
 70
     0
  3
Solid line
 72
    65
 73
     0
 40
0.0
  0
LTYPE
  2
HIDDEN
 70
     0
  3
Hidden __ __ __ __ __ __ __ __ __ __ __ __ __ __
 72
    65
 73
     2
 40
1.905
 49
1.27
 49
-0.635
  0
LTYPE
  2
PHANTOM
 70
     0
  3
Phantom ______  __  __  ______  __  __  ______
 72
    65
 73
     6
 40
12.7
 49
6.35
 49
-1.27
 49
1.27
 49
-1.27
 49
1.27
 49
-1.27
  0
LTYPE
  2
CENTER
 70
     0
  3
Center ____ _ ____ _ ____ _ ____ _ ____ _ ____
 72
    65
 73
     4
 40
10.16
 49
6.35
 49
-1.27
 49
1.27
 49
-1.27
  0
LTYPE
  2
CENTERX2
 70
     0
  3
Center (2x) ________  __  ________  __  _____
 72
    65
 73
     4
 40
20.32
 49
12.7
 49
-2.54
 49
2.54
 49
-2.54
  0
LTYPE
  2
DOT2
 70
     0
  3
Dot (.5x) ........................................
 72
    65
 73
     2
 40
0.635
 49
0.0
 49
-0.635
  0
ENDTAB
  0
TABLE
  2
LAYER
 70
     6
  0
LAYER
  2
0
 70
     0
 62
     7
  6
CONTINUOUS
  0
LAYER
  2
DEFPOINTS
 70
     0
 62
     7
  6
CONTINUOUS
  0
LAYER
  2
7
 70
     0
 62
     7
  6
CONTINUOUS
  0
LAYER
  2
1
 70
     0
 62
     1
  6
CONTINUOUS
  0
LAYER
  2
2
 70
     0
 62
     2
  6
PHANTOM
  0
LAYER
  2
6
 70
     0
 62
     6
  6
CONTINUOUS
  0
ENDTAB
  0
TABLE
  2
STYLE
 70
     1
  0
STYLE
  2
STANDARD
 70
     0
 40
0.0
 41
1.0
 50
0.0
 71
     0
 42
2.5
  3
txt
  4

  0
ENDTAB
  0
TABLE
  2
VIEW
 70
     0
  0
ENDTAB
  0
TABLE
  2
UCS
 70
     0
  0
ENDTAB
  0
TABLE
  2
APPID
 70
     1
  0
APPID
  2
ACAD
 70
     0
  0
ENDTAB
  0
TABLE
  2
DIMSTYLE
 70
     4
  0
DIMSTYLE
  2
ISO-25
 70
     0
  3

  4

  5

  6

  7

 40
1.0
 41
2.5
 42
0.625
 43
3.75
 44
1.25
 45
0.0
 46
0.0
 47
0.0
 48
0.0
140
2.5
141
2.5
142
0.0
143
0.0393700787
144
1.0
145
0.0
146
1.0
147
0.625
 71
     0
 72
     0
 73
     0
 74
     0
 75
     0
 76
     0
 77
     1
 78
     8
170
     0
171
     3
172
     1
173
     0
174
     0
175
     0
176
     0
177
     0
178
     0
  0
DIMSTYLE
  2
SLDDIMSTYLE0
 70
     0
  3

  4

  5

  6

  7

 40
1.0
 41
5.0
 42
0.0625
 43
0.38
 44
0.0
 45
0.0
 46
0.0
 47
0.0
 48
0.0
140
3.5
141
0.09
142
0.0
143
25.4
144
1.0
145
0.0
146
1.0
147
0.875
 71
     0
 72
     0
 73
     0
 74
     1
 75
     0
 76
     0
 77
     1
 78
    12
170
     0
171
     2
172
     0
173
     1
174
     0
175
     0
176
     0
177
     0
178
     0
  0
DIMSTYLE
  2
SLDDIMSTYLE1
 70
     0
  3

  4

  5

  6

  7

 40
1.0
 41
5.0
 42
0.0625
 43
0.38
 44
0.0
 45
0.0
 46
0.0
 47
0.0
 48
0.0
140
3.5
141
0.09
142
0.0
143
25.4
144
1.0
145
0.0
146
1.0
147
0.875
 71
     0
 72
     0
 73
     0
 74
     1
 75
     0
 76
     0
 77
     1
 78
    12
170
     0
171
     2
172
     0
173
     1
174
     0
175
     0
176
     0
177
     0
178
     0
  0
DIMSTYLE
  2
SLDDIMSTYLE2
 70
     0
  3

  4

  5

  6

  7

 40
1.0
 41
5.0
 42
0.0625
 43
0.38
 44
0.0
 45
0.0
 46
0.0
 47
0.0
 48
0.0
140
3.5
141
0.09
142
0.0
143
25.4
144
1.0
145
0.0
146
1.0
147
0.875
 71
     0
 72
     0
 73
     0
 74
     1
 75
     0
 76
     0
 77
     1
 78
    12
170
     0
171
     2
172
     0
173
     1
174
     0
175
     0
176
     0
177
     0
178
     0
  0
ENDTAB
  0
ENDSEC
  0
SECTION
  2
BLOCKS
  0
BLOCK
  8
0
  2
$MODEL_SPACE
 70
     0
 10
0.0
 20
0.0
 30
0.0
  3
$MODEL_SPACE
  1

  0
ENDBLK
  5
21
  8
0
  0
BLOCK
 67
     1
  8
0
  2
$PAPER_SPACE
 70
     0
 10
0.0
 20
0.0
 30
0.0
  3
$PAPER_SPACE
  1

  0
ENDBLK
  5
1D
 67
     1
  8
0
  0
BLOCK
  8
0
  2
SW_NOTE_0
 70
     0
 10
0.0
 20
0.0
 30
0.0
  3
SW_NOTE_0
  1

  0
TEXT
  5
41
  8
2
  6
CONTINUOUS
 62
     0
 10
0.0
 20
1.0
 30
0.0
 40
3.5
  1
Diese Zeichnung ist gemäß Urheberrecht gesetzlich geschützt
 41
0.6644067797
 11
0.0
 21
0.0
 31
0.0
 73
     1
  0
TEXT
  5
42
  8
2
  6
CONTINUOUS
 62
     0
 10
0.0
 20
-8.0513890609
 30
0.0
 40
3.5
  1
This drawing is protected under copyright law; unauthorizid disclosure,
 41
0.6605633803
 11
0.0
 21
-9.0513890609
 31
0.0
 73
     1
  0
TEXT
  5
43
  8
2
  6
CONTINUOUS
 62
     0
 10
0.0
 20
-12.5770835914
 30
0.0
 40
3.5
  1
reprodution or use is prohibted.
 41
0.65625
 11
0.0
 21
-13.5770835914
 31
0.0
 73
     1
  0
ENDBLK
  5
40
  8
0
  0
BLOCK
  8
0
  2
SW_NOTE_1
 70
     0
 10
0.0
 20
0.0
 30
0.0
  3
SW_NOTE_1
  1

  0
TEXT
  5
49
  8
2
  6
CONTINUOUS
 62
     0
 10
0.0
 20
1.0
 30
0.0
 40
3.5
  1
Vieler International GmbH+Co.KG
 41
0.6774193548
 11
0.0
 21
0.0
 31
0.0
 73
     1
  0
TEXT
  5
4A
  8
2
  6
CONTINUOUS
 62
     0
 10
22.5458340719
 20
-3.5256945305
 30
0.0
 40
3.5
  1
58642 Iserlohn
 41
0.7
 11
22.5458340719
 21
-4.5256945305
 31
0.0
 73
     1
  0
ENDBLK
  5
48
  8
0
  0
BLOCK
  8
0
  2
*D3
 70
     1
 10
0.0
 20
0.0
 30
0.0
  3
*D3
  1

  0
SOLID
  5
62
  8
6
  6
CONTINUOUS
 62
     6
 10
70.7668005256
 20
184.2761403092
 30
0.0
 11
75.7668039454
 21
183.7761745078
 31
0.0
 12
75.7667971056
 22
184.7761745077
 32
0.0
 13
75.7667971056
 23
184.7761745077
 33
0.0
  0
SOLID
  5
63
  8
6
  6
CONTINUOUS
 62
     6
 10
245.7632189118
 20
184.2773372351
 30
0.0
 11
240.7632154921
 21
184.7773030365
 31
0.0
 12
240.7632223318
 22
183.7773030365
 32
0.0
 13
240.7632223318
 23
183.7773030365
 33
0.0
  0
LINE
  5
64
  8
6
  6
CONTINUOUS
 62
     6
 10
70.7665508715
 20
220.7767891678
 30
0.0
 11
70.7668073653
 21
183.2761403092
 31
0.0
  0
LINE
  5
65
  8
6
  6
CONTINUOUS
 62
     6
 10
245.7629692587
 20
220.7778492994
 30
0.0
 11
245.7632257515
 21
183.2773372351
 31
0.0
  0
LINE
  5
66
  8
6
  6
CONTINUOUS
 62
     6
 10
70.7668005256
 20
184.2761403092
 30
0.0
 11
245.7632189118
 21
184.2773372351
 31
0.0
  0
TEXT
  5
67
  8
6
  6
CONTINUOUS
 62
     6
 10
161.7541369473
 20
185.2767624622
 30
0.0
 40
3.5
  1
175
 50
0.0003918869
 41
0.7
 11
161.754143787
 21
184.2767624622
 31
0.0
 73
     1
  0
ENDBLK
  5
61
  8
0
  0
BLOCK
  8
0
  2
*D4
 70
     1
 10
0.0
 20
0.0
 30
0.0
  3
*D4
  1

  0
SOLID
  5
6D
  8
6
  6
CONTINUOUS
 62
     6
 10
259.6195655331
 20
231.7767891677
 30
0.0
 11
260.1195655331
 21
236.7767891677
 31
0.0
 12
259.1195655331
 22
236.7767891677
 32
0.0
 13
259.1195655331
 23
236.7767891677
 33
0.0
  0
SOLID
  5
6E
  8
6
  6
CONTINUOUS
 62
     6
 10
259.6195655331
 20
211.7767891677
 30
0.0
 11
259.1195655331
 21
206.7767891677
 31
0.0
 12
260.1195655331
 22
206.7767891677
 32
0.0
 13
260.1195655331
 23
206.7767891677
 33
0.0
  0
LINE
  5
6F
  8
6
  6
CONTINUOUS
 62
     6
 10
216.7665440318
 20
231.7767891677
 30
0.0
 11
260.6195655331
 21
231.7767891677
 31
0.0
  0
LINE
  5
70
  8
6
  6
CONTINUOUS
 62
     6
 10
216.7665440318
 20
211.7767891677
 30
0.0
 11
260.6195655331
 21
211.7767891677
 31
0.0
  0
LINE
  5
71
  8
6
  6
CONTINUOUS
 62
     6
 10
259.6195655331
 20
231.7767891677
 30
0.0
 11
259.6195655331
 21
241.7767891677
 31
0.0
  0
LINE
  5
72
  8
6
  6
CONTINUOUS
 62
     6
 10
259.6195655331
 20
231.7767891677
 30
0.0
 11
259.6195655331
 21
211.7767891677
 31
0.0
  0
LINE
  5
73
  8
6
  6
CONTINUOUS
 62
     6
 10
259.6195655331
 20
211.7767891677
 30
0.0
 11
259.6195655331
 21
201.7767891677
 31
0.0
  0
TEXT
  5
74
  8
6
  6
CONTINUOUS
 62
     6
 10
258.6195655331
 20
216.5560733005
 30
0.0
 40
3.5
  1
%%c
 50
90.0
 41
0.7
 11
259.6195655331
 21
216.5560733005
 31
0.0
 73
     1
  0
TEXT
  5
75
  8
6
  6
CONTINUOUS
 62
     6
 10
258.6195657077
 20
221.8312546131
 30
0.0
 40
3.5
  1
20
 50
90.0
 41
0.7
 11
259.6195657077
 21
221.8312546131
 31
0.0
 73
     1
  0
ENDBLK
  5
6C
  8
0
  0
BLOCK
  8
0
  2
SW_CENTERMARKSYMBOL_0
 70
     0
 10
0.0
 20
0.0
 30
0.0
  3
SW_CENTERMARKSYMBOL_0
  1

  0
LINE
  5
79
  8
6
  6
CENTER
 62
     0
 10
0.0
 20
0.0
 30
0.0
 11
0.0
 21
2.5
 31
0.0
  0
LINE
  5
7A
  8
6
  6
CENTER
 62
     0
 10
0.0
 20
0.0
 30
0.0
 11
-2.5
 21
0.0
 31
0.0
  0
LINE
  5
7B
  8
6
  6
CENTER
 62
     0
 10
0.0
 20
0.0
 30
0.0
 11
0.0
 21
-2.5
 31
0.0
  0
LINE
  5
7C
  8
6
  6
CENTER
 62
     0
 10
0.0
 20
0.0
 30
0.0
 11
2.5
 21
0.0
 31
0.0
  0
LINE
  5
7D
  8
6
  6
CENTER
 62
     0
 10
0.0
 20
5.0
 30
0.0
 11
0.0
 21
30.0
 31
0.0
  0
LINE
  5
7E
  8
6
  6
CENTER
 62
     0
 10
-5.0
 20
0.0
 30
0.0
 11
-30.0
 21
0.0
 31
0.0
  0
LINE
  5
7F
  8
6
  6
CENTER
 62
     0
 10
0.0
 20
-5.0
 30
0.0
 11
0.0
 21
-30.0
 31
0.0
  0
LINE
  5
80
  8
6
  6
CENTER
 62
     0
 10
5.0
 20
0.0
 30
0.0
 11
169.1134914909
 21
0.0
 31
0.0
  0
ENDBLK
  5
78
  8
0
  0
BLOCK
  8
0
  2
*D6
 70
     1
 10
0.0
 20
0.0
 30
0.0
  3
*D6
  1

  0
SOLID
  5
AD
  8
6
  6
CONTINUOUS
 62
     6
 10
61.7665440318
 20
173.2457602995
 30
0.0
 11
66.7665440318
 21
172.7457602995
 31
0.0
 12
66.7665440318
 22
173.7457602995
 32
0.0
 13
66.7665440318
 23
173.7457602995
 33
0.0
  0
SOLID
  5
AE
  8
6
  6
CONTINUOUS
 62
     6
 10
99.7665440318
 20
173.2457602995
 30
0.0
 11
94.7665440318
 21
173.7457602995
 31
0.0
 12
94.7665440318
 22
172.7457602995
 32
0.0
 13
94.7665440318
 23
172.7457602995
 33
0.0
  0
LINE
  5
AF
  8
6
  6
CONTINUOUS
 62
     6
 10
61.7665440318
 20
156.90504145
 30
0.0
 11
61.7665440318
 21
174.2457602995
 31
0.0
  0
LINE
  5
B0
  8
6
  6
CONTINUOUS
 62
     6
 10
99.7665440318
 20
156.90504145
 30
0.0
 11
99.7665440318
 21
174.2457602995
 31
0.0
  0
LINE
  5
B1
  8
6
  6
CONTINUOUS
 62
     6
 10
61.7665440318
 20
173.2457602995
 30
0.0
 11
99.7665440318
 21
173.2457602995
 31
0.0
  0
TEXT
  5
B2
  8
6
  6
CONTINUOUS
 62
     6
 10
76.8003420756
 20
174.2457601249
 30
0.0
 40
3.5
  1
38
 41
0.7
 11
76.8003420756
 21
173.2457601249
 31
0.0
 73
     1
  0
ENDBLK
  5
AC
  8
0
  0
BLOCK
  8
0
  2
*D7
 70
     1
 10
0.0
 20
0.0
 30
0.0
  3
*D7
  1

  0
SOLID
  5
B8
  8
6
  6
CONTINUOUS
 62
     6
 10
121.292021616
 20
149.7986057492
 30
0.0
 11
121.792021616
 21
154.7986057492
 31
0.0
 12
120.792021616
 22
154.7986057492
 32
0.0
 13
120.792021616
 23
154.7986057492
 33
0.0
  0
SOLID
  5
B9
  8
6
  6
CONTINUOUS
 62
     6
 10
121.292021616
 20
139.2986057492
 30
0.0
 11
120.792021616
 21
134.2986057492
 31
0.0
 12
121.792021616
 22
134.2986057492
 32
0.0
 13
121.792021616
 23
134.2986057492
 33
0.0
  0
LINE
  5
BA
  8
6
  6
CONTINUOUS
 62
     6
 10
109.2665440318
 20
149.7986057492
 30
0.0
 11
122.292021616
 21
149.7986057492
 31
0.0
  0
LINE
  5
BB
  8
6
  6
CONTINUOUS
 62
     6
 10
108.7665440318
 20
139.2986057492
 30
0.0
 11
122.292021616
 21
139.2986057492
 31
0.0
  0
LINE
  5
BC
  8
6
  6
CONTINUOUS
 62
     6
 10
121.292021616
 20
149.7986057492
 30
0.0
 11
121.292021616
 21
159.7986057492
 31
0.0
  0
LINE
  5
BD
  8
6
  6
CONTINUOUS
 62
     6
 10
121.292021616
 20
149.7986057492
 30
0.0
 11
121.292021616
 21
139.2986057492
 31
0.0
  0
LINE
  5
BE
  8
6
  6
CONTINUOUS
 62
     6
 10
121.292021616
 20
139.2986057492
 30
0.0
 11
121.292021616
 21
129.2986057492
 31
0.0
  0
TEXT
  5
BF
  8
6
  6
CONTINUOUS
 62
     6
 10
120.2920217906
 20
142.6833936466
 30
0.0
 40
3.5
  1
10
 50
90.0
 41
0.7
 11
121.2920217906
 21
142.6833936466
 31
0.0
 73
     1
  0
ENDBLK
  5
B7
  8
0
  0
BLOCK
  8
0
  2
*D8
 70
     1
 10
0.0
 20
0.0
 30
0.0
  3
*D8
  1

  0
SOLID
  5
C4
  8
6
  6
CONTINUOUS
 62
     6
 10
57.5165440318
 20
164.5986057492
 30
0.0
 11
52.5165440318
 21
165.0986057492
 31
0.0
 12
52.5165440318
 22
164.0986057492
 32
0.0
 13
52.5165440318
 23
164.0986057492
 33
0.0
  0
SOLID
  5
C5
  8
6
  6
CONTINUOUS
 62
     6
 10
65.9580465678
 20
164.5986057492
 30
0.0
 11
70.9580465678
 21
164.0986057492
 31
0.0
 12
70.9580465678
 22
165.0986057492
 32
0.0
 13
70.9580465678
 23
165.0986057492
 33
0.0
  0
LINE
  5
C6
  8
6
  6
CONTINUOUS
 62
     6
 10
57.5165440318
 20
150.5986057492
 30
0.0
 11
57.5165440318
 21
165.5986057492
 31
0.0
  0
LINE
  5
C7
  8
6
  6
CONTINUOUS
 62
     6
 10
65.9580465678
 20
150.5986057492
 30
0.0
 11
65.9580465678
 21
165.5986057492
 31
0.0
  0
LINE
  5
C8
  8
6
  6
CONTINUOUS
 62
     6
 10
57.5165440318
 20
164.5986057492
 30
0.0
 11
47.5165440318
 21
164.5986057492
 31
0.0
  0
LINE
  5
C9
  8
6
  6
CONTINUOUS
 62
     6
 10
57.5165440318
 20
164.5986057492
 30
0.0
 11
65.9580465678
 21
164.5986057492
 31
0.0
  0
LINE
  5
CA
  8
6
  6
CONTINUOUS
 62
     6
 10
65.9580465678
 20
164.5986057492
 30
0.0
 11
78.6672334709
 21
164.5986057492
 31
0.0
  0
TEXT
  5
CB
  8
6
  6
CONTINUOUS
 62
     6
 10
69.2217623919
 20
165.5986057492
 30
0.0
 40
3.5
  1
%%c
 50
360.0
 41
0.7
 11
69.2217623919
 21
164.5986057492
 31
0.0
 73
     1
  0
TEXT
  5
CC
  8
6
  6
CONTINUOUS
 62
     6
 10
74.4969437045
 20
165.5986055746
 30
0.0
 40
3.5
  1
8
 50
360.0
 41
0.7
 11
74.4969437045
 21
164.5986055746
 31
0.0
 73
     1
  0
ENDBLK
  5
C3
  8
0
  0
BLOCK
  8
0
  2
*D9
 70
     1
 10
0.0
 20
0.0
 30
0.0
  3
*D9
  1

  0
SOLID
  5
D1
  8
6
  6
CONTINUOUS
 62
     6
 10
39.6207099391
 20
149.7986057492
 30
0.0
 11
39.1207099391
 21
144.7986057492
 31
0.0
 12
40.1207099391
 22
144.7986057492
 32
0.0
 13
40.1207099391
 23
144.7986057492
 33
0.0
  0
SOLID
  5
D2
  8
6
  6
CONTINUOUS
 62
     6
 10
39.6207099391
 20
154.5986057492
 30
0.0
 11
40.1207099391
 21
159.5986057492
 31
0.0
 12
39.1207099391
 22
159.5986057492
 32
0.0
 13
39.1207099391
 23
159.5986057492
 33
0.0
  0
LINE
  5
D3
  8
6
  6
CONTINUOUS
 62
     6
 10
52.2665440318
 20
149.7986057492
 30
0.0
 11
38.6207099391
 21
149.7986057492
 31
0.0
  0
LINE
  5
D4
  8
6
  6
CONTINUOUS
 62
     6
 10
58.2665440318
 20
154.5986057492
 30
0.0
 11
38.6207099391
 21
154.5986057492
 31
0.0
  0
LINE
  5
D5
  8
6
  6
CONTINUOUS
 62
     6
 10
39.6207099391
 20
149.7986057492
 30
0.0
 11
39.6207099391
 21
138.6339927144
 31
0.0
  0
LINE
  5
D6
  8
6
  6
CONTINUOUS
 62
     6
 10
39.6207099391
 20
149.7986057492
 30
0.0
 11
39.6207099391
 21
154.5986057492
 31
0.0
  0
LINE
  5
D7
  8
6
  6
CONTINUOUS
 62
     6
 10
39.6207099391
 20
154.5986057492
 30
0.0
 11
39.6207099391
 21
164.5986057492
 31
0.0
  0
TEXT
  5
D8
  8
6
  6
CONTINUOUS
 62
     6
 10
38.6207101137
 20
140.2214927144
 30
0.0
 40
3.5
  1
5
 50
90.0
 41
0.7
 11
39.6207101137
 21
140.2214927144
 31
0.0
 73
     1
  0
ENDBLK
  5
D0
  8
0
  0
BLOCK
  8
0
  2
*D10
 70
     1
 10
0.0
 20
0.0
 30
0.0
  3
*D10
  1

  0
SOLID
  5
DD
  8
6
  6
CONTINUOUS
 62
     6
 10
70.7665440318
 20
119.968389662
 30
0.0
 11
75.7665440318
 21
119.468389662
 31
0.0
 12
75.7665440318
 22
120.468389662
 32
0.0
 13
75.7665440318
 23
120.468389662
 33
0.0
  0
SOLID
  5
DE
  8
6
  6
CONTINUOUS
 62
     6
 10
90.7665440318
 20
119.968389662
 30
0.0
 11
85.7665440318
 21
120.468389662
 31
0.0
 12
85.7665440318
 22
119.468389662
 32
0.0
 13
85.7665440318
 23
119.468389662
 33
0.0
  0
LINE
  5
DF
  8
6
  6
CONTINUOUS
 62
     6
 10
70.7665440318
 20
119.968389662
 30
0.0
 11
51.5889417013
 21
119.968389662
 31
0.0
  0
LINE
  5
E0
  8
6
  6
CONTINUOUS
 62
     6
 10
70.7665440318
 20
119.968389662
 30
0.0
 11
90.7665440318
 21
119.968389662
 31
0.0
  0
TEXT
  5
E1
  8
6
  6
CONTINUOUS
 62
     6
 10
53.1764417013
 20
120.968389662
 30
0.0
 40
3.5
  1
%%c
 41
0.7
 11
53.1764417013
 21
119.968389662
 31
0.0
 73
     1
  0
TEXT
  5
E2
  8
6
  6
CONTINUOUS
 62
     6
 10
58.4516230139
 20
120.9683894874
 30
0.0
 40
3.5
  1
20
 41
0.7
 11
58.4516230139
 21
119.9683894874
 31
0.0
 73
     1
  0
ENDBLK
  5
DC
  8
0
  0
BLOCK
  8
0
  2
*D11
 70
     1
 10
0.0
 20
0.0
 30
0.0
  3
*D11
  1

  0
SOLID
  5
E7
  8
6
  6
CONTINUOUS
 62
     6
 10
225.7629624189
 20
132.7880124387
 30
0.0
 11
220.7629624189
 21
133.2880124387
 31
0.0
 12
220.7629624189
 22
132.2880124387
 32
0.0
 13
220.7629624189
 23
132.2880124387
 33
0.0
  0
SOLID
  5
E8
  8
6
  6
CONTINUOUS
 62
     6
 10
245.7629624189
 20
132.7880124387
 30
0.0
 11
250.7629624189
 21
132.2880124387
 31
0.0
 12
250.7629624189
 22
133.2880124387
 32
0.0
 13
250.7629624189
 23
133.2880124387
 33
0.0
  0
LINE
  5
E9
  8
6
  6
CONTINUOUS
 62
     6
 10
225.7629624189
 20
121.0487970308
 30
0.0
 11
225.7629624189
 21
133.7880124387
 31
0.0
  0
LINE
  5
EA
  8
6
  6
CONTINUOUS
 62
     6
 10
245.7629624189
 20
121.0487970308
 30
0.0
 11
245.7629624189
 21
133.7880124387
 31
0.0
  0
LINE
  5
EB
  8
6
  6
CONTINUOUS
 62
     6
 10
225.7629624189
 20
132.7880124387
 30
0.0
 11
215.7629624189
 21
132.7880124387
 31
0.0
  0
LINE
  5
EC
  8
6
  6
CONTINUOUS
 62
     6
 10
225.7629624189
 20
132.7880124387
 30
0.0
 11
245.7629624189
 21
132.7880124387
 31
0.0
  0
LINE
  5
ED
  8
6
  6
CONTINUOUS
 62
     6
 10
245.7629624189
 20
132.7880124387
 30
0.0
 11
255.7629624189
 21
132.7880124387
 31
0.0
  0
TEXT
  5
EE
  8
6
  6
CONTINUOUS
 62
     6
 10
230.1954352853
 20
133.7880124387
 30
0.0
 40
3.5
  1
%%c
 50
0.0
 41
0.7
 11
230.1954352853
 21
132.7880124387
 31
0.0
 73
     1
  0
TEXT
  5
EF
  8
6
  6
CONTINUOUS
 62
     6
 10
235.4706165979
 20
133.7880122641
 30
0.0
 40
3.5
  1
20
 50
0.0
 41
0.7
 11
235.4706165979
 21
132.7880122641
 31
0.0
 73
     1
  0
ENDBLK
  5
E6
  8
0
  0
BLOCK
  8
0
  2
*D12
 70
     1
 10
0.0
 20
0.0
 30
0.0
  3
*D12
  1

  0
SOLID
  5
115
  8
6
  6
CONTINUOUS
 62
     6
 10
274.3307232794
 20
249.2767891677
 30
0.0
 11
273.8307232794
 21
244.2767891677
 31
0.0
 12
274.8307232794
 22
244.2767891677
 32
0.0
 13
274.8307232794
 23
244.2767891677
 33
0.0
  0
SOLID
  5
116
  8
6
  6
CONTINUOUS
 62
     6
 10
274.3307232794
 20
194.2767891677
 30
0.0
 11
274.8307232794
 21
199.2767891677
 31
0.0
 12
273.8307232794
 22
199.2767891677
 32
0.0
 13
273.8307232794
 23
199.2767891677
 33
0.0
  0
LINE
  5
117
  8
6
  6
CONTINUOUS
 62
     6
 10
288.1307232794
 20
249.2767891677
 30
0.0
 11
273.3307232794
 21
249.2767891677
 31
0.0
  0
LINE
  5
118
  8
6
  6
CONTINUOUS
 62
     6
 10
289.1307232794
 20
194.2767891677
 30
0.0
 11
273.3307232794
 21
194.2767891677
 31
0.0
  0
LINE
  5
119
  8
6
  6
CONTINUOUS
 62
     6
 10
274.3307232794
 20
249.2767891677
 30
0.0
 11
274.3307232794
 21
194.2767891677
 31
0.0
  0
TEXT
  5
11A
  8
6
  6
CONTINUOUS
 62
     6
 10
273.3307232794
 20
216.478334183
 30
0.0
 40
3.5
  1
%%c
 50
90.0
 41
0.7
 11
274.3307232794
 21
216.478334183
 31
0.0
 73
     1
  0
TEXT
  5
11B
  8
6
  6
CONTINUOUS
 62
     6
 10
273.330723454
 20
221.7535154956
 30
0.0
 40
3.5
  1
55
 50
90.0
 41
0.7
 11
274.330723454
 21
221.7535154956
 31
0.0
 73
     1
  0
ENDBLK
  5
114
  8
0
  0
BLOCK
  8
0
  2
*D13
 70
     1
 10
0.0
 20
0.0
 30
0.0
  3
*D13
  1

  0
SOLID
  5
120
  8
6
  6
CONTINUOUS
 62
     6
 10
289.1307232794
 20
184.2767891677
 30
0.0
 11
294.1307232794
 21
183.7767891677
 31
0.0
 12
294.1307232794
 22
184.7767891677
 32
0.0
 13
294.1307232794
 23
184.7767891677
 33
0.0
  0
SOLID
  5
121
  8
6
  6
CONTINUOUS
 62
     6
 10
368.3769503295
 20
184.2767891677
 30
0.0
 11
363.3769503295
 21
184.7767891677
 31
0.0
 12
363.3769503295
 22
183.7767891677
 32
0.0
 13
363.3769503295
 23
183.7767891677
 33
0.0
  0
LINE
  5
122
  8
6
  6
CONTINUOUS
 62
     6
 10
289.1307232794
 20
193.4409153021
 30
0.0
 11
289.1307232794
 21
183.2767891677
 31
0.0
  0
LINE
  5
123
  8
6
  6
CONTINUOUS
 62
     6
 10
368.3769503295
 20
220.7767891677
 30
0.0
 11
368.3769503295
 21
183.2767891677
 31
0.0
  0
LINE
  5
124
  8
6
  6
CONTINUOUS
 62
     6
 10
289.1307232794
 20
184.2767891677
 30
0.0
 11
368.3769503295
 21
184.2767891677
 31
0.0
  0
TEXT
  5
125
  8
6
  6
CONTINUOUS
 62
     6
 10
331.9058358827
 20
185.2767889931
 30
0.0
 40
3.5
  1
79
 50
360.0
 41
0.7
 11
331.9058358827
 21
184.2767889931
 31
0.0
 73
     1
  0
ENDBLK
  5
11F
  8
0
  0
ENDSEC
  0
SECTION
  2
ENTITIES
  0
LINE
  5
34
  8
6
  6
CONTINUOUS
 62
     6
 10
20.0
 20
287.0
 30
0.0
 11
20.0
 21
9.0
 31
0.0
  0
LINE
  5
35
  8
6
  6
CONTINUOUS
 62
     6
 10
20.0
 20
148.5
 30
0.0
 11
13.375265605
 21
148.5
 31
0.0
  0
LINE
  5
36
  8
6
  6
CONTINUOUS
 62
     6
 10
20.0
 20
287.0
 30
0.0
 11
414.5
 21
287.0
 31
0.0
  0
LINE
  5
37
  8
6
  6
CONTINUOUS
 62
     6
 10
20.0
 20
9.0
 30
0.0
 11
414.5
 21
9.0
 31
0.0
  0
LINE
  5
38
  8
6
  6
CONTINUOUS
 62
     6
 10
0.0
 20
297.0
 30
0.0
 11
420.0
 21
297.0
 31
0.0
  0
LINE
  5
39
  8
6
  6
CONTINUOUS
 62
     6
 10
420.0
 20
297.0
 30
0.0
 11
420.0
 21
0.0
 31
0.0
  0
LINE
  5
3A
  8
6
  6
CONTINUOUS
 62
     6
 10
420.0
 20
0.0
 30
0.0
 11
0.0
 21
0.0
 31
0.0
  0
LINE
  5
3B
  8
6
  6
CONTINUOUS
 62
     6
 10
0.0
 20
0.0
 30
0.0
 11
0.0
 21
297.0
 31
0.0
  0
LINE
  5
3C
  8
6
  6
CONTINUOUS
 62
     6
 10
414.5
 20
52.5
 30
0.0
 11
414.5
 21
287.0
 31
0.0
  0
LINE
  5
3D
  8
6
  6
CONTINUOUS
 62
     6
 10
414.5
 20
52.5
 30
0.0
 11
414.5
 21
9.0
 31
0.0
  0
INSERT
  5
44
  8
2
  6
CONTINUOUS
 62
     1
  2
SW_NOTE_0
 10
25.131147541
 20
27.4759448138
 30
0.0
  0
TEXT
  5
45
  8
2
  6
CONTINUOUS
 62
     1
 10
312.7010196007
 20
39.8322418184
 30
0.0
 40
10.0
  1
Modell 
 41
0.7
 11
312.7010196007
 21
36.9750989613
 31
0.0
 73
     1
  0
INSERT
  5
4B
  8
2
  6
CONTINUOUS
 62
     1
  2
SW_NOTE_1
 10
309.7662955082
 20
27.4759448138
 30
0.0
  0
TEXT
  5
4C
  8
2
  6
CONTINUOUS
 62
     1
 10
300.4572681642
 20
14.8988612224
 30
0.0
 40
3.5
  1
Datum/Date 01/2008    Maßstab/Scale 1:1
 41
0.6461538462
 11
300.4572681642
 21
13.8988612224
 31
0.0
 73
     1
  0
LINE
  5
4D
  8
6
  6
CONTINUOUS
 62
     6
 10
70.8165440318
 20
221.7767891677
 30
0.0
 11
70.8165440318
 21
216.7066841324
 31
0.0
  0
LINE
  5
4E
  8
0
  6
CONTINUOUS
 10
80.7665440318
 20
211.7767893913
 30
0.0
 11
100.7641221461
 21
211.7767893913
 31
0.0
  0
LINE
  5
4F
  8
0
  6
CONTINUOUS
 10
100.761419448
 20
231.7767889442
 30
0.0
 11
80.7665440318
 21
231.7767889442
 31
0.0
  0
LINE
  5
50
  8
0
  6
CONTINUOUS
 10
100.7532927272
 20
211.7767893913
 30
0.0
 11
215.7690378901
 21
211.7767893913
 31
0.0
  0
LINE
  5
51
  8
0
  6
CONTINUOUS
 10
215.7690378901
 20
231.7767889442
 30
0.0
 11
100.7532927272
 21
231.7767889442
 31
0.0
  0
POLYLINE
  5
52
  8
0
  6
CONTINUOUS
 66
     1
 10
0.0
 20
0.0
 30
0.0
  0
VERTEX
  5
129
  8
0
  6
CONTINUOUS
 10
235.7334348437
 20
231.7777966352
 30
0.0
  0
VERTEX
  5
12A
  8
0
  6
CONTINUOUS
 10
235.7312294719
 20
231.7777947726
 30
0.0
  0
VERTEX
  5
12B
  8
0
  6
CONTINUOUS
 10
235.6768104312
 20
231.7777528631
 30
0.0
  0
VERTEX
  5
12C
  8
0
  6
CONTINUOUS
 10
235.4997399327
 20
231.7776783573
 30
0.0
  0
VERTEX
  5
12D
  8
0
  6
CONTINUOUS
 10
235.1799908158
 20
231.7775954696
 30
0.0
  0
VERTEX
  5
12E
  8
0
  6
CONTINUOUS
 10
234.7268167016
 20
231.7775125819
 30
0.0
  0
VERTEX
  5
12F
  8
0
  6
CONTINUOUS
 10
234.145850229
 20
231.7774315568
 30
0.0
  0
VERTEX
  5
130
  8
0
  6
CONTINUOUS
 10
233.4415766475
 20
231.7773533257
 30
0.0
  0
VERTEX
  5
131
  8
0
  6
CONTINUOUS
 10
232.6188984391
 20
231.7772788199
 30
0.0
  0
VERTEX
  5
132
  8
0
  6
CONTINUOUS
 10
231.6833886382
 20
231.7772080394
 30
0.0
  0
VERTEX
  5
133
  8
0
  6
CONTINUOUS
 10
230.6413653371
 20
231.7771409842
 30
0.0
  0
VERTEX
  5
134
  8
0
  6
CONTINUOUS
 10
229.499787378
 20
231.7770785855
 30
0.0
  0
VERTEX
  5
135
  8
0
  6
CONTINUOUS
 10
228.266328859
 20
231.7770217749
 30
0.0
  0
VERTEX
  5
136
  8
0
  6
CONTINUOUS
 10
226.9492450234
 20
231.7769705521
 30
0.0
  0
VERTEX
  5
137
  8
0
  6
CONTINUOUS
 10
225.5573424575
 20
231.7769249173
 30
0.0
  0
VERTEX
  5
138
  8
0
  6
CONTINUOUS
 10
224.0999343869
 20
231.7768858018
 30
0.0
  0
VERTEX
  5
139
  8
0
  6
CONTINUOUS
 10
222.5867810723
 20
231.7768522742
 30
0.0
  0
VERTEX
  5
13A
  8
0
  6
CONTINUOUS
 10
221.0280004022
 20
231.7768261971
 30
0.0
  0
VERTEX
  5
13B
  8
0
  6
CONTINUOUS
 10
219.4340231892
 20
231.7768075707
 30
0.0
  0
VERTEX
  5
13C
  8
0
  6
CONTINUOUS
 10
217.8155037639
 20
231.7767945322
 30
0.0
  0
VERTEX
  5
13D
  8
0
  6
CONTINUOUS
 10
216.1832901713
 20
231.7767889442
 30
0.0
  0
VERTEX
  5
13E
  8
0
  6
CONTINUOUS
 10
215.7665493962
 20
231.7767889442
 30
0.0
  0
SEQEND
  5
128
  8
0
  6
CONTINUOUS
  0
POLYLINE
  5
53
  8
0
  6
CONTINUOUS
 66
     1
 10
0.0
 20
0.0
 30
0.0
  0
VERTEX
  5
140
  8
0
  6
CONTINUOUS
 10
215.7665493962
 20
211.7767893913
 30
0.0
  0
VERTEX
  5
141
  8
0
  6
CONTINUOUS
 10
216.6262271878
 20
211.7767903226
 30
0.0
  0
VERTEX
  5
142
  8
0
  6
CONTINUOUS
 10
218.2555797574
 20
211.7767977732
 30
0.0
  0
VERTEX
  5
143
  8
0
  6
CONTINUOUS
 10
219.8686006543
 20
211.776811743
 30
0.0
  0
VERTEX
  5
144
  8
0
  6
CONTINUOUS
 10
221.4542034146
 20
211.7768331634
 30
0.0
  0
VERTEX
  5
145
  8
0
  6
CONTINUOUS
 10
223.0017486092
 20
211.7768611031
 30
0.0
  0
VERTEX
  5
146
  8
0
  6
CONTINUOUS
 10
224.5009246346
 20
211.776895562
 30
0.0
  0
VERTEX
  5
147
  8
0
  6
CONTINUOUS
 10
225.941673207
 20
211.7769365402
 30
0.0
  0
VERTEX
  5
148
  8
0
  6
CONTINUOUS
 10
227.3143830773
 20
211.7769840377
 30
0.0
  0
VERTEX
  5
149
  8
0
  6
CONTINUOUS
 10
228.6098751304
 20
211.7770371231
 30
0.0
  0
VERTEX
  5
14A
  8
0
  6
CONTINUOUS
 10
229.8194768903
 20
211.7770948651
 30
0.0
  0
VERTEX
  5
14B
  8
0
  6
CONTINUOUS
 10
230.9351119277
 20
211.777158195
 30
0.0
  0
VERTEX
  5
14C
  8
0
  6
CONTINUOUS
 10
231.9493147609
 20
211.7772261815
 30
0.0
  0
VERTEX
  5
14D
  8
0
  6
CONTINUOUS
 10
232.8553202626
 20
211.7772988247
 30
0.0
  0
VERTEX
  5
14E
  8
0
  6
CONTINUOUS
 10
233.6470934626
 20
211.7773742618
 30
0.0
  0
VERTEX
  5
14F
  8
0
  6
CONTINUOUS
 10
234.3193742511
 20
211.7774534242
 30
0.0
  0
VERTEX
  5
150
  8
0
  6
CONTINUOUS
 10
234.8677071807
 20
211.7775353806
 30
0.0
  0
VERTEX
  5
151
  8
0
  6
CONTINUOUS
 10
235.2886053798
 20
211.7776191997
 30
0.0
  0
VERTEX
  5
152
  8
0
  6
CONTINUOUS
 10
235.5797591683
 20
211.7777058127
 30
0.0
  0
VERTEX
  5
153
  8
0
  6
CONTINUOUS
 10
235.7426735637
 20
211.777796151
 30
0.0
  0
VERTEX
  5
154
  8
0
  6
CONTINUOUS
 10
235.7748302695
 20
211.7778389918
 30
0.0
  0
VERTEX
  5
155
  8
0
  6
CONTINUOUS
 10
235.7998195168
 20
211.7779097723
 30
0.0
  0
VERTEX
  5
156
  8
0
  6
CONTINUOUS
 10
235.8368191001
 20
211.7781239765
 30
0.0
  0
SEQEND
  5
13F
  8
0
  6
CONTINUOUS
  0
LINE
  5
54
  8
0
  6
CONTINUOUS
 10
245.7629594085
 20
221.7778491399
 30
0.0
 11
245.7629594085
 21
221.778883631
 31
0.0
  0
ARC
  5
55
  8
0
  6
CONTINUOUS
 10
80.7665435777
 20
221.7767887136
 30
0.0
 40
9.999999322364982
 50
179.9999973981
 51
270.0000026019
  0
ARC
  5
56
  8
0
  6
CONTINUOUS
 10
80.7665435777
 20
221.7767896219
 30
0.0
 40
9.999999322364982
 50
89.9999973981
 51
180.0000026019
  0
ARC
  5
57
  8
0
  6
CONTINUOUS
 10
235.7629619289
 20
221.7778467161
 30
0.0
 40
9.999997493711852
 50
270.0030284088
 51
0.0030523988
  0
ARC
  5
58
  8
0
  6
CONTINUOUS
 10
235.7630096211
 20
221.778978421
 30
0.0
 40
9.999905084312001
 50
359.9994830855
 51
90.0033066721
  0
ARC
  5
59
  8
0
  6
CONTINUOUS
 10
80.7665440318
 20
221.7767891677
 30
0.0
 40
27.5
 50
21.3236862635
 51
180.0
  0
ARC
  5
5A
  8
0
  6
CONTINUOUS
 10
80.7665440318
 20
221.7767891677
 30
0.0
 40
27.5
 50
180.0
 51
338.6763137365
  0
ARC
  5
5B
  8
0
  6
CONTINUOUS
 10
80.7665440318
 20
221.7767891677
 30
0.0
 40
10.50000000000001
 50
72.2472098381
 51
287.7527901619
  0
ARC
  5
5C
  8
0
  6
CONTINUOUS
 10
235.762965376
 20
221.7778556886
 30
0.0
 40
9.999994046189387
 50
0.0030009908
 51
90.0030531368
  0
DIMENSION
  5
5D
  8
6
  6
CONTINUOUS
 62
     6
  2
*D3
 10
245.7632189118
 20
184.2773372351
 30
0.0
 11
165.6330937313
 21
184.2767891677
 31
0.0
 70
   160
  3
SLDDIMSTYLE0
 13
70.7665440318
 23
221.7767891677
 33
0.0
 14
245.7629624189
 24
221.7778492993
 34
0.0
 50
0.0003918869
  0
DIMENSION
  5
68
  8
6
  6
CONTINUOUS
 62
     6
  2
*D4
 10
259.6195655331
 20
211.7767891677
 30
0.0
 11
259.6195655331
 21
221.7788363706
 31
0.0
 70
   160
  1
%%c<>
  3
SLDDIMSTYLE1
 13
215.7665440318
 23
231.7767891677
 33
0.0
 14
215.7665440318
 24
211.7767891677
 34
0.0
 50
90.0
  0
INSERT
  5
81
  8
6
  6
CENTER
 62
     6
  2
SW_CENTERMARKSYMBOL_0
 10
80.7665440318
 20
221.7767891677
 30
0.0
  0
LINE
  5
82
  8
6
  6
CONTINUOUS
 62
     6
 10
225.7629624189
 20
120.0487970308
 30
0.0
 11
226.265966085
 21
120.5518007095
 31
0.0
  0
LINE
  5
83
  8
6
  6
CONTINUOUS
 62
     6
 10
245.2629624056
 20
120.5487970568
 30
0.0
 11
245.7629624189
 21
120.0487970308
 31
0.0
  0
LINE
  5
84
  8
6
  6
CENTER
 62
     6
 10
61.7665440318
 20
155.90504145
 30
0.0
 11
61.7665440318
 21
139.2986057492
 31
0.0
  0
LINE
  5
85
  8
6
  6
CENTER
 62
     6
 10
99.7665440318
 20
155.90504145
 30
0.0
 11
99.7665440318
 21
139.2986057492
 31
0.0
  0
ARC
  5
86
  8
6
  6
CENTER
 62
     6
 10
217.8266991302
 20
98.5917198062
 30
0.0
 40
17.93619387592277
 50
270.82237098
 51
0.82237098
  0
LINE
  5
87
  8
0
  6
CONTINUOUS
 10
245.772719669
 20
120.039044896
 30
0.0
 11
245.7629594085
 21
120.048797706
 31
0.0
  0
LINE
  5
88
  8
0
  6
CONTINUOUS
 10
225.7629635808
 20
120.048797706
 30
0.0
 11
225.7532033202
 21
120.039044896
 31
0.0
  0
LINE
  5
89
  8
0
  6
CONTINUOUS
 10
245.7629594085
 20
100.54576678
 30
0.0
 11
245.7629594085
 21
120.0585486534
 31
0.0
  0
LINE
  5
8A
  8
0
  6
CONTINUOUS
 10
225.7629635808
 20
120.0585486534
 30
0.0
 11
225.7629635808
 21
100.54576678
 31
0.0
  0
ARC
  5
8B
  8
0
  6
CONTINUOUS
 10
100.7627710819
 20
100.5486057492
 30
0.0
 40
9.996227050065706
 50
180.0048414782
 51
269.9949506
  0
ARC
  5
8C
  8
0
  6
CONTINUOUS
 10
100.7627710819
 20
100.5486057492
 30
0.0
 40
29.99622705006574
 50
180.0000948415
 51
270.0
  0
LINE
  5
8D
  8
0
  6
CONTINUOUS
 10
100.7532927272
 20
70.5523817035
 30
0.0
 11
215.7690378901
 21
70.5523817035
 31
0.0
  0
LINE
  5
8E
  8
0
  6
CONTINUOUS
 10
215.7690378901
 20
90.5523775312
 30
0.0
 11
100.7532927272
 21
90.5523775312
 31
0.0
  0
LINE
  5
8F
  8
0
  6
CONTINUOUS
 10
70.7665442553
 20
139.2986057492
 30
0.0
 11
70.7665442553
 21
100.5391283127
 31
0.0
  0
LINE
  5
90
  8
0
  6
CONTINUOUS
 10
90.7665438083
 20
100.5391283127
 30
0.0
 11
90.7665438083
 21
139.2986057492
 31
0.0
  0
ARC
  5
91
  8
0
  6
CONTINUOUS
 10
215.7665289498
 20
100.5488121622
 30
0.0
 40
9.996434631038701
 50
270.0001171913
 51
359.9999041607
  0
ARC
  5
92
  8
0
  6
CONTINUOUS
 10
215.7665651425
 20
100.5487759694
 30
0.0
 40
29.99639426595651
 50
269.9999699232
 51
0.0000371925
  0
LINE
  5
93
  8
0
  6
CONTINUOUS
 10
53.2665441808
 20
149.7986056077
 30
0.0
 11
53.2665441808
 21
139.798605773
 31
0.0
  0
LINE
  5
94
  8
0
  6
CONTINUOUS
 10
108.2665438828
 20
139.798605773
 30
0.0
 11
108.2665438828
 21
149.7986056077
 31
0.0
  0
LINE
  5
95
  8
0
  6
CONTINUOUS
 10
53.2665441808
 20
139.798605773
 30
0.0
 11
53.7665433314
 21
139.2986057492
 31
0.0
  0
LINE
  5
96
  8
0
  6
CONTINUOUS
 10
107.7665447322
 20
139.2986057492
 30
0.0
 11
108.2665438828
 21
139.798605773
 31
0.0
  0
LINE
  5
97
  8
0
  6
CONTINUOUS
 10
104.0060616162
 20
149.7986056077
 30
0.0
 11
103.78067224
 21
154.0992912071
 31
0.0
  0
LINE
  5
98
  8
0
  6
CONTINUOUS
 10
57.7524158236
 20
154.0992912071
 30
0.0
 11
57.5270264474
 21
149.7986056077
 31
0.0
  0
LINE
  5
99
  8
0
  6
CONTINUOUS
 10
103.78067224
 20
154.0992912071
 30
0.0
 11
103.2261273888
 21
154.5986058357
 31
0.0
  0
LINE
  5
9A
  8
0
  6
CONTINUOUS
 10
58.3069606748
 20
154.5986058357
 30
0.0
 11
57.7524158236
 21
154.0992912071
 31
0.0
  0
POLYLINE
  5
9B
  8
0
  6
CONTINUOUS
 66
     1
 10
0.0
 20
0.0
 30
0.0
  0
VERTEX
  5
158
  8
0
  6
CONTINUOUS
 10
235.7624623057
 20
120.5482939424
 30
0.0
  0
VERTEX
  5
159
  8
0
  6
CONTINUOUS
 10
237.6158240315
 20
120.5483032557
 30
0.0
  0
VERTEX
  5
15A
  8
0
  6
CONTINUOUS
 10
239.3979880092
 20
120.5483311953
 30
0.0
  0
VERTEX
  5
15B
  8
0
  6
CONTINUOUS
 10
241.0404536006
 20
120.5483777615
 30
0.0
  0
VERTEX
  5
15C
  8
0
  6
CONTINUOUS
 10
242.4801143882
 20
120.5484410914
 30
0.0
  0
VERTEX
  5
15D
  8
0
  6
CONTINUOUS
 10
243.6616423604
 20
120.5485174599
 30
0.0
  0
VERTEX
  5
15E
  8
0
  6
CONTINUOUS
 10
244.5396187779
 20
120.5486050042
 30
0.0
  0
VERTEX
  5
15F
  8
0
  6
CONTINUOUS
 10
245.080322313
 20
120.5486981364
 30
0.0
  0
VERTEX
  5
160
  8
0
  6
CONTINUOUS
 10
245.2629658458
 20
120.5487968566
 30
0.0
  0
VERTEX
  5
161
  8
0
  6
CONTINUOUS
 10
245.0805160281
 20
120.5488955768
 30
0.0
  0
VERTEX
  5
162
  8
0
  6
CONTINUOUS
 10
244.5400062081
 20
120.5489905717
 30
0.0
  0
VERTEX
  5
163
  8
0
  6
CONTINUOUS
 10
243.6622086045
 20
120.5490762534
 30
0.0
  0
VERTEX
  5
164
  8
0
  6
CONTINUOUS
 10
242.4808296439
 20
120.5491526219
 30
0.0
  0
VERTEX
  5
165
  8
0
  6
CONTINUOUS
 10
241.0413029668
 20
120.5492159518
 30
0.0
  0
VERTEX
  5
166
  8
0
  6
CONTINUOUS
 10
239.3989267823
 20
120.5492625179
 30
0.0
  0
VERTEX
  5
167
  8
0
  6
CONTINUOUS
 10
237.6168075082
 20
120.5492904576
 30
0.0
  0
VERTEX
  5
168
  8
0
  6
CONTINUOUS
 10
235.7634606835
 20
120.5492997708
 30
0.0
  0
SEQEND
  5
157
  8
0
  6
CONTINUOUS
  0
POLYLINE
  5
9C
  8
0
  6
CONTINUOUS
 66
     1
 10
0.0
 20
0.0
 30
0.0
  0
VERTEX
  5
16A
  8
0
  6
CONTINUOUS
 10
235.7634606835
 20
120.5492997708
 30
0.0
  0
VERTEX
  5
16B
  8
0
  6
CONTINUOUS
 10
233.9100989577
 20
120.5492904576
 30
0.0
  0
VERTEX
  5
16C
  8
0
  6
CONTINUOUS
 10
232.1279349801
 20
120.5492625179
 30
0.0
  0
VERTEX
  5
16D
  8
0
  6
CONTINUOUS
 10
230.4854693887
 20
120.5492159518
 30
0.0
  0
VERTEX
  5
16E
  8
0
  6
CONTINUOUS
 10
229.0458086011
 20
120.5491526219
 30
0.0
  0
VERTEX
  5
16F
  8
0
  6
CONTINUOUS
 10
227.8642806289
 20
120.5490762534
 30
0.0
  0
VERTEX
  5
170
  8
0
  6
CONTINUOUS
 10
226.9863042113
 20
120.5489905717
 30
0.0
  0
VERTEX
  5
171
  8
0
  6
CONTINUOUS
 10
226.4456006762
 20
120.5488955768
 30
0.0
  0
VERTEX
  5
172
  8
0
  6
CONTINUOUS
 10
226.2629571435
 20
120.5487968566
 30
0.0
  0
VERTEX
  5
173
  8
0
  6
CONTINUOUS
 10
226.4454069611
 20
120.5486981364
 30
0.0
  0
VERTEX
  5
174
  8
0
  6
CONTINUOUS
 10
226.9859167811
 20
120.5486050042
 30
0.0
  0
VERTEX
  5
175
  8
0
  6
CONTINUOUS
 10
227.8637143847
 20
120.5485174599
 30
0.0
  0
VERTEX
  5
176
  8
0
  6
CONTINUOUS
 10
229.0450933453
 20
120.5484410914
 30
0.0
  0
VERTEX
  5
177
  8
0
  6
CONTINUOUS
 10
230.4846200225
 20
120.5483777615
 30
0.0
  0
VERTEX
  5
178
  8
0
  6
CONTINUOUS
 10
232.1270111081
 20
120.5483311953
 30
0.0
  0
VERTEX
  5
179
  8
0
  6
CONTINUOUS
 10
233.9091154811
 20
120.5483032557
 30
0.0
  0
VERTEX
  5
17A
  8
0
  6
CONTINUOUS
 10
235.7624623057
 20
120.5482939424
 30
0.0
  0
SEQEND
  5
169
  8
0
  6
CONTINUOUS
  0
LINE
  5
9D
  8
0
  6
CONTINUOUS
 10
53.2665441808
 20
149.7986056077
 30
0.0
 11
108.2665438828
 21
149.7986056077
 31
0.0
  0
LINE
  5
9E
  8
0
  6
CONTINUOUS
 10
107.7665447322
 20
139.2986057492
 30
0.0
 11
53.7665433314
 21
139.2986057492
 31
0.0
  0
ARC
  5
9F
  8
0
  6
CONTINUOUS
 10
85.6185455274
 20
153.4293608624
 30
0.0
 40
10.66972758325347
 50
340.1057212457
 51
358.0328444823
  0
LINE
  5
A0
  8
0
  6
CONTINUOUS
 10
96.2819851068
 20
153.0631054359
 30
0.0
 11
96.3455450785
 21
154.0992912071
 31
0.0
  0
ARC
  5
A1
  8
0
  6
CONTINUOUS
 10
75.493234224
 20
153.3480337887
 30
0.0
 40
10.24609374644736
 50
181.5935142987
 51
200.2683611987
  0
LINE
  5
A2
  8
0
  6
CONTINUOUS
 10
65.2511029568
 20
153.0631054359
 30
0.0
 11
65.1875429851
 21
154.0992912071
 31
0.0
  0
LINE
  5
A3
  8
0
  6
CONTINUOUS
 10
97.0172307518
 20
154.5986058357
 30
0.0
 11
103.2261273888
 21
154.5986058357
 31
0.0
  0
LINE
  5
A4
  8
0
  6
CONTINUOUS
 10
96.3455450785
 20
154.0992912071
 30
0.0
 11
97.0172307518
 21
154.5986058357
 31
0.0
  0
LINE
  5
A5
  8
0
  6
CONTINUOUS
 10
58.3069606748
 20
154.5986058357
 30
0.0
 11
64.5158573118
 21
154.5986058357
 31
0.0
  0
LINE
  5
A6
  8
0
  6
CONTINUOUS
 10
64.5158573118
 20
154.5986058357
 30
0.0
 11
65.1875429851
 21
154.0992912071
 31
0.0
  0
LINE
  5
A7
  8
0
  6
CONTINUOUS
 10
63.1230103847
 20
154.5986058357
 30
0.0
 11
64.5158573118
 21
154.5986058357
 31
0.0
  0
LINE
  5
A8
  8
0
  6
CONTINUOUS
 10
98.4100776789
 20
154.5986058357
 30
0.0
 11
97.0172307518
 21
154.5986058357
 31
0.0
  0
DIMENSION
  5
A9
  8
6
  6
CONTINUOUS
 62
     6
  2
*D6
 10
99.7665440318
 20
173.2457602995
 30
0.0
 11
79.3855144894
 21
173.2457602995
 31
0.0
 70
   160
  3
SLDDIMSTYLE1
 13
61.7665440318
 23
155.90504145
 33
0.0
 14
99.7665440318
 24
155.90504145
 34
0.0
  0
DIMENSION
  5
B3
  8
6
  6
CONTINUOUS
 62
     6
  2
*D7
 10
121.292021616
 20
139.2986057492
 30
0.0
 11
121.292021616
 21
145.2685660604
 31
0.0
 70
   160
  1
10
  3
SLDDIMSTYLE2
 13
108.2665440318
 23
149.7986057492
 33
0.0
 14
107.7665440318
 24
139.2986057492
 34
0.0
 50
90.0
  0
DIMENSION
  5
C0
  8
6
  6
CONTINUOUS
 62
     6
  2
*D8
 10
65.9580465678
 20
164.5986057492
 30
0.0
 11
73.1507479314
 21
164.5986057492
 31
0.0
 70
   160
  1
%%c<>
  3
SLDDIMSTYLE0
 13
57.5165440318
 23
149.5986057492
 33
0.0
 14
65.9580465678
 24
149.5986057492
 34
0.0
  0
DIMENSION
  5
CD
  8
6
  6
CONTINUOUS
 62
     6
  2
*D9
 10
39.6207099391
 20
154.5986057492
 30
0.0
 11
39.6207099391
 21
141.5128875976
 31
0.0
 70
   160
  3
SLDDIMSTYLE0
 13
53.2665440318
 23
149.7986057492
 33
0.0
 14
59.2665440318
 24
154.5986057492
 34
0.0
 50
90.0
  0
DIMENSION
  5
D9
  8
6
  6
CONTINUOUS
 62
     6
  2
*D10
 10
90.7665440318
 20
119.968389662
 30
0.0
 11
58.3992047714
 21
119.968389662
 31
0.0
 70
   160
  1
%%c<>
  3
SLDDIMSTYLE1
 13
70.7665440318
 23
100.5486057492
 33
0.0
 14
90.7665440318
 24
100.5486057492
 34
0.0
  0
DIMENSION
  5
E3
  8
6
  6
CONTINUOUS
 62
     6
  2
*D11
 10
245.7629624189
 20
132.7880124387
 30
0.0
 11
235.4181983554
 21
132.7880124387
 31
0.0
 70
   160
  1
%%c<>
  3
SLDDIMSTYLE1
 13
225.7629624189
 23
120.0487970308
 33
0.0
 14
245.7629624189
 24
120.0487970308
 34
0.0
 50
0.0
  0
LINE
  5
F0
  8
6
  6
CENTER
 62
     6
 10
99.7665440318
 20
147.5986057492
 30
0.0
 11
99.7665440318
 21
156.0992909819
 31
0.0
  0
LINE
  5
F1
  8
6
  6
CENTER
 62
     6
 10
61.7665440318
 20
147.5986057492
 30
0.0
 11
61.7665440318
 21
156.0992909819
 31
0.0
  0
LINE
  5
F2
  8
6
  6
CENTER
 62
     6
 10
217.7665440318
 20
80.5523786992
 30
0.0
 11
98.7627710819
 21
80.5523786992
 31
0.0
  0
LINE
  5
F3
  8
6
  6
CENTER
 62
     6
 10
235.7629624189
 20
122.0487970308
 30
0.0
 11
235.7629624189
 21
98.5487970582
 31
0.0
  0
LINE
  5
F4
  8
6
  6
CENTER
 62
     6
 10
80.7665440318
 20
100.5486057492
 30
0.0
 11
80.7665440318
 21
152.7896795987
 31
0.0
  0
ARC
  5
F5
  8
6
  6
CENTER
 62
     6
 10
100.7627710819
 20
100.5486057492
 30
0.0
 40
19.99622705006574
 50
180.0
 51
270.0
  0
LINE
  5
F6
  8
0
  6
CONTINUOUS
 10
299.6307232794
 20
211.7767893913
 30
0.0
 11
338.3820758578
 21
211.7767893913
 31
0.0
  0
LINE
  5
F7
  8
0
  6
CONTINUOUS
 10
338.3793712971
 20
231.7767889442
 30
0.0
 11
299.6307232794
 21
231.7767889442
 31
0.0
  0
LINE
  5
F8
  8
0
  6
CONTINUOUS
 10
338.3820758578
 20
211.7767893913
 30
0.0
 11
358.3769494113
 21
211.7767893913
 31
0.0
  0
LINE
  5
F9
  8
0
  6
CONTINUOUS
 10
358.3769494113
 20
231.7767889442
 30
0.0
 11
338.3793712971
 21
231.7767889442
 31
0.0
  0
POLYLINE
  5
FA
  8
0
  6
CONTINUOUS
 66
     1
 10
0.0
 20
0.0
 30
0.0
  0
VERTEX
  5
17C
  8
0
  6
CONTINUOUS
 10
358.3774821278
 20
231.7767889442
 30
0.0
  0
VERTEX
  5
17D
  8
0
  6
CONTINUOUS
 10
358.3013818976
 20
231.7767936008
 30
0.0
  0
VERTEX
  5
17E
  8
0
  6
CONTINUOUS
 10
358.0736623523
 20
231.776805708
 30
0.0
  0
VERTEX
  5
17F
  8
0
  6
CONTINUOUS
 10
357.696059477
 20
231.7768252658
 30
0.0
  0
VERTEX
  5
180
  8
0
  6
CONTINUOUS
 10
357.1714454707
 20
231.7768532055
 30
0.0
  0
VERTEX
  5
181
  8
0
  6
CONTINUOUS
 10
356.5038138446
 20
231.7768885957
 30
0.0
  0
VERTEX
  5
182
  8
0
  6
CONTINUOUS
 10
355.6982421693
 20
231.7769314366
 30
0.0
  0
VERTEX
  5
183
  8
0
  6
CONTINUOUS
 10
354.760865998
 20
231.7769807967
 30
0.0
  0
VERTEX
  5
184
  8
0
  6
CONTINUOUS
 10
353.6988192615
 20
231.7770376073
 30
0.0
  0
VERTEX
  5
185
  8
0
  6
CONTINUOUS
 10
352.5201858398
 20
231.777100006
 30
0.0
  0
VERTEX
  5
186
  8
0
  6
CONTINUOUS
 10
351.233936232
 20
231.7771679925
 30
0.0
  0
VERTEX
  5
187
  8
0
  6
CONTINUOUS
 10
349.849860501
 20
231.777241567
 30
0.0
  0
VERTEX
  5
188
  8
0
  6
CONTINUOUS
 10
348.3784900424
 20
231.7773188668
 30
0.0
  0
VERTEX
  5
189
  8
0
  6
CONTINUOUS
 10
346.8310268041
 20
231.7774017545
 30
0.0
  0
VERTEX
  5
18A
  8
0
  6
CONTINUOUS
 10
345.2192501542
 20
231.7774865048
 30
0.0
  0
VERTEX
  5
18B
  8
0
  6
CONTINUOUS
 10
343.5554274735
 20
231.7775749805
 30
0.0
  0
VERTEX
  5
18C
  8
0
  6
CONTINUOUS
 10
341.8522210237
 20
231.7776653188
 30
0.0
  0
VERTEX
  5
18D
  8
0
  6
CONTINUOUS
 10
340.1225910899
 20
231.7777565884
 30
0.0
  0
VERTEX
  5
18E
  8
0
  6
CONTINUOUS
 10
338.3797102985
 20
231.7778497206
 30
0.0
  0
SEQEND
  5
17B
  8
0
  6
CONTINUOUS
  0
LINE
  5
FB
  8
0
  6
CONTINUOUS
 10
338.3835622486
 20
231.7778487893
 30
0.0
 11
318.8707803753
 21
231.7788834887
 31
0.0
  0
LINE
  5
FC
  8
0
  6
CONTINUOUS
 10
318.8902841327
 20
231.7881035822
 30
0.0
 11
318.8789685634
 21
231.7767889442
 31
0.0
  0
LINE
  5
FD
  8
0
  6
CONTINUOUS
 10
318.8820959446
 20
211.7767893913
 30
0.0
 11
318.8897532788
 21
211.7691311257
 31
0.0
  0
LINE
  5
FE
  8
0
  6
CONTINUOUS
 10
290.1307235849
 20
194.2767893167
 30
0.0
 11
299.1307232557
 21
194.2767893167
 31
0.0
  0
LINE
  5
FF
  8
0
  6
CONTINUOUS
 10
299.1307232557
 20
249.2767890187
 30
0.0
 11
289.130723421
 21
249.2767890187
 31
0.0
  0
LINE
  5
100
  8
0
  6
CONTINUOUS
 10
299.1307232557
 20
194.2767893167
 30
0.0
 11
299.6307232794
 21
194.7767884674
 31
0.0
  0
LINE
  5
101
  8
0
  6
CONTINUOUS
 10
299.6307232794
 20
248.7767898681
 30
0.0
 11
299.1307232557
 21
249.2767890187
 31
0.0
  0
LINE
  5
102
  8
0
  6
CONTINUOUS
 10
289.130723421
 20
226.0163078288
 30
0.0
 11
284.8300378215
 21
225.7909184525
 31
0.0
  0
LINE
  5
103
  8
0
  6
CONTINUOUS
 10
284.8300378215
 20
217.762659883
 30
0.0
 11
289.130723421
 21
217.5372705067
 31
0.0
  0
LINE
  5
104
  8
0
  6
CONTINUOUS
 10
284.8300378215
 20
225.7909184525
 30
0.0
 11
284.330723193
 21
225.2363731357
 31
0.0
  0
LINE
  5
105
  8
0
  6
CONTINUOUS
 10
284.330723193
 20
218.3172051998
 30
0.0
 11
284.8300378215
 21
217.762659883
 31
0.0
  0
ARC
  5
106
  8
0
  6
CONTINUOUS
 10
358.3769523632
 20
221.7767939822
 30
0.0
 40
9.999994961974474
 50
359.9999724149
 51
90.0000169129
  0
ARC
  5
107
  8
0
  6
CONTINUOUS
 10
358.3769523632
 20
221.7767843532
 30
0.0
 40
9.999994961974474
 50
269.9999830871
 51
0.0000275851
  0
LINE
  5
108
  8
0
  6
CONTINUOUS
 10
290.1307235849
 20
194.2767893167
 30
0.0
 11
290.1307235849
 21
194.4409144314
 31
0.0
  0
LINE
  5
109
  8
0
  6
CONTINUOUS
 10
290.1307235849
 20
194.4409144314
 30
0.0
 11
289.130723421
 21
194.4409144314
 31
0.0
  0
LINE
  5
10A
  8
0
  6
CONTINUOUS
 10
289.130723421
 20
194.4409144314
 30
0.0
 11
289.130723421
 21
249.2767890187
 31
0.0
  0
LINE
  5
10B
  8
0
  6
CONTINUOUS
 10
299.6307232794
 20
221.7767891677
 30
0.0
 11
299.6307232794
 21
194.7767884674
 31
0.0
  0
LINE
  5
10C
  8
0
  6
CONTINUOUS
 10
299.6307232794
 20
248.7767898681
 30
0.0
 11
299.6307232794
 21
221.7767891677
 31
0.0
  0
LINE
  5
10D
  8
0
  6
CONTINUOUS
 10
289.130723421
 20
194.4409144314
 30
0.0
 11
289.130723421
 21
195.6484523805
 31
0.0
  0
LINE
  5
10E
  8
0
  6
CONTINUOUS
 10
284.330723193
 20
218.3172051998
 30
0.0
 11
284.330723193
 21
225.2363731357
 31
0.0
  0
LINE
  5
10F
  8
0
  6
CONTINUOUS
 10
284.330723193
 20
219.6767892426
 30
0.0
 11
284.330723193
 21
219.2767892236
 31
0.0
  0
LINE
  5
110
  8
0
  6
CONTINUOUS
 10
284.330723193
 20
224.2767891119
 30
0.0
 11
284.330723193
 21
223.8767890929
 31
0.0
  0
DIMENSION
  5
111
  8
6
  6
CONTINUOUS
 62
     6
  2
*D12
 10
274.3307232794
 20
194.2767891677
 30
0.0
 11
274.3307232794
 21
221.7010972531
 31
0.0
 70
   160
  1
%%c<>
  3
SLDDIMSTYLE1
 13
289.1307232794
 23
249.2767891677
 33
0.0
 14
290.1307232794
 24
194.2767891677
 34
0.0
 50
90.0
  0
DIMENSION
  5
11C
  8
6
  6
CONTINUOUS
 62
     6
  2
*D13
 10
368.3769503295
 20
184.2767891677
 30
0.0
 11
334.4910082965
 21
184.2767891677
 31
0.0
 70
   160
  3
SLDDIMSTYLE0
 13
289.1307232794
 23
194.4409153021
 33
0.0
 14
368.3769503295
 24
221.7767891677
 34
0.0
 50
0.0
  0
TEXT
  5
126
  8
2
  6
CONTINUOUS
 62
     1
 10
363.0986349975
 20
39.4743953887
 30
0.0
 40
10.0
  1
532
 41
0.7
 11
363.0986349975
 21
36.6172525316
 31
0.0
 73
     1
  0
LINE
  5
127
  8
6
  6
CENTER
 62
     6
 10
282.4865253398
 20
221.7767891699
 30
0.0
 11
370.8011544232
 21
221.7767891576
 31
0.0
  0
ENDSEC
  0
EOF
