  0
SECTION
  2
HEADER
  9
$ACADVER
  1
AC1009
  9
$DWGCODEPAGE
  3
ansi_1252
  9
$INSBASE
 10
0.0
 20
0.0
 30
0.0
  9
$EXTMIN
 10
0.0
 20
0.0
 30
0.0
  9
$EXTMAX
 10
420.0
 20
297.0
 30
0.0
  9
$LIMMIN
 10
0.0
 20
0.0
  9
$LIMMAX
 10
0.0
 20
0.0
  9
$ORTHOMODE
 70
     0
  9
$REGENMODE
 70
     1
  9
$FILLMODE
 70
     1
  9
$QTEXTMODE
 70
     0
  9
$MIRRTEXT
 70
     1
  9
$DRAGMODE
 70
     2
  9
$LTSCALE
 40
1.0
  9
$OSMODE
 70
    37
  9
$ATTMODE
 70
     1
  9
$TEXTSIZE
 40
3.5
  9
$TRACEWID
 40
1.0
  9
$TEXTSTYLE
  7
STANDARD
  9
$CLAYER
  8
0
  9
$CELTYPE
  6
BYLAYER
  9
$CECOLOR
 62
   256
  9
$DIMSCALE
 40
1.0
  9
$DIMASZ
 40
5.0
  9
$DIMEXO
 40
1.0
  9
$DIMDLI
 40
3.75
  9
$DIMRND
 40
0.0
  9
$DIMDLE
 40
0.0
  9
$DIMEXE
 40
1.0
  9
$DIMTP
 40
0.0
  9
$DIMTM
 40
0.0
  9
$DIMTXT
 40
3.5
  9
$DIMCEN
 40
2.5
  9
$DIMTSZ
 40
0.0
  9
$DIMTOL
 70
     0
  9
$DIMLIM
 70
     0
  9
$DIMTIH
 70
     1
  9
$DIMTOH
 70
     1
  9
$DIMSE1
 70
     0
  9
$DIMSE2
 70
     0
  9
$DIMTAD
 70
     1
  9
$DIMZIN
 70
     0
  9
$DIMBLK
  1

  9
$DIMASO
 70
     1
  9
$DIMSHO
 70
     1
  9
$DIMPOST
  1

  9
$DIMAPOST
  1

  9
$DIMALT
 70
     0
  9
$DIMALTD
 70
     3
  9
$DIMALTF
 40
0.0393700787
  9
$DIMLFAC
 40
1.0
  9
$DIMTOFL
 70
     1
  9
$DIMTVP
 40
0.0
  9
$DIMTIX
 70
     0
  9
$DIMSOXD
 70
     0
  9
$DIMSAH
 70
     0
  9
$DIMBLK1
  1

  9
$DIMBLK2
  1

  9
$DIMSTYLE
  2
ISO-25
  9
$DIMCLRD
 70
     0
  9
$DIMCLRE
 70
     0
  9
$DIMCLRT
 70
     0
  9
$DIMTFAC
 40
1.0
  9
$DIMGAP
 40
1.524
  9
$LUNITS
 70
     2
  9
$LUPREC
 70
     2
  9
$SKETCHINC
 40
1.0
  9
$FILLETRAD
 40
10.0
  9
$AUNITS
 70
     0
  9
$AUPREC
 70
     0
  9
$MENU
  1
.
  9
$ELEVATION
 40
0.0
  9
$PELEVATION
 40
0.0
  9
$THICKNESS
 40
0.0
  9
$LIMCHECK
 70
     0
  9
$CHAMFERA
 40
10.0
  9
$CHAMFERB
 40
10.0
  9
$SKPOLY
 70
     0
  9
$TDCREATE
 40
2454490.54614294
  9
$TDUPDATE
 40
2454490.546142952
  9
$TDINDWG
 40
0.0000000116
  9
$TDUSRTIMER
 40
0.0000000116
  9
$USRTIMER
 70
     1
  9
$ANGBASE
 50
0.0
  9
$ANGDIR
 70
     0
  9
$PDMODE
 70
     0
  9
$PDSIZE
 40
-1.0
  9
$PLINEWID
 40
0.0
  9
$COORDS
 70
     1
  9
$SPLFRAME
 70
     0
  9
$SPLINETYPE
 70
     6
  9
$SPLINESEGS
 70
     8
  9
$ATTDIA
 70
     0
  9
$ATTREQ
 70
     1
  9
$HANDLING
 70
     1
  9
$HANDSEED
  5
11E
  9
$SURFTAB1
 70
     6
  9
$SURFTAB2
 70
     6
  9
$SURFTYPE
 70
     6
  9
$SURFU
 70
     6
  9
$SURFV
 70
     6
  9
$UCSNAME
  2

  9
$UCSORG
 10
0.0
 20
0.0
 30
0.0
  9
$UCSXDIR
 10
1.0
 20
0.0
 30
0.0
  9
$UCSYDIR
 10
0.0
 20
1.0
 30
0.0
  9
$PUCSNAME
  2

  9
$PUCSORG
 10
0.0
 20
0.0
 30
0.0
  9
$PUCSXDIR
 10
1.0
 20
0.0
 30
0.0
  9
$PUCSYDIR
 10
0.0
 20
1.0
 30
0.0
  9
$USERI1
 70
     0
  9
$USERI2
 70
     0
  9
$USERI3
 70
     0
  9
$USERI4
 70
     0
  9
$USERI5
 70
     0
  9
$USERR1
 40
0.0
  9
$USERR2
 40
0.0
  9
$USERR3
 40
0.0
  9
$USERR4
 40
0.0
  9
$USERR5
 40
0.0
  9
$WORLDVIEW
 70
     1
  9
$SHADEDGE
 70
     3
  9
$SHADEDIF
 70
    70
  9
$TILEMODE
 70
     1
  9
$MAXACTVP
 70
    64
  9
$PLIMCHECK
 70
     0
  9
$PEXTMIN
 10
1.0000000000E+20
 20
1.0000000000E+20
 30
1.0000000000E+20
  9
$PEXTMAX
 10
-1.0000000000E+20
 20
-1.0000000000E+20
 30
-1.0000000000E+20
  9
$PLIMMIN
 10
0.0
 20
0.0
  9
$PLIMMAX
 10
420.0
 20
297.0
  9
$UNITMODE
 70
     0
  9
$VISRETAIN
 70
     1
  9
$PLINEGEN
 70
     0
  9
$PSLTSCALE
 70
     1
  0
ENDSEC
  0
SECTION
  2
TABLES
  0
TABLE
  2
VPORT
 70
     1
  0
VPORT
  2
*ACTIVE
 70
     0
 10
0.0
 20
0.0
 11
1.0
 21
1.0
 12
210.0
 22
148.5
 13
0.0
 23
0.0
 14
10.0
 24
10.0
 15
10.0
 25
10.0
 16
0.0
 26
0.0
 36
1.0
 17
0.0
 27
0.0
 37
0.0
 40
297.0
 41
1.4141414141
 42
50.0
 43
0.0
 44
0.0
 50
0.0
 51
0.0
 71
     0
 72
  2000
 73
     1
 74
     3
 75
     0
 76
     0
 77
     0
 78
     0
  0
ENDTAB
  0
TABLE
  2
LTYPE
 70
     6
  0
LTYPE
  2
CONTINUOUS
 70
     0
  3
Solid line
 72
    65
 73
     0
 40
0.0
  0
LTYPE
  2
HIDDEN
 70
     0
  3
Hidden __ __ __ __ __ __ __ __ __ __ __ __ __ __
 72
    65
 73
     2
 40
1.905
 49
1.27
 49
-0.635
  0
LTYPE
  2
PHANTOM
 70
     0
  3
Phantom ______  __  __  ______  __  __  ______
 72
    65
 73
     6
 40
12.7
 49
6.35
 49
-1.27
 49
1.27
 49
-1.27
 49
1.27
 49
-1.27
  0
LTYPE
  2
CENTER
 70
     0
  3
Center ____ _ ____ _ ____ _ ____ _ ____ _ ____
 72
    65
 73
     4
 40
10.16
 49
6.35
 49
-1.27
 49
1.27
 49
-1.27
  0
LTYPE
  2
CENTERX2
 70
     0
  3
Center (2x) ________  __  ________  __  _____
 72
    65
 73
     4
 40
20.32
 49
12.7
 49
-2.54
 49
2.54
 49
-2.54
  0
LTYPE
  2
DOT2
 70
     0
  3
Dot (.5x) ........................................
 72
    65
 73
     2
 40
0.635
 49
0.0
 49
-0.635
  0
ENDTAB
  0
TABLE
  2
LAYER
 70
     6
  0
LAYER
  2
0
 70
     0
 62
     7
  6
CONTINUOUS
  0
LAYER
  2
DEFPOINTS
 70
     0
 62
     7
  6
CONTINUOUS
  0
LAYER
  2
7
 70
     0
 62
     7
  6
CONTINUOUS
  0
LAYER
  2
1
 70
     0
 62
     1
  6
CONTINUOUS
  0
LAYER
  2
2
 70
     0
 62
     2
  6
PHANTOM
  0
LAYER
  2
6
 70
     0
 62
     6
  6
CONTINUOUS
  0
ENDTAB
  0
TABLE
  2
STYLE
 70
     1
  0
STYLE
  2
STANDARD
 70
     0
 40
0.0
 41
1.0
 50
0.0
 71
     0
 42
2.5
  3
txt
  4

  0
ENDTAB
  0
TABLE
  2
VIEW
 70
     0
  0
ENDTAB
  0
TABLE
  2
UCS
 70
     0
  0
ENDTAB
  0
TABLE
  2
APPID
 70
     1
  0
APPID
  2
ACAD
 70
     0
  0
ENDTAB
  0
TABLE
  2
DIMSTYLE
 70
     4
  0
DIMSTYLE
  2
ISO-25
 70
     0
  3

  4

  5

  6

  7

 40
1.0
 41
2.5
 42
0.625
 43
3.75
 44
1.25
 45
0.0
 46
0.0
 47
0.0
 48
0.0
140
2.5
141
2.5
142
0.0
143
0.0393700787
144
1.0
145
0.0
146
1.0
147
0.625
 71
     0
 72
     0
 73
     0
 74
     0
 75
     0
 76
     0
 77
     1
 78
     8
170
     0
171
     3
172
     1
173
     0
174
     0
175
     0
176
     0
177
     0
178
     0
  0
DIMSTYLE
  2
SLDDIMSTYLE0
 70
     0
  3

  4

  5

  6

  7

 40
1.0
 41
5.0
 42
0.0625
 43
0.38
 44
0.0
 45
0.0
 46
0.0
 47
0.0
 48
0.0
140
3.5
141
0.09
142
0.0
143
25.4
144
1.0
145
0.0
146
1.0
147
0.875
 71
     0
 72
     0
 73
     0
 74
     1
 75
     0
 76
     0
 77
     1
 78
    12
170
     0
171
     2
172
     0
173
     1
174
     0
175
     0
176
     0
177
     0
178
     0
  0
DIMSTYLE
  2
SLDDIMSTYLE1
 70
     0
  3

  4

  5

  6

  7

 40
1.0
 41
5.0
 42
0.0625
 43
0.38
 44
0.0
 45
0.0
 46
0.0
 47
0.0
 48
0.0
140
3.5
141
0.09
142
0.0
143
25.4
144
1.0
145
0.0
146
1.0
147
0.875
 71
     0
 72
     0
 73
     0
 74
     1
 75
     0
 76
     0
 77
     1
 78
    12
170
     0
171
     2
172
     0
173
     1
174
     0
175
     0
176
     0
177
     0
178
     0
  0
DIMSTYLE
  2
SLDDIMSTYLE2
 70
     0
  3

  4

  5

  6

  7

 40
1.0
 41
5.0
 42
0.0625
 43
0.38
 44
0.0
 45
0.0
 46
0.0
 47
0.0
 48
0.0
140
3.5
141
0.09
142
0.0
143
25.4
144
1.0
145
0.0
146
1.0
147
0.875
 71
     0
 72
     0
 73
     0
 74
     1
 75
     0
 76
     0
 77
     1
 78
    12
170
     0
171
     2
172
     0
173
     1
174
     0
175
     0
176
     0
177
     0
178
     0
  0
ENDTAB
  0
ENDSEC
  0
SECTION
  2
BLOCKS
  0
BLOCK
  8
0
  2
$MODEL_SPACE
 70
     0
 10
0.0
 20
0.0
 30
0.0
  3
$MODEL_SPACE
  1

  0
ENDBLK
  5
21
  8
0
  0
BLOCK
 67
     1
  8
0
  2
$PAPER_SPACE
 70
     0
 10
0.0
 20
0.0
 30
0.0
  3
$PAPER_SPACE
  1

  0
ENDBLK
  5
1D
 67
     1
  8
0
  0
BLOCK
  8
0
  2
SW_NOTE_0
 70
     0
 10
0.0
 20
0.0
 30
0.0
  3
SW_NOTE_0
  1

  0
TEXT
  5
42
  8
2
  6
CONTINUOUS
 62
     0
 10
0.0
 20
1.0
 30
0.0
 40
3.5
  1
Diese Zeichnung ist gemäß Urheberrecht gesetzlich geschützt
 41
0.6644067797
 11
0.0
 21
0.0
 31
0.0
 73
     1
  0
TEXT
  5
43
  8
2
  6
CONTINUOUS
 62
     0
 10
0.0
 20
-8.0513890609
 30
0.0
 40
3.5
  1
This drawing is protected under copyright law; unauthorizid disclosure,
 41
0.6605633803
 11
0.0
 21
-9.0513890609
 31
0.0
 73
     1
  0
TEXT
  5
44
  8
2
  6
CONTINUOUS
 62
     0
 10
0.0
 20
-12.5770835914
 30
0.0
 40
3.5
  1
reprodution or use is prohibted.
 41
0.65625
 11
0.0
 21
-13.5770835914
 31
0.0
 73
     1
  0
ENDBLK
  5
41
  8
0
  0
BLOCK
  8
0
  2
SW_NOTE_1
 70
     0
 10
0.0
 20
0.0
 30
0.0
  3
SW_NOTE_1
  1

  0
TEXT
  5
4A
  8
2
  6
CONTINUOUS
 62
     0
 10
0.0
 20
1.0
 30
0.0
 40
3.5
  1
Vieler International GmbH+Co.KG
 41
0.6774193548
 11
0.0
 21
0.0
 31
0.0
 73
     1
  0
TEXT
  5
4B
  8
2
  6
CONTINUOUS
 62
     0
 10
22.5458340719
 20
-3.5256945305
 30
0.0
 40
3.5
  1
58642 Iserlohn
 41
0.7
 11
22.5458340719
 21
-4.5256945305
 31
0.0
 73
     1
  0
ENDBLK
  5
49
  8
0
  0
BLOCK
  8
0
  2
*D3
 70
     1
 10
0.0
 20
0.0
 30
0.0
  3
*D3
  1

  0
SOLID
  5
5D
  8
6
  6
CONTINUOUS
 62
     6
 10
77.160142393
 20
175.683444378
 30
0.0
 11
82.160142393
 21
175.083444378
 31
0.0
 12
82.160142393
 22
176.283444378
 32
0.0
 13
82.160142393
 23
176.283444378
 33
0.0
  0
SOLID
  5
5E
  8
6
  6
CONTINUOUS
 62
     6
 10
212.160142393
 20
175.683444378
 30
0.0
 11
207.160142393
 21
176.283444378
 31
0.0
 12
207.160142393
 22
175.083444378
 32
0.0
 13
207.160142393
 23
175.083444378
 33
0.0
  0
LINE
  5
5F
  8
6
  6
CONTINUOUS
 62
     6
 10
77.160142393
 20
218.183444378
 30
0.0
 11
77.160142393
 21
174.683444378
 31
0.0
  0
LINE
  5
60
  8
6
  6
CONTINUOUS
 62
     6
 10
212.160142393
 20
206.183444378
 30
0.0
 11
212.160142393
 21
174.683444378
 31
0.0
  0
LINE
  5
61
  8
6
  6
CONTINUOUS
 62
     6
 10
77.160142393
 20
175.683444378
 30
0.0
 11
212.160142393
 21
175.683444378
 31
0.0
  0
TEXT
  5
62
  8
6
  6
CONTINUOUS
 62
     6
 10
146.4645660038
 20
176.6834442034
 30
0.0
 40
3.5
  1
135
 41
0.7
 11
146.4645660038
 21
175.6834442034
 31
0.0
 73
     1
  0
ENDBLK
  5
5C
  8
0
  0
BLOCK
  8
0
  2
*D4
 70
     1
 10
0.0
 20
0.0
 30
0.0
  3
*D4
  1

  0
SOLID
  5
67
  8
6
  6
CONTINUOUS
 62
     6
 10
228.160142393
 20
231.683444378
 30
0.0
 11
228.760142393
 21
236.683444378
 31
0.0
 12
227.560142393
 22
236.683444378
 32
0.0
 13
227.560142393
 23
236.683444378
 33
0.0
  0
SOLID
  5
68
  8
6
  6
CONTINUOUS
 62
     6
 10
228.160142393
 20
206.683444378
 30
0.0
 11
227.560142393
 21
201.683444378
 31
0.0
 12
228.760142393
 22
201.683444378
 32
0.0
 13
228.760142393
 23
201.683444378
 33
0.0
  0
LINE
  5
69
  8
6
  6
CONTINUOUS
 62
     6
 10
212.660142393
 20
231.683444378
 30
0.0
 11
229.160142393
 21
231.683444378
 31
0.0
  0
LINE
  5
6A
  8
6
  6
CONTINUOUS
 62
     6
 10
212.660142393
 20
206.683444378
 30
0.0
 11
229.160142393
 21
206.683444378
 31
0.0
  0
LINE
  5
6B
  8
6
  6
CONTINUOUS
 62
     6
 10
228.160142393
 20
231.683444378
 30
0.0
 11
228.160142393
 21
241.683444378
 31
0.0
  0
LINE
  5
6C
  8
6
  6
CONTINUOUS
 62
     6
 10
228.160142393
 20
231.683444378
 30
0.0
 11
228.160142393
 21
206.683444378
 31
0.0
  0
LINE
  5
6D
  8
6
  6
CONTINUOUS
 62
     6
 10
228.160142393
 20
206.683444378
 30
0.0
 11
228.160142393
 21
196.683444378
 31
0.0
  0
TEXT
  5
6E
  8
6
  6
CONTINUOUS
 62
     6
 10
227.1601425676
 20
216.3132879749
 30
0.0
 40
3.5
  1
25
 50
90.0
 41
0.7
 11
228.1601425676
 21
216.3132879749
 31
0.0
 73
     1
  0
ENDBLK
  5
66
  8
0
  0
BLOCK
  8
0
  2
SW_CENTERMARKSYMBOL_0
 70
     0
 10
0.0
 20
0.0
 30
0.0
  3
SW_CENTERMARKSYMBOL_0
  1

  0
LINE
  5
72
  8
6
  6
CENTER
 62
     0
 10
0.0
 20
0.0
 30
0.0
 11
0.0
 21
2.5
 31
0.0
  0
LINE
  5
73
  8
6
  6
CENTER
 62
     0
 10
0.0
 20
0.0
 30
0.0
 11
-2.5
 21
0.0
 31
0.0
  0
LINE
  5
74
  8
6
  6
CENTER
 62
     0
 10
0.0
 20
0.0
 30
0.0
 11
0.0
 21
-2.5
 31
0.0
  0
LINE
  5
75
  8
6
  6
CENTER
 62
     0
 10
0.0
 20
0.0
 30
0.0
 11
2.5
 21
0.0
 31
0.0
  0
LINE
  5
76
  8
6
  6
CENTER
 62
     0
 10
0.0
 20
5.0
 30
0.0
 11
0.0
 21
30.0
 31
0.0
  0
LINE
  5
77
  8
6
  6
CENTER
 62
     0
 10
-5.0
 20
0.0
 30
0.0
 11
-30.0
 21
0.0
 31
0.0
  0
LINE
  5
78
  8
6
  6
CENTER
 62
     0
 10
0.0
 20
-5.0
 30
0.0
 11
0.0
 21
-30.0
 31
0.0
  0
LINE
  5
79
  8
6
  6
CENTER
 62
     0
 10
5.0
 20
0.0
 30
0.0
 11
124.8168218877
 21
0.0
 31
0.0
  0
ENDBLK
  5
71
  8
0
  0
BLOCK
  8
0
  2
*D6
 70
     1
 10
0.0
 20
0.0
 30
0.0
  3
*D6
  1

  0
SOLID
  5
A5
  8
6
  6
CONTINUOUS
 62
     6
 10
70.660142393
 20
155.5942111127
 30
0.0
 11
75.660142393
 21
154.9942111127
 31
0.0
 12
75.660142393
 22
156.1942111127
 32
0.0
 13
75.660142393
 23
156.1942111127
 33
0.0
  0
SOLID
  5
A6
  8
6
  6
CONTINUOUS
 62
     6
 10
108.660142393
 20
155.5942111127
 30
0.0
 11
103.660142393
 21
156.1942111127
 31
0.0
 12
103.660142393
 22
154.9942111127
 32
0.0
 13
103.660142393
 23
154.9942111127
 33
0.0
  0
LINE
  5
A7
  8
6
  6
CONTINUOUS
 62
     6
 10
70.660142393
 20
134.6963161131
 30
0.0
 11
70.660142393
 21
156.5942111127
 31
0.0
  0
LINE
  5
A8
  8
6
  6
CONTINUOUS
 62
     6
 10
108.660142393
 20
134.6963161131
 30
0.0
 11
108.660142393
 21
156.5942111127
 31
0.0
  0
LINE
  5
A9
  8
6
  6
CONTINUOUS
 62
     6
 10
70.660142393
 20
155.5942111127
 30
0.0
 11
108.660142393
 21
155.5942111127
 31
0.0
  0
TEXT
  5
AA
  8
6
  6
CONTINUOUS
 62
     6
 10
87.8515583494
 20
156.5942109381
 30
0.0
 40
3.5
  1
38
 41
0.7
 11
87.8515583494
 21
155.5942109381
 31
0.0
 73
     1
  0
ENDBLK
  5
A4
  8
0
  0
BLOCK
  8
0
  2
*D7
 70
     1
 10
0.0
 20
0.0
 30
0.0
  3
*D7
  1

  0
SOLID
  5
AF
  8
6
  6
CONTINUOUS
 62
     6
 10
224.6809838887
 20
78.3398804124
 30
0.0
 11
225.2809838887
 21
83.3398804124
 31
0.0
 12
224.0809838887
 22
83.3398804124
 32
0.0
 13
224.0809838887
 23
83.3398804124
 33
0.0
  0
SOLID
  5
B0
  8
6
  6
CONTINUOUS
 62
     6
 10
224.6809838887
 20
68.3398804124
 30
0.0
 11
224.0809838887
 21
63.3398804124
 31
0.0
 12
225.2809838887
 22
63.3398804124
 32
0.0
 13
225.2809838887
 23
63.3398804124
 33
0.0
  0
LINE
  5
B1
  8
6
  6
CONTINUOUS
 62
     6
 10
212.660142393
 20
78.3398804124
 30
0.0
 11
225.6809838887
 21
78.3398804124
 31
0.0
  0
LINE
  5
B2
  8
6
  6
CONTINUOUS
 62
     6
 10
212.660142393
 20
68.3398804124
 30
0.0
 11
225.6809838887
 21
68.3398804124
 31
0.0
  0
LINE
  5
B3
  8
6
  6
CONTINUOUS
 62
     6
 10
224.6809838887
 20
78.3398804124
 30
0.0
 11
224.6809838887
 21
88.3398804124
 31
0.0
  0
LINE
  5
B4
  8
6
  6
CONTINUOUS
 62
     6
 10
224.6809838887
 20
78.3398804124
 30
0.0
 11
224.6809838887
 21
68.3398804124
 31
0.0
  0
LINE
  5
B5
  8
6
  6
CONTINUOUS
 62
     6
 10
224.6809838887
 20
68.3398804124
 30
0.0
 11
224.6809838887
 21
58.3398804124
 31
0.0
  0
TEXT
  5
B6
  8
6
  6
CONTINUOUS
 62
     6
 10
223.6809840634
 20
71.2336318451
 30
0.0
 40
3.5
  1
10
 50
90.0
 41
0.7
 11
224.6809840634
 21
71.2336318451
 31
0.0
 73
     1
  0
ENDBLK
  5
AE
  8
0
  0
BLOCK
  8
0
  2
*D8
 70
     1
 10
0.0
 20
0.0
 30
0.0
  3
*D8
  1

  0
SOLID
  5
BC
  8
6
  6
CONTINUOUS
 62
     6
 10
131.337017422
 20
127.5898804124
 30
0.0
 11
131.937017422
 21
132.5898804124
 31
0.0
 12
130.737017422
 22
132.5898804124
 32
0.0
 13
130.737017422
 23
132.5898804124
 33
0.0
  0
SOLID
  5
BD
  8
6
  6
CONTINUOUS
 62
     6
 10
131.337017422
 20
117.0898804124
 30
0.0
 11
130.737017422
 21
112.0898804124
 31
0.0
 12
131.937017422
 22
112.0898804124
 32
0.0
 13
131.937017422
 23
112.0898804124
 33
0.0
  0
LINE
  5
BE
  8
6
  6
CONTINUOUS
 62
     6
 10
118.160142393
 20
127.5898804124
 30
0.0
 11
132.337017422
 21
127.5898804124
 31
0.0
  0
LINE
  5
BF
  8
6
  6
CONTINUOUS
 62
     6
 10
117.660142393
 20
117.0898804124
 30
0.0
 11
132.337017422
 21
117.0898804124
 31
0.0
  0
LINE
  5
C0
  8
6
  6
CONTINUOUS
 62
     6
 10
131.337017422
 20
127.5898804124
 30
0.0
 11
131.337017422
 21
137.5898804124
 31
0.0
  0
LINE
  5
C1
  8
6
  6
CONTINUOUS
 62
     6
 10
131.337017422
 20
127.5898804124
 30
0.0
 11
131.337017422
 21
117.0898804124
 31
0.0
  0
LINE
  5
C2
  8
6
  6
CONTINUOUS
 62
     6
 10
131.337017422
 20
117.0898804124
 30
0.0
 11
131.337017422
 21
107.0898804124
 31
0.0
  0
TEXT
  5
C3
  8
6
  6
CONTINUOUS
 62
     6
 10
130.3370175966
 20
120.0681082959
 30
0.0
 40
3.5
  1
10
 50
90.0
 41
0.7
 11
131.3370175966
 21
120.0681082959
 31
0.0
 73
     1
  0
ENDBLK
  5
BB
  8
0
  0
BLOCK
  8
0
  2
*D9
 70
     1
 10
0.0
 20
0.0
 30
0.0
  3
*D9
  1

  0
SOLID
  5
C9
  8
6
  6
CONTINUOUS
 62
     6
 10
66.410142393
 20
142.3898804124
 30
0.0
 11
61.410142393
 21
142.9898804124
 31
0.0
 12
61.410142393
 22
141.7898804124
 32
0.0
 13
61.410142393
 23
141.7898804124
 33
0.0
  0
SOLID
  5
CA
  8
6
  6
CONTINUOUS
 62
     6
 10
74.851644929
 20
142.3898804124
 30
0.0
 11
79.851644929
 21
141.7898804124
 31
0.0
 12
79.851644929
 22
142.9898804124
 32
0.0
 13
79.851644929
 23
142.9898804124
 33
0.0
  0
LINE
  5
CB
  8
6
  6
CONTINUOUS
 62
     6
 10
66.410142393
 20
128.3898804124
 30
0.0
 11
66.410142393
 21
143.3898804124
 31
0.0
  0
LINE
  5
CC
  8
6
  6
CONTINUOUS
 62
     6
 10
74.851644929
 20
128.3898804124
 30
0.0
 11
74.851644929
 21
143.3898804124
 31
0.0
  0
LINE
  5
CD
  8
6
  6
CONTINUOUS
 62
     6
 10
66.410142393
 20
142.3898804124
 30
0.0
 11
56.410142393
 21
142.3898804124
 31
0.0
  0
LINE
  5
CE
  8
6
  6
CONTINUOUS
 62
     6
 10
66.410142393
 20
142.3898804124
 30
0.0
 11
74.851644929
 21
142.3898804124
 31
0.0
  0
LINE
  5
CF
  8
6
  6
CONTINUOUS
 62
     6
 10
74.851644929
 20
142.3898804124
 30
0.0
 11
91.3119286672
 21
142.3898804124
 31
0.0
  0
TEXT
  5
D0
  8
6
  6
CONTINUOUS
 62
     6
 10
81.8664575882
 20
143.3898804124
 30
0.0
 40
3.5
  1
%%c
 50
360.0
 41
0.7
 11
81.8664575882
 21
142.3898804124
 31
0.0
 73
     1
  0
TEXT
  5
D1
  8
6
  6
CONTINUOUS
 62
     6
 10
87.1416389008
 20
143.3898802378
 30
0.0
 40
3.5
  1
8
 50
360.0
 41
0.7
 11
87.1416389008
 21
142.3898802378
 31
0.0
 73
     1
  0
ENDBLK
  5
C8
  8
0
  0
BLOCK
  8
0
  2
*D10
 70
     1
 10
0.0
 20
0.0
 30
0.0
  3
*D10
  1

  0
SOLID
  5
D6
  8
6
  6
CONTINUOUS
 62
     6
 10
48.5730678426
 20
132.3898804124
 30
0.0
 11
49.1730678426
 21
137.3898804124
 31
0.0
 12
47.9730678426
 22
137.3898804124
 32
0.0
 13
47.9730678426
 23
137.3898804124
 33
0.0
  0
SOLID
  5
D7
  8
6
  6
CONTINUOUS
 62
     6
 10
48.5730678426
 20
127.5898804124
 30
0.0
 11
47.9730678426
 21
122.5898804124
 31
0.0
 12
49.1730678426
 22
122.5898804124
 32
0.0
 13
49.1730678426
 23
122.5898804124
 33
0.0
  0
LINE
  5
D8
  8
6
  6
CONTINUOUS
 62
     6
 10
67.160142393
 20
132.3898804124
 30
0.0
 11
47.5730678426
 21
132.3898804124
 31
0.0
  0
LINE
  5
D9
  8
6
  6
CONTINUOUS
 62
     6
 10
61.160142393
 20
127.5898804124
 30
0.0
 11
47.5730678426
 21
127.5898804124
 31
0.0
  0
LINE
  5
DA
  8
6
  6
CONTINUOUS
 62
     6
 10
48.5730678426
 20
132.3898804124
 30
0.0
 11
48.5730678426
 21
142.3898804124
 31
0.0
  0
LINE
  5
DB
  8
6
  6
CONTINUOUS
 62
     6
 10
48.5730678426
 20
132.3898804124
 30
0.0
 11
48.5730678426
 21
127.5898804124
 31
0.0
  0
LINE
  5
DC
  8
6
  6
CONTINUOUS
 62
     6
 10
48.5730678426
 20
127.5898804124
 30
0.0
 11
48.5730678426
 21
116.3602472356
 31
0.0
  0
TEXT
  5
DD
  8
6
  6
CONTINUOUS
 62
     6
 10
47.5730680172
 20
117.9477472356
 30
0.0
 40
3.5
  1
5
 50
90.0
 41
0.7
 11
48.5730680172
 21
117.9477472356
 31
0.0
 73
     1
  0
ENDBLK
  5
D5
  8
0
  0
BLOCK
  8
0
  2
*D11
 70
     1
 10
0.0
 20
0.0
 30
0.0
  3
*D11
  1

  0
SOLID
  5
E2
  8
6
  6
CONTINUOUS
 62
     6
 10
79.660142393
 20
102.1622100884
 30
0.0
 11
84.660142393
 21
101.5622100884
 31
0.0
 12
84.660142393
 22
102.7622100884
 32
0.0
 13
84.660142393
 23
102.7622100884
 33
0.0
  0
SOLID
  5
E3
  8
6
  6
CONTINUOUS
 62
     6
 10
99.660142393
 20
102.1622100884
 30
0.0
 11
94.660142393
 21
102.7622100884
 31
0.0
 12
94.660142393
 22
101.5622100884
 32
0.0
 13
94.660142393
 23
101.5622100884
 33
0.0
  0
LINE
  5
E4
  8
6
  6
CONTINUOUS
 62
     6
 10
79.660142393
 20
102.1622100884
 30
0.0
 11
63.2423833421
 21
102.1622100884
 31
0.0
  0
LINE
  5
E5
  8
6
  6
CONTINUOUS
 62
     6
 10
79.660142393
 20
102.1622100884
 30
0.0
 11
99.660142393
 21
102.1622100884
 31
0.0
  0
TEXT
  5
E6
  8
6
  6
CONTINUOUS
 62
     6
 10
64.8298833421
 20
103.1622100884
 30
0.0
 40
3.5
  1
%%c
 50
0.0
 41
0.7
 11
64.8298833421
 21
102.1622100884
 31
0.0
 73
     1
  0
TEXT
  5
E7
  8
6
  6
CONTINUOUS
 62
     6
 10
70.1050646546
 20
103.1622099138
 30
0.0
 40
3.5
  1
20
 50
0.0
 41
0.7
 11
70.1050646546
 21
102.1622099138
 31
0.0
 73
     1
  0
ENDBLK
  5
E1
  8
0
  0
BLOCK
  8
0
  2
*D12
 70
     1
 10
0.0
 20
0.0
 30
0.0
  3
*D12
  1

  0
SOLID
  5
10C
  8
6
  6
CONTINUOUS
 62
     6
 10
298.4949481406
 20
175.683444378
 30
0.0
 11
303.4949481406
 21
175.083444378
 31
0.0
 12
303.4949481406
 22
176.283444378
 32
0.0
 13
303.4949481406
 23
176.283444378
 33
0.0
  0
SOLID
  5
10D
  8
6
  6
CONTINUOUS
 62
     6
 10
357.7449481406
 20
175.683444378
 30
0.0
 11
352.7449481406
 21
176.283444378
 31
0.0
 12
352.7449481406
 22
175.083444378
 32
0.0
 13
352.7449481406
 23
175.083444378
 33
0.0
  0
LINE
  5
10E
  8
6
  6
CONTINUOUS
 62
     6
 10
298.4949481406
 20
190.8475705124
 30
0.0
 11
298.4949481406
 21
174.683444378
 31
0.0
  0
LINE
  5
10F
  8
6
  6
CONTINUOUS
 62
     6
 10
357.7449481406
 20
206.183444378
 30
0.0
 11
357.7449481406
 21
174.683444378
 31
0.0
  0
LINE
  5
110
  8
6
  6
CONTINUOUS
 62
     6
 10
298.4949481406
 20
175.683444378
 30
0.0
 11
357.7449481406
 21
175.683444378
 31
0.0
  0
TEXT
  5
111
  8
6
  6
CONTINUOUS
 62
     6
 10
327.6788453999
 20
176.6834442034
 30
0.0
 40
3.5
  1
59
 50
360.0
 41
0.7
 11
327.6788453999
 21
175.6834442034
 31
0.0
 73
     1
  0
ENDBLK
  5
10B
  8
0
  0
BLOCK
  8
0
  2
*D13
 70
     1
 10
0.0
 20
0.0
 30
0.0
  3
*D13
  1

  0
SOLID
  5
116
  8
6
  6
CONTINUOUS
 62
     6
 10
283.6949481406
 20
246.683444378
 30
0.0
 11
283.0949481406
 21
241.683444378
 31
0.0
 12
284.2949481406
 22
241.683444378
 32
0.0
 13
284.2949481406
 23
241.683444378
 33
0.0
  0
SOLID
  5
117
  8
6
  6
CONTINUOUS
 62
     6
 10
283.6949481406
 20
191.683444378
 30
0.0
 11
284.2949481406
 21
196.683444378
 31
0.0
 12
283.0949481406
 22
196.683444378
 32
0.0
 13
283.0949481406
 23
196.683444378
 33
0.0
  0
LINE
  5
118
  8
6
  6
CONTINUOUS
 62
     6
 10
297.4949481406
 20
246.683444378
 30
0.0
 11
282.6949481406
 21
246.683444378
 31
0.0
  0
LINE
  5
119
  8
6
  6
CONTINUOUS
 62
     6
 10
298.4949481406
 20
191.683444378
 30
0.0
 11
282.6949481406
 21
191.683444378
 31
0.0
  0
LINE
  5
11A
  8
6
  6
CONTINUOUS
 62
     6
 10
283.6949481406
 20
246.683444378
 30
0.0
 11
283.6949481406
 21
191.683444378
 31
0.0
  0
TEXT
  5
11B
  8
6
  6
CONTINUOUS
 62
     6
 10
282.6949481406
 20
212.9634481112
 30
0.0
 40
3.5
  1
%%c
 50
90.0
 41
0.7
 11
283.6949481406
 21
212.9634481112
 31
0.0
 73
     1
  0
TEXT
  5
11C
  8
6
  6
CONTINUOUS
 62
     6
 10
282.6949483152
 20
218.2386294238
 30
0.0
 40
3.5
  1
55
 50
90.0
 41
0.7
 11
283.6949483152
 21
218.2386294238
 31
0.0
 73
     1
  0
ENDBLK
  5
115
  8
0
  0
ENDSEC
  0
SECTION
  2
ENTITIES
  0
LINE
  5
34
  8
6
  6
CONTINUOUS
 62
     6
 10
20.0
 20
287.0
 30
0.0
 11
20.0
 21
9.0
 31
0.0
  0
LINE
  5
35
  8
6
  6
CONTINUOUS
 62
     6
 10
20.0
 20
148.5
 30
0.0
 11
13.375265605
 21
148.5
 31
0.0
  0
LINE
  5
36
  8
6
  6
CONTINUOUS
 62
     6
 10
20.0
 20
287.0
 30
0.0
 11
414.5
 21
287.0
 31
0.0
  0
LINE
  5
37
  8
6
  6
CONTINUOUS
 62
     6
 10
20.0
 20
9.0
 30
0.0
 11
414.5
 21
9.0
 31
0.0
  0
LINE
  5
38
  8
6
  6
CONTINUOUS
 62
     6
 10
0.0
 20
297.0
 30
0.0
 11
420.0
 21
297.0
 31
0.0
  0
LINE
  5
39
  8
6
  6
CONTINUOUS
 62
     6
 10
420.0
 20
297.0
 30
0.0
 11
420.0
 21
0.0
 31
0.0
  0
LINE
  5
3A
  8
6
  6
CONTINUOUS
 62
     6
 10
420.0
 20
0.0
 30
0.0
 11
0.0
 21
0.0
 31
0.0
  0
LINE
  5
3B
  8
6
  6
CONTINUOUS
 62
     6
 10
0.0
 20
0.0
 30
0.0
 11
0.0
 21
297.0
 31
0.0
  0
LINE
  5
3C
  8
6
  6
CONTINUOUS
 62
     6
 10
414.5
 20
52.5
 30
0.0
 11
414.5
 21
287.0
 31
0.0
  0
LINE
  5
3D
  8
6
  6
CONTINUOUS
 62
     6
 10
414.5
 20
52.5
 30
0.0
 11
414.5
 21
9.0
 31
0.0
  0
TEXT
  5
3E
  8
2
  6
CONTINUOUS
 62
     1
 10
362.8181312282
 20
40.0199031981
 30
0.0
 40
10.0
  1
801
 41
0.7
 11
362.8181312282
 21
37.162760341
 31
0.0
 73
     1
  0
INSERT
  5
45
  8
2
  6
CONTINUOUS
 62
     1
  2
SW_NOTE_0
 10
25.131147541
 20
27.4759448138
 30
0.0
  0
TEXT
  5
46
  8
2
  6
CONTINUOUS
 62
     1
 10
312.7010196007
 20
39.8322418184
 30
0.0
 40
10.0
  1
Modell 
 41
0.7
 11
312.7010196007
 21
36.9750989613
 31
0.0
 73
     1
  0
INSERT
  5
4C
  8
2
  6
CONTINUOUS
 62
     1
  2
SW_NOTE_1
 10
309.7662955082
 20
27.4759448138
 30
0.0
  0
TEXT
  5
4D
  8
2
  6
CONTINUOUS
 62
     1
 10
300.4572681642
 20
14.8988612224
 30
0.0
 40
3.5
  1
Datum/Date 01/2008    Maßstab/Scale 1:1
 41
0.6461538462
 11
300.4572681642
 21
13.8988612224
 31
0.0
 73
     1
  0
LINE
  5
4E
  8
0
  6
CONTINUOUS
 10
89.660142393
 20
231.1834444824
 30
0.0
 11
89.660142393
 21
231.6834445643
 31
0.0
  0
LINE
  5
4F
  8
0
  6
CONTINUOUS
 10
89.660142393
 20
231.6834445643
 30
0.0
 11
211.6601437639
 21
231.6834445643
 31
0.0
  0
LINE
  5
50
  8
0
  6
CONTINUOUS
 10
211.6601437639
 20
206.6834441918
 30
0.0
 11
89.660142393
 21
206.6834441918
 31
0.0
  0
LINE
  5
51
  8
0
  6
CONTINUOUS
 10
89.660142393
 20
207.1834442737
 30
0.0
 11
89.660142393
 21
206.6834441918
 31
0.0
  0
LINE
  5
52
  8
0
  6
CONTINUOUS
 10
212.1601447772
 20
231.1834444824
 30
0.0
 11
211.6601437639
 21
231.6834445643
 31
0.0
  0
LINE
  5
53
  8
0
  6
CONTINUOUS
 10
211.6601437639
 20
206.6834441918
 30
0.0
 11
212.1601447772
 21
207.1834442737
 31
0.0
  0
ARC
  5
54
  8
0
  6
CONTINUOUS
 10
89.660142393
 20
219.183444378
 30
0.0
 40
12.50000000000003
 50
90.0
 51
270.0
  0
LINE
  5
55
  8
0
  6
CONTINUOUS
 10
212.1601447772
 20
231.1834444824
 30
0.0
 11
212.1601447772
 21
207.1834442737
 31
0.0
  0
ARC
  5
56
  8
0
  6
CONTINUOUS
 10
89.660142393
 20
219.183444378
 30
0.0
 40
27.5
 50
27.0356917894
 51
180.0
  0
ARC
  5
57
  8
0
  6
CONTINUOUS
 10
89.660142393
 20
219.183444378
 30
0.0
 40
27.50000000000002
 50
180.0
 51
332.9643082106
  0
DIMENSION
  5
58
  8
6
  6
CONTINUOUS
 62
     6
  2
*D3
 10
212.160142393
 20
175.683444378
 30
0.0
 11
150.3435159482
 21
175.683444378
 31
0.0
 70
   160
  3
SLDDIMSTYLE0
 13
77.160142393
 23
219.183444378
 33
0.0
 14
212.160142393
 24
207.183444378
 34
0.0
  0
DIMENSION
  5
63
  8
6
  6
CONTINUOUS
 62
     6
  2
*D4
 10
228.160142393
 20
206.683444378
 30
0.0
 11
228.160142393
 21
218.8984603887
 31
0.0
 70
   160
  3
SLDDIMSTYLE0
 13
211.660142393
 23
231.683444378
 33
0.0
 14
211.660142393
 24
206.683444378
 34
0.0
 50
90.0
  0
INSERT
  5
7A
  8
6
  6
CENTER
 62
     6
  2
SW_CENTERMARKSYMBOL_0
 10
89.660142393
 20
219.183444378
 30
0.0
  0
LINE
  5
7B
  8
6
  6
CENTER
 62
     6
 10
70.660142393
 20
133.6963161131
 30
0.0
 11
70.660142393
 21
117.0898804124
 31
0.0
  0
LINE
  5
7C
  8
6
  6
CENTER
 62
     6
 10
108.660142393
 20
133.6963161131
 30
0.0
 11
108.660142393
 21
117.0898804124
 31
0.0
  0
LINE
  5
7D
  8
0
  6
CONTINUOUS
 10
79.6601426165
 20
117.0898804124
 30
0.0
 11
79.6601426165
 21
91.3398803826
 31
0.0
  0
LINE
  5
7E
  8
0
  6
CONTINUOUS
 10
99.6601421695
 20
91.3398803826
 30
0.0
 11
99.6601421695
 21
117.0898804124
 31
0.0
  0
LINE
  5
7F
  8
0
  6
CONTINUOUS
 10
77.6601422887
 20
78.3398801144
 30
0.0
 11
77.1601422068
 21
77.8398791011
 31
0.0
  0
LINE
  5
80
  8
0
  6
CONTINUOUS
 10
77.1601422068
 20
77.8398791011
 30
0.0
 11
77.1601422068
 21
68.8398794885
 31
0.0
  0
LINE
  5
81
  8
0
  6
CONTINUOUS
 10
77.1601422068
 20
68.8398794885
 30
0.0
 11
77.6601422887
 21
68.3398822005
 31
0.0
  0
ARC
  5
82
  8
0
  6
CONTINUOUS
 10
101.660142393
 20
80.3398804124
 30
0.0
 40
2.000000000000014
 50
180.0
 51
270.0
  0
ARC
  5
83
  8
0
  6
CONTINUOUS
 10
77.660142393
 20
80.3398804124
 30
0.0
 40
2.0
 50
270.0
 51
0.0
  0
LINE
  5
84
  8
0
  6
CONTINUOUS
 10
99.6601421695
 20
80.3398804422
 30
0.0
 11
99.6601421695
 21
91.3398803826
 31
0.0
  0
LINE
  5
85
  8
0
  6
CONTINUOUS
 10
79.6601426165
 20
91.3398803826
 30
0.0
 11
79.6601426165
 21
80.3398804422
 31
0.0
  0
LINE
  5
86
  8
0
  6
CONTINUOUS
 10
62.160142542
 20
127.5898802708
 30
0.0
 11
62.160142542
 21
117.5898804361
 31
0.0
  0
LINE
  5
87
  8
0
  6
CONTINUOUS
 10
117.160142244
 20
117.5898804361
 30
0.0
 11
117.160142244
 21
127.5898802708
 31
0.0
  0
LINE
  5
88
  8
0
  6
CONTINUOUS
 10
62.160142542
 20
117.5898804361
 30
0.0
 11
62.6601416927
 21
117.0898804124
 31
0.0
  0
LINE
  5
89
  8
0
  6
CONTINUOUS
 10
116.6601430934
 20
117.0898804124
 30
0.0
 11
117.160142244
 21
117.5898804361
 31
0.0
  0
LINE
  5
8A
  8
0
  6
CONTINUOUS
 10
112.8996599775
 20
127.5898802708
 30
0.0
 11
112.6742706012
 21
131.8905658703
 31
0.0
  0
LINE
  5
8B
  8
0
  6
CONTINUOUS
 10
66.6460141849
 20
131.8905658703
 30
0.0
 11
66.4206248086
 21
127.5898802708
 31
0.0
  0
LINE
  5
8C
  8
0
  6
CONTINUOUS
 10
112.6742706012
 20
131.8905658703
 30
0.0
 11
112.11972575
 21
132.3898804988
 31
0.0
  0
LINE
  5
8D
  8
0
  6
CONTINUOUS
 10
67.200559036
 20
132.3898804988
 30
0.0
 11
66.6460141849
 21
131.8905658703
 31
0.0
  0
LINE
  5
8E
  8
0
  6
CONTINUOUS
 10
89.660142393
 20
78.3398801144
 30
0.0
 11
211.6601437639
 21
78.3398801144
 31
0.0
  0
LINE
  5
8F
  8
0
  6
CONTINUOUS
 10
89.660142393
 20
78.3398801144
 30
0.0
 11
77.6601422887
 21
78.3398801144
 31
0.0
  0
LINE
  5
90
  8
0
  6
CONTINUOUS
 10
211.6601437639
 20
78.3398801144
 30
0.0
 11
212.1601447772
 21
77.8398791011
 31
0.0
  0
LINE
  5
91
  8
0
  6
CONTINUOUS
 10
212.1601447772
 20
77.8398791011
 30
0.0
 11
212.1601447772
 21
68.8398794885
 31
0.0
  0
LINE
  5
92
  8
0
  6
CONTINUOUS
 10
212.1601447772
 20
68.8398794885
 30
0.0
 11
211.6601437639
 21
68.3398822005
 31
0.0
  0
LINE
  5
93
  8
0
  6
CONTINUOUS
 10
211.6601437639
 20
68.3398822005
 30
0.0
 11
89.660142393
 21
68.3398822005
 31
0.0
  0
LINE
  5
94
  8
0
  6
CONTINUOUS
 10
89.660142393
 20
68.3398822005
 30
0.0
 11
77.6601422887
 21
68.3398822005
 31
0.0
  0
LINE
  5
95
  8
0
  6
CONTINUOUS
 10
62.160142542
 20
127.5898802708
 30
0.0
 11
117.160142244
 21
127.5898802708
 31
0.0
  0
LINE
  5
96
  8
0
  6
CONTINUOUS
 10
116.6601430934
 20
117.0898804124
 30
0.0
 11
62.6601416927
 21
117.0898804124
 31
0.0
  0
ARC
  5
97
  8
0
  6
CONTINUOUS
 10
94.5121438886
 20
131.2206355256
 30
0.0
 40
10.66972758325318
 50
340.1057212457
 51
358.0328444823
  0
LINE
  5
98
  8
0
  6
CONTINUOUS
 10
105.175583468
 20
130.8543800991
 30
0.0
 11
105.2391434397
 21
131.8905658703
 31
0.0
  0
ARC
  5
99
  8
0
  6
CONTINUOUS
 10
84.6143958316
 20
131.1832576722
 30
0.0
 40
10.47485864651873
 50
181.7992027159
 51
200.0626727814
  0
LINE
  5
9A
  8
0
  6
CONTINUOUS
 10
74.1447013181
 20
130.8543800991
 30
0.0
 11
74.0811413463
 21
131.8905658703
 31
0.0
  0
LINE
  5
9B
  8
0
  6
CONTINUOUS
 10
105.910829113
 20
132.3898804988
 30
0.0
 11
112.11972575
 21
132.3898804988
 31
0.0
  0
LINE
  5
9C
  8
0
  6
CONTINUOUS
 10
105.2391434397
 20
131.8905658703
 30
0.0
 11
105.910829113
 21
132.3898804988
 31
0.0
  0
LINE
  5
9D
  8
0
  6
CONTINUOUS
 10
67.200559036
 20
132.3898804988
 30
0.0
 11
73.409455673
 21
132.3898804988
 31
0.0
  0
LINE
  5
9E
  8
0
  6
CONTINUOUS
 10
73.409455673
 20
132.3898804988
 30
0.0
 11
74.0811413463
 21
131.8905658703
 31
0.0
  0
LINE
  5
9F
  8
0
  6
CONTINUOUS
 10
72.016608746
 20
132.3898804988
 30
0.0
 11
73.409455673
 21
132.3898804988
 31
0.0
  0
LINE
  5
A0
  8
0
  6
CONTINUOUS
 10
107.3036760401
 20
132.3898804988
 30
0.0
 11
105.910829113
 21
132.3898804988
 31
0.0
  0
DIMENSION
  5
A1
  8
6
  6
CONTINUOUS
 62
     6
  2
*D6
 10
108.660142393
 20
155.5942111127
 30
0.0
 11
90.4367307632
 21
155.5942111127
 31
0.0
 70
   160
  3
SLDDIMSTYLE0
 13
70.660142393
 23
133.6963161131
 33
0.0
 14
108.660142393
 24
133.6963161131
 34
0.0
  0
DIMENSION
  5
AB
  8
6
  6
CONTINUOUS
 62
     6
  2
*D7
 10
224.6809838887
 20
68.3398804124
 30
0.0
 11
224.6809838887
 21
73.8188042589
 31
0.0
 70
   160
  3
SLDDIMSTYLE0
 13
211.660142393
 23
78.3398804124
 33
0.0
 14
211.660142393
 24
68.3398804124
 34
0.0
 50
90.0
  0
DIMENSION
  5
B7
  8
6
  6
CONTINUOUS
 62
     6
  2
*D8
 10
131.337017422
 20
117.0898804124
 30
0.0
 11
131.337017422
 21
122.6532807097
 31
0.0
 70
   160
  1
10
  3
SLDDIMSTYLE1
 13
117.160142393
 23
127.5898804124
 33
0.0
 14
116.660142393
 24
117.0898804124
 34
0.0
 50
90.0
  0
DIMENSION
  5
C4
  8
6
  6
CONTINUOUS
 62
     6
  2
*D9
 10
74.851644929
 20
142.3898804124
 30
0.0
 11
85.7954431277
 21
142.3898804124
 31
0.0
 70
   160
  1
%%c<>
  3
SLDDIMSTYLE2
 13
66.410142393
 23
127.3898804124
 33
0.0
 14
74.851644929
 24
127.3898804124
 34
0.0
  0
DIMENSION
  5
D2
  8
6
  6
CONTINUOUS
 62
     6
  2
*D10
 10
48.5730678426
 20
127.5898804124
 30
0.0
 11
48.5730678426
 21
119.2391421188
 31
0.0
 70
   160
  3
SLDDIMSTYLE2
 13
68.160142393
 23
132.3898804124
 33
0.0
 14
62.160142393
 24
127.5898804124
 34
0.0
 50
90.0
  0
DIMENSION
  5
DE
  8
6
  6
CONTINUOUS
 62
     6
  2
*D11
 10
99.660142393
 20
102.1622100884
 30
0.0
 11
70.0526464121
 21
102.1622100884
 31
0.0
 70
   160
  1
%%c<>
  3
SLDDIMSTYLE0
 13
79.660142393
 23
91.3398804124
 33
0.0
 14
99.660142393
 24
91.3398804124
 34
0.0
  0
LINE
  5
E8
  8
6
  6
CENTER
 62
     6
 10
89.660142393
 20
64.2654088026
 30
0.0
 11
89.660142393
 21
130.0836510173
 31
0.0
  0
LINE
  5
E9
  8
0
  6
CONTINUOUS
 10
308.9949481406
 20
209.1834446016
 30
0.0
 11
334.7449481704
 21
209.1834446016
 31
0.0
  0
LINE
  5
EA
  8
0
  6
CONTINUOUS
 10
334.7449481704
 20
229.1834441545
 30
0.0
 11
308.9949481406
 21
229.1834441545
 31
0.0
  0
ARC
  5
EB
  8
0
  6
CONTINUOUS
 10
345.7449481406
 20
231.183444378
 30
0.0
 40
2.0
 50
270.0
 51
0.0
  0
ARC
  5
EC
  8
0
  6
CONTINUOUS
 10
345.7449481406
 20
207.183444378
 30
0.0
 40
2.000000000000028
 50
0.0
 51
90.0
  0
LINE
  5
ED
  8
0
  6
CONTINUOUS
 10
345.7449481108
 20
229.1834441545
 30
0.0
 11
334.7449481704
 21
229.1834441545
 31
0.0
  0
LINE
  5
EE
  8
0
  6
CONTINUOUS
 10
334.7449481704
 20
209.1834446016
 30
0.0
 11
345.7449481108
 21
209.1834446016
 31
0.0
  0
LINE
  5
EF
  8
0
  6
CONTINUOUS
 10
299.494948446
 20
191.6834445271
 30
0.0
 11
308.4949481168
 21
191.6834445271
 31
0.0
  0
LINE
  5
F0
  8
0
  6
CONTINUOUS
 10
308.4949481168
 20
246.683444229
 30
0.0
 11
298.4949482821
 21
246.683444229
 31
0.0
  0
LINE
  5
F1
  8
0
  6
CONTINUOUS
 10
308.4949481168
 20
191.6834445271
 30
0.0
 11
308.9949481406
 21
192.1834436777
 31
0.0
  0
LINE
  5
F2
  8
0
  6
CONTINUOUS
 10
308.9949481406
 20
246.1834450784
 30
0.0
 11
308.4949481168
 21
246.683444229
 31
0.0
  0
LINE
  5
F3
  8
0
  6
CONTINUOUS
 10
298.4949482821
 20
223.4229630391
 30
0.0
 11
294.1942626827
 21
223.1975736628
 31
0.0
  0
LINE
  5
F4
  8
0
  6
CONTINUOUS
 10
294.1942626827
 20
215.1693150933
 30
0.0
 11
298.4949482821
 21
214.943925717
 31
0.0
  0
LINE
  5
F5
  8
0
  6
CONTINUOUS
 10
294.1942626827
 20
223.1975736628
 30
0.0
 11
293.6949480541
 21
222.643028346
 31
0.0
  0
LINE
  5
F6
  8
0
  6
CONTINUOUS
 10
293.6949480541
 20
215.7238604101
 30
0.0
 11
294.1942626827
 21
215.1693150933
 31
0.0
  0
LINE
  5
F7
  8
0
  6
CONTINUOUS
 10
348.2449494519
 20
206.6834441918
 30
0.0
 11
347.7449484386
 21
207.1834442737
 31
0.0
  0
LINE
  5
F8
  8
0
  6
CONTINUOUS
 10
347.7449484386
 20
231.1834444824
 30
0.0
 11
347.7449484386
 21
207.1834442737
 31
0.0
  0
LINE
  5
F9
  8
0
  6
CONTINUOUS
 10
348.2449494519
 20
231.6834445643
 30
0.0
 11
347.7449484386
 21
231.1834444824
 31
0.0
  0
LINE
  5
FA
  8
0
  6
CONTINUOUS
 10
357.2449490644
 20
231.6834445643
 30
0.0
 11
348.2449494519
 21
231.6834445643
 31
0.0
  0
LINE
  5
FB
  8
0
  6
CONTINUOUS
 10
357.2449490644
 20
206.6834441918
 30
0.0
 11
348.2449494519
 21
206.6834441918
 31
0.0
  0
LINE
  5
FC
  8
0
  6
CONTINUOUS
 10
357.7449463524
 20
231.1834444824
 30
0.0
 11
357.7449463524
 21
207.1834442737
 31
0.0
  0
LINE
  5
FD
  8
0
  6
CONTINUOUS
 10
357.7449463524
 20
207.1834442737
 30
0.0
 11
357.2449490644
 21
206.6834441918
 31
0.0
  0
LINE
  5
FE
  8
0
  6
CONTINUOUS
 10
357.7449463524
 20
231.1834444824
 30
0.0
 11
357.2449490644
 21
231.6834445643
 31
0.0
  0
LINE
  5
FF
  8
0
  6
CONTINUOUS
 10
299.494948446
 20
191.6834445271
 30
0.0
 11
299.494948446
 21
191.8475696417
 31
0.0
  0
LINE
  5
100
  8
0
  6
CONTINUOUS
 10
299.494948446
 20
191.8475696417
 30
0.0
 11
298.4949482821
 21
191.8475696417
 31
0.0
  0
LINE
  5
101
  8
0
  6
CONTINUOUS
 10
298.4949482821
 20
191.8475696417
 30
0.0
 11
298.4949482821
 21
246.683444229
 31
0.0
  0
LINE
  5
102
  8
0
  6
CONTINUOUS
 10
308.9949481406
 20
219.183444378
 30
0.0
 11
308.9949481406
 21
192.1834436777
 31
0.0
  0
LINE
  5
103
  8
0
  6
CONTINUOUS
 10
308.9949481406
 20
246.1834450784
 30
0.0
 11
308.9949481406
 21
219.183444378
 31
0.0
  0
LINE
  5
104
  8
0
  6
CONTINUOUS
 10
298.4949482821
 20
191.8475696417
 30
0.0
 11
298.4949482821
 21
193.0551075908
 31
0.0
  0
LINE
  5
105
  8
0
  6
CONTINUOUS
 10
293.6949480541
 20
215.7238604101
 30
0.0
 11
293.6949480541
 21
222.643028346
 31
0.0
  0
LINE
  5
106
  8
0
  6
CONTINUOUS
 10
293.6949480541
 20
217.0834444529
 30
0.0
 11
293.6949480541
 21
216.6834444339
 31
0.0
  0
LINE
  5
107
  8
0
  6
CONTINUOUS
 10
293.6949480541
 20
221.6834443222
 30
0.0
 11
293.6949480541
 21
221.2834443032
 31
0.0
  0
DIMENSION
  5
108
  8
6
  6
CONTINUOUS
 62
     6
  2
*D12
 10
357.7449481406
 20
175.683444378
 30
0.0
 11
330.2640178137
 21
175.683444378
 31
0.0
 70
   160
  3
SLDDIMSTYLE2
 13
298.4949481406
 23
191.8475705124
 33
0.0
 14
357.7449481406
 24
207.183444378
 34
0.0
  0
DIMENSION
  5
112
  8
6
  6
CONTINUOUS
 62
     6
  2
*D13
 10
283.6949481406
 20
191.683444378
 30
0.0
 11
283.6949481406
 21
218.1862111813
 31
0.0
 70
   160
  1
%%c<>
  3
SLDDIMSTYLE0
 13
298.4949481406
 23
246.683444378
 33
0.0
 14
299.4949481406
 24
191.683444378
 34
0.0
 50
90.0
  0
LINE
  5
11D
  8
6
  6
CENTER
 62
     6
 10
292.046473862
 20
219.183444378
 30
0.0
 11
360.8062378702
 21
219.183444378
 31
0.0
  0
ENDSEC
  0
EOF
