  0
SECTION
  2
HEADER
  9
$ACADVER
  1
AC1009
  9
$DWGCODEPAGE
  3
ansi_1252
  9
$INSBASE
 10
0.0
 20
0.0
 30
0.0
  9
$EXTMIN
 10
0.0
 20
0.0
 30
0.0
  9
$EXTMAX
 10
420.0
 20
297.0
 30
0.0
  9
$LIMMIN
 10
0.0
 20
0.0
  9
$LIMMAX
 10
0.0
 20
0.0
  9
$ORTHOMODE
 70
     0
  9
$REGENMODE
 70
     1
  9
$FILLMODE
 70
     1
  9
$QTEXTMODE
 70
     0
  9
$MIRRTEXT
 70
     1
  9
$DRAGMODE
 70
     2
  9
$LTSCALE
 40
1.0
  9
$OSMODE
 70
    37
  9
$ATTMODE
 70
     1
  9
$TEXTSIZE
 40
3.5
  9
$TRACEWID
 40
1.0
  9
$TEXTSTYLE
  7
STANDARD
  9
$CLAYER
  8
0
  9
$CELTYPE
  6
BYLAYER
  9
$CECOLOR
 62
   256
  9
$DIMSCALE
 40
1.0
  9
$DIMASZ
 40
5.0
  9
$DIMEXO
 40
1.0
  9
$DIMDLI
 40
3.75
  9
$DIMRND
 40
0.0
  9
$DIMDLE
 40
0.0
  9
$DIMEXE
 40
1.0
  9
$DIMTP
 40
0.0
  9
$DIMTM
 40
0.0
  9
$DIMTXT
 40
3.5
  9
$DIMCEN
 40
2.5
  9
$DIMTSZ
 40
0.0
  9
$DIMTOL
 70
     0
  9
$DIMLIM
 70
     0
  9
$DIMTIH
 70
     1
  9
$DIMTOH
 70
     1
  9
$DIMSE1
 70
     0
  9
$DIMSE2
 70
     0
  9
$DIMTAD
 70
     1
  9
$DIMZIN
 70
     0
  9
$DIMBLK
  1

  9
$DIMASO
 70
     1
  9
$DIMSHO
 70
     1
  9
$DIMPOST
  1

  9
$DIMAPOST
  1

  9
$DIMALT
 70
     0
  9
$DIMALTD
 70
     3
  9
$DIMALTF
 40
0.0393700787
  9
$DIMLFAC
 40
1.0
  9
$DIMTOFL
 70
     1
  9
$DIMTVP
 40
0.0
  9
$DIMTIX
 70
     0
  9
$DIMSOXD
 70
     0
  9
$DIMSAH
 70
     0
  9
$DIMBLK1
  1

  9
$DIMBLK2
  1

  9
$DIMSTYLE
  2
ISO-25
  9
$DIMCLRD
 70
     0
  9
$DIMCLRE
 70
     0
  9
$DIMCLRT
 70
     0
  9
$DIMTFAC
 40
1.0
  9
$DIMGAP
 40
1.524
  9
$LUNITS
 70
     2
  9
$LUPREC
 70
     2
  9
$SKETCHINC
 40
1.0
  9
$FILLETRAD
 40
10.0
  9
$AUNITS
 70
     0
  9
$AUPREC
 70
     0
  9
$MENU
  1
.
  9
$ELEVATION
 40
0.0
  9
$PELEVATION
 40
0.0
  9
$THICKNESS
 40
0.0
  9
$LIMCHECK
 70
     0
  9
$CHAMFERA
 40
10.0
  9
$CHAMFERB
 40
10.0
  9
$SKPOLY
 70
     0
  9
$TDCREATE
 40
2454490.556336979
  9
$TDUPDATE
 40
2454490.556336991
  9
$TDINDWG
 40
0.0000000116
  9
$TDUSRTIMER
 40
0.0000000116
  9
$USRTIMER
 70
     1
  9
$ANGBASE
 50
0.0
  9
$ANGDIR
 70
     0
  9
$PDMODE
 70
     0
  9
$PDSIZE
 40
-1.0
  9
$PLINEWID
 40
0.0
  9
$COORDS
 70
     1
  9
$SPLFRAME
 70
     0
  9
$SPLINETYPE
 70
     6
  9
$SPLINESEGS
 70
     8
  9
$ATTDIA
 70
     0
  9
$ATTREQ
 70
     1
  9
$HANDLING
 70
     1
  9
$HANDSEED
  5
12D
  9
$SURFTAB1
 70
     6
  9
$SURFTAB2
 70
     6
  9
$SURFTYPE
 70
     6
  9
$SURFU
 70
     6
  9
$SURFV
 70
     6
  9
$UCSNAME
  2

  9
$UCSORG
 10
0.0
 20
0.0
 30
0.0
  9
$UCSXDIR
 10
1.0
 20
0.0
 30
0.0
  9
$UCSYDIR
 10
0.0
 20
1.0
 30
0.0
  9
$PUCSNAME
  2

  9
$PUCSORG
 10
0.0
 20
0.0
 30
0.0
  9
$PUCSXDIR
 10
1.0
 20
0.0
 30
0.0
  9
$PUCSYDIR
 10
0.0
 20
1.0
 30
0.0
  9
$USERI1
 70
     0
  9
$USERI2
 70
     0
  9
$USERI3
 70
     0
  9
$USERI4
 70
     0
  9
$USERI5
 70
     0
  9
$USERR1
 40
0.0
  9
$USERR2
 40
0.0
  9
$USERR3
 40
0.0
  9
$USERR4
 40
0.0
  9
$USERR5
 40
0.0
  9
$WORLDVIEW
 70
     1
  9
$SHADEDGE
 70
     3
  9
$SHADEDIF
 70
    70
  9
$TILEMODE
 70
     1
  9
$MAXACTVP
 70
    64
  9
$PLIMCHECK
 70
     0
  9
$PEXTMIN
 10
1.0000000000E+20
 20
1.0000000000E+20
 30
1.0000000000E+20
  9
$PEXTMAX
 10
-1.0000000000E+20
 20
-1.0000000000E+20
 30
-1.0000000000E+20
  9
$PLIMMIN
 10
0.0
 20
0.0
  9
$PLIMMAX
 10
420.0
 20
297.0
  9
$UNITMODE
 70
     0
  9
$VISRETAIN
 70
     1
  9
$PLINEGEN
 70
     0
  9
$PSLTSCALE
 70
     1
  0
ENDSEC
  0
SECTION
  2
TABLES
  0
TABLE
  2
VPORT
 70
     1
  0
VPORT
  2
*ACTIVE
 70
     0
 10
0.0
 20
0.0
 11
1.0
 21
1.0
 12
210.0
 22
148.5
 13
0.0
 23
0.0
 14
10.0
 24
10.0
 15
10.0
 25
10.0
 16
0.0
 26
0.0
 36
1.0
 17
0.0
 27
0.0
 37
0.0
 40
297.0
 41
1.4141414141
 42
50.0
 43
0.0
 44
0.0
 50
0.0
 51
0.0
 71
     0
 72
  2000
 73
     1
 74
     3
 75
     0
 76
     0
 77
     0
 78
     0
  0
ENDTAB
  0
TABLE
  2
LTYPE
 70
     6
  0
LTYPE
  2
CONTINUOUS
 70
     0
  3
Solid line
 72
    65
 73
     0
 40
0.0
  0
LTYPE
  2
HIDDEN
 70
     0
  3
Hidden __ __ __ __ __ __ __ __ __ __ __ __ __ __
 72
    65
 73
     2
 40
1.905
 49
1.27
 49
-0.635
  0
LTYPE
  2
PHANTOM
 70
     0
  3
Phantom ______  __  __  ______  __  __  ______
 72
    65
 73
     6
 40
12.7
 49
6.35
 49
-1.27
 49
1.27
 49
-1.27
 49
1.27
 49
-1.27
  0
LTYPE
  2
CENTER
 70
     0
  3
Center ____ _ ____ _ ____ _ ____ _ ____ _ ____
 72
    65
 73
     4
 40
10.16
 49
6.35
 49
-1.27
 49
1.27
 49
-1.27
  0
LTYPE
  2
CENTERX2
 70
     0
  3
Center (2x) ________  __  ________  __  _____
 72
    65
 73
     4
 40
20.32
 49
12.7
 49
-2.54
 49
2.54
 49
-2.54
  0
LTYPE
  2
DOT2
 70
     0
  3
Dot (.5x) ........................................
 72
    65
 73
     2
 40
0.635
 49
0.0
 49
-0.635
  0
ENDTAB
  0
TABLE
  2
LAYER
 70
     6
  0
LAYER
  2
0
 70
     0
 62
     7
  6
CONTINUOUS
  0
LAYER
  2
DEFPOINTS
 70
     0
 62
     7
  6
CONTINUOUS
  0
LAYER
  2
7
 70
     0
 62
     7
  6
CONTINUOUS
  0
LAYER
  2
1
 70
     0
 62
     1
  6
CONTINUOUS
  0
LAYER
  2
2
 70
     0
 62
     2
  6
PHANTOM
  0
LAYER
  2
6
 70
     0
 62
     6
  6
CONTINUOUS
  0
ENDTAB
  0
TABLE
  2
STYLE
 70
     1
  0
STYLE
  2
STANDARD
 70
     0
 40
0.0
 41
1.0
 50
0.0
 71
     0
 42
2.5
  3
txt
  4

  0
ENDTAB
  0
TABLE
  2
VIEW
 70
     0
  0
ENDTAB
  0
TABLE
  2
UCS
 70
     0
  0
ENDTAB
  0
TABLE
  2
APPID
 70
     1
  0
APPID
  2
ACAD
 70
     0
  0
ENDTAB
  0
TABLE
  2
DIMSTYLE
 70
     4
  0
DIMSTYLE
  2
ISO-25
 70
     0
  3

  4

  5

  6

  7

 40
1.0
 41
2.5
 42
0.625
 43
3.75
 44
1.25
 45
0.0
 46
0.0
 47
0.0
 48
0.0
140
2.5
141
2.5
142
0.0
143
0.0393700787
144
1.0
145
0.0
146
1.0
147
0.625
 71
     0
 72
     0
 73
     0
 74
     0
 75
     0
 76
     0
 77
     1
 78
     8
170
     0
171
     3
172
     1
173
     0
174
     0
175
     0
176
     0
177
     0
178
     0
  0
DIMSTYLE
  2
SLDDIMSTYLE0
 70
     0
  3

  4

  5

  6

  7

 40
1.0
 41
5.0
 42
0.0625
 43
0.38
 44
0.0
 45
0.0
 46
0.0
 47
0.0
 48
0.0
140
3.5
141
0.09
142
0.0
143
25.4
144
1.0
145
0.0
146
1.0
147
0.875
 71
     0
 72
     0
 73
     0
 74
     1
 75
     0
 76
     0
 77
     1
 78
    12
170
     0
171
     2
172
     0
173
     1
174
     0
175
     0
176
     0
177
     0
178
     0
  0
DIMSTYLE
  2
SLDDIMSTYLE1
 70
     0
  3

  4

  5

  6

  7

 40
1.0
 41
5.0
 42
0.0625
 43
0.38
 44
0.0
 45
0.0
 46
0.0
 47
0.0
 48
0.0
140
3.5
141
0.09
142
0.0
143
25.4
144
1.0
145
0.0
146
1.0
147
0.875
 71
     0
 72
     0
 73
     0
 74
     1
 75
     0
 76
     0
 77
     1
 78
    12
170
     0
171
     2
172
     0
173
     1
174
     0
175
     0
176
     0
177
     0
178
     0
  0
DIMSTYLE
  2
SLDDIMSTYLE2
 70
     0
  3

  4

  5

  6

  7

 40
1.0
 41
5.0
 42
0.0625
 43
0.38
 44
0.0
 45
0.0
 46
0.0
 47
0.0
 48
0.0
140
3.5
141
0.09
142
0.0
143
25.4
144
1.0
145
0.0
146
1.0
147
0.875
 71
     0
 72
     0
 73
     0
 74
     1
 75
     0
 76
     0
 77
     1
 78
    12
170
     0
171
     2
172
     0
173
     1
174
     0
175
     0
176
     0
177
     0
178
     0
  0
ENDTAB
  0
ENDSEC
  0
SECTION
  2
BLOCKS
  0
BLOCK
  8
0
  2
$MODEL_SPACE
 70
     0
 10
0.0
 20
0.0
 30
0.0
  3
$MODEL_SPACE
  1

  0
ENDBLK
  5
21
  8
0
  0
BLOCK
 67
     1
  8
0
  2
$PAPER_SPACE
 70
     0
 10
0.0
 20
0.0
 30
0.0
  3
$PAPER_SPACE
  1

  0
ENDBLK
  5
1D
 67
     1
  8
0
  0
BLOCK
  8
0
  2
SW_NOTE_0
 70
     0
 10
0.0
 20
0.0
 30
0.0
  3
SW_NOTE_0
  1

  0
TEXT
  5
42
  8
2
  6
CONTINUOUS
 62
     0
 10
0.0
 20
1.0
 30
0.0
 40
3.5
  1
Diese Zeichnung ist gemäß Urheberrecht gesetzlich geschützt
 41
0.6644067797
 11
0.0
 21
0.0
 31
0.0
 73
     1
  0
TEXT
  5
43
  8
2
  6
CONTINUOUS
 62
     0
 10
0.0
 20
-8.0513890609
 30
0.0
 40
3.5
  1
This drawing is protected under copyright law; unauthorizid disclosure,
 41
0.6605633803
 11
0.0
 21
-9.0513890609
 31
0.0
 73
     1
  0
TEXT
  5
44
  8
2
  6
CONTINUOUS
 62
     0
 10
0.0
 20
-12.5770835914
 30
0.0
 40
3.5
  1
reprodution or use is prohibted.
 41
0.65625
 11
0.0
 21
-13.5770835914
 31
0.0
 73
     1
  0
ENDBLK
  5
41
  8
0
  0
BLOCK
  8
0
  2
SW_NOTE_1
 70
     0
 10
0.0
 20
0.0
 30
0.0
  3
SW_NOTE_1
  1

  0
TEXT
  5
4A
  8
2
  6
CONTINUOUS
 62
     0
 10
0.0
 20
1.0
 30
0.0
 40
3.5
  1
Vieler International GmbH+Co.KG
 41
0.6774193548
 11
0.0
 21
0.0
 31
0.0
 73
     1
  0
TEXT
  5
4B
  8
2
  6
CONTINUOUS
 62
     0
 10
22.5458340719
 20
-3.5256945305
 30
0.0
 40
3.5
  1
58642 Iserlohn
 41
0.7
 11
22.5458340719
 21
-4.5256945305
 31
0.0
 73
     1
  0
ENDBLK
  5
49
  8
0
  0
BLOCK
  8
0
  2
*D3
 70
     1
 10
0.0
 20
0.0
 30
0.0
  3
*D3
  1

  0
SOLID
  5
61
  8
6
  6
CONTINUOUS
 62
     6
 10
234.4557460709
 20
237.7609461883
 30
0.0
 11
235.0557460709
 21
242.7609461883
 31
0.0
 12
233.8557460709
 22
242.7609461883
 32
0.0
 13
233.8557460709
 23
242.7609461883
 33
0.0
  0
SOLID
  5
62
  8
6
  6
CONTINUOUS
 62
     6
 10
234.4557460709
 20
212.7609461883
 30
0.0
 11
233.8557460709
 21
207.7609461883
 31
0.0
 12
235.0557460709
 22
207.7609461883
 32
0.0
 13
235.0557460709
 23
207.7609461883
 33
0.0
  0
LINE
  5
63
  8
6
  6
CONTINUOUS
 62
     6
 10
223.8873116987
 20
237.7609461883
 30
0.0
 11
235.4557460709
 21
237.7609461883
 31
0.0
  0
LINE
  5
64
  8
6
  6
CONTINUOUS
 62
     6
 10
223.8873116987
 20
212.7609461883
 30
0.0
 11
235.4557460709
 21
212.7609461883
 31
0.0
  0
LINE
  5
65
  8
6
  6
CONTINUOUS
 62
     6
 10
234.4557460709
 20
237.7609461883
 30
0.0
 11
234.4557460709
 21
247.7609461883
 31
0.0
  0
LINE
  5
66
  8
6
  6
CONTINUOUS
 62
     6
 10
234.4557460709
 20
237.7609461883
 30
0.0
 11
234.4557460709
 21
212.7609461883
 31
0.0
  0
LINE
  5
67
  8
6
  6
CONTINUOUS
 62
     6
 10
234.4557460709
 20
212.7609461883
 30
0.0
 11
234.4557460709
 21
202.7609461883
 31
0.0
  0
TEXT
  5
68
  8
6
  6
CONTINUOUS
 62
     6
 10
233.4557462455
 20
223.2181392835
 30
0.0
 40
3.5
  1
25
 50
90.0
 41
0.7
 11
234.4557462455
 21
223.2181392835
 31
0.0
 73
     1
  0
ENDBLK
  5
60
  8
0
  0
BLOCK
  8
0
  2
*D4
 70
     1
 10
0.0
 20
0.0
 30
0.0
  3
*D4
  1

  0
SOLID
  5
6E
  8
6
  6
CONTINUOUS
 62
     6
 10
72.5943379146
 20
181.7609461883
 30
0.0
 11
77.5943379146
 21
181.1609461883
 31
0.0
 12
77.5943379146
 22
182.3609461883
 32
0.0
 13
77.5943379146
 23
182.3609461883
 33
0.0
  0
SOLID
  5
6F
  8
6
  6
CONTINUOUS
 62
     6
 10
222.0024309406
 20
181.7609461883
 30
0.0
 11
217.0024309406
 21
182.3609461883
 31
0.0
 12
217.0024309406
 22
181.1609461883
 32
0.0
 13
217.0024309406
 23
181.1609461883
 33
0.0
  0
LINE
  5
70
  8
6
  6
CONTINUOUS
 62
     6
 10
72.5943379146
 20
212.2609461883
 30
0.0
 11
72.5943379146
 21
180.7609461883
 31
0.0
  0
LINE
  5
71
  8
6
  6
CONTINUOUS
 62
     6
 10
222.0024309406
 20
212.2609461883
 30
0.0
 11
222.0024309406
 21
180.7609461883
 31
0.0
  0
LINE
  5
72
  8
6
  6
CONTINUOUS
 62
     6
 10
72.5943379146
 20
181.7609461883
 30
0.0
 11
222.0024309406
 21
181.7609461883
 31
0.0
  0
TEXT
  5
73
  8
6
  6
CONTINUOUS
 62
     6
 10
145.9553630257
 20
182.7609460137
 30
0.0
 40
3.5
  1
149
 41
0.7
 11
145.9553630257
 21
181.7609460137
 31
0.0
 73
     1
  0
ENDBLK
  5
6D
  8
0
  0
BLOCK
  8
0
  2
SW_CENTERMARKSYMBOL_0
 70
     0
 10
0.0
 20
0.0
 30
0.0
  3
SW_CENTERMARKSYMBOL_0
  1

  0
LINE
  5
77
  8
6
  6
CENTER
 62
     0
 10
0.0
 20
0.0
 30
0.0
 11
0.0
 21
2.5
 31
0.0
  0
LINE
  5
78
  8
6
  6
CENTER
 62
     0
 10
0.0
 20
0.0
 30
0.0
 11
-2.5
 21
0.0
 31
0.0
  0
LINE
  5
79
  8
6
  6
CENTER
 62
     0
 10
0.0
 20
0.0
 30
0.0
 11
0.0
 21
-2.5
 31
0.0
  0
LINE
  5
7A
  8
6
  6
CENTER
 62
     0
 10
0.0
 20
0.0
 30
0.0
 11
2.5
 21
0.0
 31
0.0
  0
LINE
  5
7B
  8
6
  6
CENTER
 62
     0
 10
0.0
 20
5.0
 30
0.0
 11
0.0
 21
30.0
 31
0.0
  0
LINE
  5
7C
  8
6
  6
CENTER
 62
     0
 10
-5.0
 20
0.0
 30
0.0
 11
-30.0
 21
0.0
 31
0.0
  0
LINE
  5
7D
  8
6
  6
CENTER
 62
     0
 10
0.0
 20
-5.0
 30
0.0
 11
0.0
 21
-30.0
 31
0.0
  0
LINE
  5
7E
  8
6
  6
CENTER
 62
     0
 10
5.0
 20
0.0
 30
0.0
 11
135.338998373
 21
0.0
 31
0.0
  0
ENDBLK
  5
76
  8
0
  0
BLOCK
  8
0
  2
*D6
 70
     1
 10
0.0
 20
0.0
 30
0.0
  3
*D6
  1

  0
SOLID
  5
AC
  8
6
  6
CONTINUOUS
 62
     6
 10
71.8168248399
 20
161.3451519187
 30
0.0
 11
76.8168248399
 21
160.7451519187
 31
0.0
 12
76.8168248399
 22
161.9451519187
 32
0.0
 13
76.8168248399
 23
161.9451519187
 33
0.0
  0
SOLID
  5
AD
  8
6
  6
CONTINUOUS
 62
     6
 10
109.8168248399
 20
161.3451519187
 30
0.0
 11
104.8168248399
 21
161.9451519187
 31
0.0
 12
104.8168248399
 22
160.7451519187
 32
0.0
 13
104.8168248399
 23
160.7451519187
 33
0.0
  0
LINE
  5
AE
  8
6
  6
CONTINUOUS
 62
     6
 10
71.8168248399
 20
143.990884263
 30
0.0
 11
71.8168248399
 21
162.3451519187
 31
0.0
  0
LINE
  5
AF
  8
6
  6
CONTINUOUS
 62
     6
 10
109.8168248399
 20
143.990884263
 30
0.0
 11
109.8168248399
 21
162.3451519187
 31
0.0
  0
LINE
  5
B0
  8
6
  6
CONTINUOUS
 62
     6
 10
71.8168248399
 20
161.3451519187
 30
0.0
 11
109.8168248399
 21
161.3451519187
 31
0.0
  0
TEXT
  5
B1
  8
6
  6
CONTINUOUS
 62
     6
 10
89.1984371786
 20
162.3451517441
 30
0.0
 40
3.5
  1
38
 41
0.7
 11
89.1984371786
 21
161.3451517441
 31
0.0
 73
     1
  0
ENDBLK
  5
AB
  8
0
  0
BLOCK
  8
0
  2
*D7
 70
     1
 10
0.0
 20
0.0
 30
0.0
  3
*D7
  1

  0
SOLID
  5
B6
  8
6
  6
CONTINUOUS
 62
     6
 10
67.5773063958
 20
150.7153123389
 30
0.0
 11
62.5773063958
 21
151.3153123389
 31
0.0
 12
62.5773063958
 22
150.1153123389
 32
0.0
 13
62.5773063958
 23
150.1153123389
 33
0.0
  0
SOLID
  5
B7
  8
6
  6
CONTINUOUS
 62
     6
 10
75.9288315251
 20
150.7153123389
 30
0.0
 11
80.9288315251
 21
150.1153123389
 31
0.0
 12
80.9288315251
 22
151.3153123389
 32
0.0
 13
80.9288315251
 23
151.3153123389
 33
0.0
  0
LINE
  5
B8
  8
6
  6
CONTINUOUS
 62
     6
 10
67.5773063958
 20
138.5084810895
 30
0.0
 11
67.5773063958
 21
151.7153123389
 31
0.0
  0
LINE
  5
B9
  8
6
  6
CONTINUOUS
 62
     6
 10
75.9288315251
 20
138.3492194335
 30
0.0
 11
75.9288315251
 21
151.7153123389
 31
0.0
  0
LINE
  5
BA
  8
6
  6
CONTINUOUS
 62
     6
 10
67.5773063958
 20
150.7153123389
 30
0.0
 11
57.5773063958
 21
150.7153123389
 31
0.0
  0
LINE
  5
BB
  8
6
  6
CONTINUOUS
 62
     6
 10
67.5773063958
 20
150.7153123389
 30
0.0
 11
75.9288315251
 21
150.7153123389
 31
0.0
  0
LINE
  5
BC
  8
6
  6
CONTINUOUS
 62
     6
 10
75.9288315251
 20
150.7153123389
 30
0.0
 11
90.8192804071
 21
150.7153123389
 31
0.0
  0
TEXT
  5
BD
  8
6
  6
CONTINUOUS
 62
     6
 10
81.3738093281
 20
151.7153123389
 30
0.0
 40
3.5
  1
%%c
 41
0.7
 11
81.3738093281
 21
150.7153123389
 31
0.0
 73
     1
  0
TEXT
  5
BE
  8
6
  6
CONTINUOUS
 62
     6
 10
86.6489906407
 20
151.7153121643
 30
0.0
 40
3.5
  1
8
 41
0.7
 11
86.6489906407
 21
150.7153121643
 31
0.0
 73
     1
  0
ENDBLK
  5
B5
  8
0
  0
BLOCK
  8
0
  2
*D8
 70
     1
 10
0.0
 20
0.0
 30
0.0
  3
*D8
  1

  0
SOLID
  5
C4
  8
6
  6
CONTINUOUS
 62
     6
 10
131.2246040187
 20
136.8844485623
 30
0.0
 11
131.8246040187
 21
141.8844485623
 31
0.0
 12
130.6246040187
 22
141.8844485623
 32
0.0
 13
130.6246040187
 23
141.8844485623
 33
0.0
  0
SOLID
  5
C5
  8
6
  6
CONTINUOUS
 62
     6
 10
131.2246040187
 20
126.3844485623
 30
0.0
 11
130.6246040187
 21
121.3844485623
 31
0.0
 12
131.8246040187
 22
121.3844485623
 32
0.0
 13
131.8246040187
 23
121.3844485623
 33
0.0
  0
LINE
  5
C6
  8
6
  6
CONTINUOUS
 62
     6
 10
119.3168248399
 20
136.8844485623
 30
0.0
 11
132.2246040187
 21
136.8844485623
 31
0.0
  0
LINE
  5
C7
  8
6
  6
CONTINUOUS
 62
     6
 10
118.8168248399
 20
126.3844485623
 30
0.0
 11
132.2246040187
 21
126.3844485623
 31
0.0
  0
LINE
  5
C8
  8
6
  6
CONTINUOUS
 62
     6
 10
131.2246040187
 20
136.8844485623
 30
0.0
 11
131.2246040187
 21
146.8844485623
 31
0.0
  0
LINE
  5
C9
  8
6
  6
CONTINUOUS
 62
     6
 10
131.2246040187
 20
136.8844485623
 30
0.0
 11
131.2246040187
 21
126.3844485623
 31
0.0
  0
LINE
  5
CA
  8
6
  6
CONTINUOUS
 62
     6
 10
131.2246040187
 20
126.3844485623
 30
0.0
 11
131.2246040187
 21
116.3844485623
 31
0.0
  0
TEXT
  5
CB
  8
6
  6
CONTINUOUS
 62
     6
 10
130.2246041933
 20
128.9197610115
 30
0.0
 40
3.5
  1
10
 50
90.0
 41
0.7
 11
131.2246041933
 21
128.9197610115
 31
0.0
 73
     1
  0
ENDBLK
  5
C3
  8
0
  0
BLOCK
  8
0
  2
*D9
 70
     1
 10
0.0
 20
0.0
 30
0.0
  3
*D9
  1

  0
SOLID
  5
D0
  8
6
  6
CONTINUOUS
 62
     6
 10
201.6932004827
 20
81.8202782567
 30
0.0
 11
200.4725335111
 21
86.7059688061
 31
0.0
 12
199.3512691941
 22
86.2784570149
 32
0.0
 13
199.3512691941
 23
86.2784570149
 33
0.0
  0
SOLID
  5
D1
  8
6
  6
CONTINUOUS
 62
     6
 10
205.2557987429
 20
72.4764089492
 30
0.0
 11
206.4764657145
 21
67.5907183998
 31
0.0
 12
207.5977300314
 22
68.018230191
 32
0.0
 13
207.5977300314
 23
68.018230191
 33
0.0
  0
LINE
  5
D2
  8
6
  6
CONTINUOUS
 62
     6
 10
201.6932004827
 20
81.8202782567
 30
0.0
 11
198.1306022225
 21
91.1641475642
 31
0.0
  0
LINE
  5
D3
  8
6
  6
CONTINUOUS
 62
     6
 10
201.6932004827
 20
81.8202782567
 30
0.0
 11
205.2557987429
 21
72.4764089492
 31
0.0
  0
LINE
  5
D4
  8
6
  6
CONTINUOUS
 62
     6
 10
205.2557987429
 20
72.4764089492
 30
0.0
 11
208.8183970031
 21
63.1325396416
 31
0.0
  0
TEXT
  5
D5
  8
6
  6
CONTINUOUS
 62
     6
 10
203.5218443446
 20
79.8311089807
 30
0.0
 40
3.5
  1
10
 50
290.8706759741
 41
0.7
 11
202.5874574139
 21
79.4748491547
 31
0.0
 73
     1
  0
ENDBLK
  5
CF
  8
0
  0
BLOCK
  8
0
  2
*D10
 70
     1
 10
0.0
 20
0.0
 30
0.0
  3
*D10
  1

  0
SOLID
  5
DA
  8
6
  6
CONTINUOUS
 62
     6
 10
50.181151504
 20
141.6844485623
 30
0.0
 11
50.781151504
 21
146.6844485623
 31
0.0
 12
49.581151504
 22
146.6844485623
 32
0.0
 13
49.581151504
 23
146.6844485623
 33
0.0
  0
SOLID
  5
DB
  8
6
  6
CONTINUOUS
 62
     6
 10
50.181151504
 20
136.8844485623
 30
0.0
 11
49.581151504
 21
131.8844485623
 31
0.0
 12
50.781151504
 22
131.8844485623
 32
0.0
 13
50.781151504
 23
131.8844485623
 33
0.0
  0
LINE
  5
DC
  8
6
  6
CONTINUOUS
 62
     6
 10
68.3168248399
 20
141.6844485623
 30
0.0
 11
49.181151504
 21
141.6844485623
 31
0.0
  0
LINE
  5
DD
  8
6
  6
CONTINUOUS
 62
     6
 10
62.3168248399
 20
136.8844485623
 30
0.0
 11
49.181151504
 21
136.8844485623
 31
0.0
  0
LINE
  5
DE
  8
6
  6
CONTINUOUS
 62
     6
 10
50.181151504
 20
141.6844485623
 30
0.0
 11
50.181151504
 21
151.6844485623
 31
0.0
  0
LINE
  5
DF
  8
6
  6
CONTINUOUS
 62
     6
 10
50.181151504
 20
141.6844485623
 30
0.0
 11
50.181151504
 21
136.8844485623
 31
0.0
  0
LINE
  5
E0
  8
6
  6
CONTINUOUS
 62
     6
 10
50.181151504
 20
136.8844485623
 30
0.0
 11
50.181151504
 21
127.3811025669
 31
0.0
  0
TEXT
  5
E1
  8
6
  6
CONTINUOUS
 62
     6
 10
49.1811516786
 20
128.9686025669
 30
0.0
 40
3.5
  1
5
 50
90.0
 41
0.7
 11
50.1811516786
 21
128.9686025669
 31
0.0
 73
     1
  0
ENDBLK
  5
D9
  8
0
  0
BLOCK
  8
0
  2
*D11
 70
     1
 10
0.0
 20
0.0
 30
0.0
  3
*D11
  1

  0
SOLID
  5
E6
  8
6
  6
CONTINUOUS
 62
     6
 10
80.8168248399
 20
108.4819110318
 30
0.0
 11
85.8168248399
 21
107.8819110318
 31
0.0
 12
85.8168248399
 22
109.0819110318
 32
0.0
 13
85.8168248399
 23
109.0819110318
 33
0.0
  0
SOLID
  5
E7
  8
6
  6
CONTINUOUS
 62
     6
 10
100.8168248399
 20
108.4819110318
 30
0.0
 11
95.8168248399
 21
109.0819110318
 31
0.0
 12
95.8168248399
 22
107.8819110318
 32
0.0
 13
95.8168248399
 23
107.8819110318
 33
0.0
  0
LINE
  5
E8
  8
6
  6
CONTINUOUS
 62
     6
 10
80.8168248399
 20
108.4819110318
 30
0.0
 11
62.8677806965
 21
108.4819110318
 31
0.0
  0
LINE
  5
E9
  8
6
  6
CONTINUOUS
 62
     6
 10
80.8168248399
 20
108.4819110318
 30
0.0
 11
100.8168248399
 21
108.4819110318
 31
0.0
  0
TEXT
  5
EA
  8
6
  6
CONTINUOUS
 62
     6
 10
64.4552806965
 20
109.4819110318
 30
0.0
 40
3.5
  1
%%c
 41
0.7
 11
64.4552806965
 21
108.4819110318
 31
0.0
 73
     1
  0
TEXT
  5
EB
  8
6
  6
CONTINUOUS
 62
     6
 10
69.7304620091
 20
109.4819108572
 30
0.0
 40
3.5
  1
20
 41
0.7
 11
69.7304620091
 21
108.4819108572
 31
0.0
 73
     1
  0
ENDBLK
  5
E5
  8
0
  0
BLOCK
  8
0
  2
*D12
 70
     1
 10
0.0
 20
0.0
 30
0.0
  3
*D12
  1

  0
SOLID
  5
117
  8
6
  6
CONTINUOUS
 62
     6
 10
283.6949481406
 20
252.7609461883
 30
0.0
 11
283.0949481406
 21
247.7609461883
 31
0.0
 12
284.2949481406
 22
247.7609461883
 32
0.0
 13
284.2949481406
 23
247.7609461883
 33
0.0
  0
SOLID
  5
118
  8
6
  6
CONTINUOUS
 62
     6
 10
283.6949481406
 20
197.7609461883
 30
0.0
 11
284.2949481406
 21
202.7609461883
 31
0.0
 12
283.0949481406
 22
202.7609461883
 32
0.0
 13
283.0949481406
 23
202.7609461883
 33
0.0
  0
LINE
  5
119
  8
6
  6
CONTINUOUS
 62
     6
 10
297.4949481406
 20
252.7609461883
 30
0.0
 11
282.6949481406
 21
252.7609461883
 31
0.0
  0
LINE
  5
11A
  8
6
  6
CONTINUOUS
 62
     6
 10
298.4949481406
 20
197.7609461883
 30
0.0
 11
282.6949481406
 21
197.7609461883
 31
0.0
  0
LINE
  5
11B
  8
6
  6
CONTINUOUS
 62
     6
 10
283.6949481406
 20
252.7609461883
 30
0.0
 11
283.6949481406
 21
197.7609461883
 31
0.0
  0
TEXT
  5
11C
  8
6
  6
CONTINUOUS
 62
     6
 10
282.6949481406
 20
221.5880154571
 30
0.0
 40
3.5
  1
%%c
 50
90.0
 41
0.7
 11
283.6949481406
 21
221.5880154571
 31
0.0
 73
     1
  0
TEXT
  5
11D
  8
6
  6
CONTINUOUS
 62
     6
 10
282.6949483152
 20
226.8631967697
 30
0.0
 40
3.5
  1
55
 50
90.0
 41
0.7
 11
283.6949483152
 21
226.8631967697
 31
0.0
 73
     1
  0
ENDBLK
  5
116
  8
0
  0
BLOCK
  8
0
  2
*D13
 70
     1
 10
0.0
 20
0.0
 30
0.0
  3
*D13
  1

  0
SOLID
  5
122
  8
6
  6
CONTINUOUS
 62
     6
 10
372.7449481406
 20
181.7609461883
 30
0.0
 11
367.7449481406
 21
182.3609461883
 31
0.0
 12
367.7449481406
 22
181.1609461883
 32
0.0
 13
367.7449481406
 23
181.1609461883
 33
0.0
  0
SOLID
  5
123
  8
6
  6
CONTINUOUS
 62
     6
 10
298.4949481406
 20
181.7609461883
 30
0.0
 11
303.4949481406
 21
181.1609461883
 31
0.0
 12
303.4949481406
 22
182.3609461883
 32
0.0
 13
303.4949481406
 23
182.3609461883
 33
0.0
  0
LINE
  5
124
  8
6
  6
CONTINUOUS
 62
     6
 10
372.7449481406
 20
212.2609461883
 30
0.0
 11
372.7449481406
 21
180.7609461883
 31
0.0
  0
LINE
  5
125
  8
6
  6
CONTINUOUS
 62
     6
 10
298.4949481406
 20
196.9250723226
 30
0.0
 11
298.4949481406
 21
180.7609461883
 31
0.0
  0
LINE
  5
126
  8
6
  6
CONTINUOUS
 62
     6
 10
372.7449481406
 20
181.7609461883
 30
0.0
 11
298.4949481406
 21
181.7609461883
 31
0.0
  0
TEXT
  5
127
  8
6
  6
CONTINUOUS
 62
     6
 10
334.1721985473
 20
182.7609460137
 30
0.0
 40
3.5
  1
74
 50
0.0
 41
0.7
 11
334.1721985473
 21
181.7609460137
 31
0.0
 73
     1
  0
ENDBLK
  5
121
  8
0
  0
ENDSEC
  0
SECTION
  2
ENTITIES
  0
LINE
  5
34
  8
6
  6
CONTINUOUS
 62
     6
 10
20.0
 20
287.0
 30
0.0
 11
20.0
 21
9.0
 31
0.0
  0
LINE
  5
35
  8
6
  6
CONTINUOUS
 62
     6
 10
20.0
 20
148.5
 30
0.0
 11
13.375265605
 21
148.5
 31
0.0
  0
LINE
  5
36
  8
6
  6
CONTINUOUS
 62
     6
 10
20.0
 20
287.0
 30
0.0
 11
414.5
 21
287.0
 31
0.0
  0
LINE
  5
37
  8
6
  6
CONTINUOUS
 62
     6
 10
20.0
 20
9.0
 30
0.0
 11
414.5
 21
9.0
 31
0.0
  0
LINE
  5
38
  8
6
  6
CONTINUOUS
 62
     6
 10
0.0
 20
297.0
 30
0.0
 11
420.0
 21
297.0
 31
0.0
  0
LINE
  5
39
  8
6
  6
CONTINUOUS
 62
     6
 10
420.0
 20
297.0
 30
0.0
 11
420.0
 21
0.0
 31
0.0
  0
LINE
  5
3A
  8
6
  6
CONTINUOUS
 62
     6
 10
420.0
 20
0.0
 30
0.0
 11
0.0
 21
0.0
 31
0.0
  0
LINE
  5
3B
  8
6
  6
CONTINUOUS
 62
     6
 10
0.0
 20
0.0
 30
0.0
 11
0.0
 21
297.0
 31
0.0
  0
LINE
  5
3C
  8
6
  6
CONTINUOUS
 62
     6
 10
414.5
 20
52.5
 30
0.0
 11
414.5
 21
287.0
 31
0.0
  0
LINE
  5
3D
  8
6
  6
CONTINUOUS
 62
     6
 10
414.5
 20
52.5
 30
0.0
 11
414.5
 21
9.0
 31
0.0
  0
TEXT
  5
3E
  8
2
  6
CONTINUOUS
 62
     1
 10
360.8456779998
 20
39.975604046
 30
0.0
 40
10.0
  1
804
 41
0.7
 11
360.8456779998
 21
37.1184611889
 31
0.0
 73
     1
  0
INSERT
  5
45
  8
2
  6
CONTINUOUS
 62
     1
  2
SW_NOTE_0
 10
25.131147541
 20
27.4759448138
 30
0.0
  0
TEXT
  5
46
  8
2
  6
CONTINUOUS
 62
     1
 10
312.7010196007
 20
39.8322418184
 30
0.0
 40
10.0
  1
Modell 
 41
0.7
 11
312.7010196007
 21
36.9750989613
 31
0.0
 73
     1
  0
INSERT
  5
4C
  8
2
  6
CONTINUOUS
 62
     1
  2
SW_NOTE_1
 10
309.7662955082
 20
27.4759448138
 30
0.0
  0
TEXT
  5
4D
  8
2
  6
CONTINUOUS
 62
     1
 10
300.4572681642
 20
14.8988612224
 30
0.0
 40
3.5
  1
Datum/Date 01/2008    Maßstab/Scale 1:1
 41
0.6461538462
 11
300.4572681642
 21
13.8988612224
 31
0.0
 73
     1
  0
LINE
  5
4E
  8
6
  6
CONTINUOUS
 62
     6
 10
221.5609571442
 20
237.7609461883
 30
0.0
 11
222.8873116987
 21
237.7609461883
 31
0.0
  0
LINE
  5
4F
  8
6
  6
CONTINUOUS
 62
     6
 10
221.5609571442
 20
212.7609461883
 30
0.0
 11
222.8873116987
 21
212.7609461883
 31
0.0
  0
LINE
  5
50
  8
6
  6
CONTINUOUS
 62
     6
 10
221.5609571442
 20
237.7609461883
 30
0.0
 11
215.7993923164
 21
237.7609461883
 31
0.0
  0
LINE
  5
51
  8
6
  6
CONTINUOUS
 62
     6
 10
221.5609571442
 20
212.7609461883
 30
0.0
 11
215.7993923164
 21
212.7609461883
 31
0.0
  0
LINE
  5
52
  8
0
  6
CONTINUOUS
 10
221.5609542593
 20
212.760946002
 30
0.0
 11
73.0183619573
 21
212.760946002
 31
0.0
  0
LINE
  5
53
  8
0
  6
CONTINUOUS
 10
73.0183619573
 20
237.7609463745
 30
0.0
 11
221.5609542593
 21
237.7609463745
 31
0.0
  0
LINE
  5
54
  8
0
  6
CONTINUOUS
 10
222.002430962
 20
237.2609462926
 30
0.0
 11
222.002430962
 21
213.260946084
 31
0.0
  0
LINE
  5
55
  8
0
  6
CONTINUOUS
 10
221.5609542593
 20
212.760946002
 30
0.0
 11
222.002430962
 21
213.260946084
 31
0.0
  0
LINE
  5
56
  8
0
  6
CONTINUOUS
 10
222.002430962
 20
237.2609462926
 30
0.0
 11
221.5609542593
 21
237.7609463745
 31
0.0
  0
LINE
  5
57
  8
0
  6
CONTINUOUS
 10
72.5943382397
 20
213.260946084
 30
0.0
 11
72.5943382397
 21
237.2609462926
 31
0.0
  0
LINE
  5
58
  8
0
  6
CONTINUOUS
 10
73.0183619573
 20
237.7609463745
 30
0.0
 11
72.5943382397
 21
237.2609462926
 31
0.0
  0
LINE
  5
59
  8
0
  6
CONTINUOUS
 10
72.5943382397
 20
213.260946084
 30
0.0
 11
73.0183619573
 21
212.760946002
 31
0.0
  0
ARC
  5
5A
  8
0
  6
CONTINUOUS
 10
90.8168248399
 20
225.2609461883
 30
0.0
 40
27.50000000000001
 50
27.0356917894
 51
180.0
  0
ARC
  5
5B
  8
0
  6
CONTINUOUS
 10
90.8168248399
 20
225.2609461883
 30
0.0
 40
27.5
 50
180.0
 51
332.9643082106
  0
DIMENSION
  5
5C
  8
6
  6
CONTINUOUS
 62
     6
  2
*D3
 10
234.4557460709
 20
212.7609461883
 30
0.0
 11
234.4557460709
 21
225.8033116973
 31
0.0
 70
   160
  3
SLDDIMSTYLE0
 13
222.8873116987
 23
237.7609461883
 33
0.0
 14
222.8873116987
 24
212.7609461883
 34
0.0
 50
90.0
  0
DIMENSION
  5
69
  8
6
  6
CONTINUOUS
 62
     6
  2
*D4
 10
222.0024309406
 20
181.7609461883
 30
0.0
 11
149.8343129701
 21
181.7609461883
 31
0.0
 70
   160
  3
SLDDIMSTYLE1
 13
72.5943379146
 23
213.2609461883
 33
0.0
 14
222.0024309406
 24
213.2609461883
 34
0.0
  0
INSERT
  5
7F
  8
6
  6
CENTER
 62
     6
  2
SW_CENTERMARKSYMBOL_0
 10
90.8168248399
 20
225.2609461883
 30
0.0
  0
LINE
  5
80
  8
6
  6
CONTINUOUS
 62
     6
 10
67.5773063958
 20
136.8844485623
 30
0.0
 11
67.5773063958
 21
137.5084810895
 31
0.0
  0
LINE
  5
81
  8
6
  6
CONTINUOUS
 62
     6
 10
75.9288315251
 20
136.8844485623
 30
0.0
 11
75.9288315251
 21
137.3492194335
 31
0.0
  0
LINE
  5
82
  8
6
  6
CENTER
 62
     6
 10
71.8168248399
 20
142.990884263
 30
0.0
 11
71.8168248399
 21
126.3844485623
 31
0.0
  0
LINE
  5
83
  8
6
  6
CENTER
 62
     6
 10
109.8168248399
 20
142.990884263
 30
0.0
 11
109.8168248399
 21
126.3844485623
 31
0.0
  0
LINE
  5
84
  8
0
  6
CONTINUOUS
 10
80.8168250635
 20
126.3844485623
 30
0.0
 11
80.8168250635
 21
100.6344485325
 31
0.0
  0
LINE
  5
85
  8
0
  6
CONTINUOUS
 10
100.8168246164
 20
100.6344485325
 30
0.0
 11
100.8168246164
 21
126.3844485623
 31
0.0
  0
ARC
  5
86
  8
0
  6
CONTINUOUS
 10
102.7797892671
 20
83.6032250942
 30
0.0
 40
1.965908256551077
 50
178.8808479697
 51
244.9700865379
  0
ARC
  5
87
  8
0
  6
CONTINUOUS
 10
78.8322247243
 20
95.504363982
 30
0.0
 40
1.992442205164854
 50
245.6447515779
 51
0.4401963979
  0
LINE
  5
88
  8
0
  6
CONTINUOUS
 10
80.8168250635
 20
100.6344485325
 30
0.0
 11
80.8168250635
 21
95.5233893586
 31
0.0
  0
LINE
  5
89
  8
0
  6
CONTINUOUS
 10
100.8168246164
 20
83.6401063246
 30
0.0
 11
100.8168246164
 21
100.6344485325
 31
0.0
  0
LINE
  5
8A
  8
0
  6
CONTINUOUS
 10
78.0024744138
 20
93.693584506
 30
0.0
 11
77.3742787107
 21
93.5014712853
 31
0.0
  0
LINE
  5
8B
  8
0
  6
CONTINUOUS
 10
63.316824989
 20
136.8844484207
 30
0.0
 11
63.316824989
 21
126.8844485861
 31
0.0
  0
LINE
  5
8C
  8
0
  6
CONTINUOUS
 10
118.3168246909
 20
126.8844485861
 30
0.0
 11
118.3168246909
 21
136.8844484207
 31
0.0
  0
LINE
  5
8D
  8
0
  6
CONTINUOUS
 10
63.316824989
 20
126.8844485861
 30
0.0
 11
63.8168241396
 21
126.3844485623
 31
0.0
  0
LINE
  5
8E
  8
0
  6
CONTINUOUS
 10
117.8168255403
 20
126.3844485623
 30
0.0
 11
118.3168246909
 21
126.8844485861
 31
0.0
  0
LINE
  5
8F
  8
0
  6
CONTINUOUS
 10
114.0563424244
 20
136.8844484207
 30
0.0
 11
113.8309530481
 21
141.1851340202
 31
0.0
  0
LINE
  5
90
  8
0
  6
CONTINUOUS
 10
67.8026966318
 20
141.1851340202
 30
0.0
 11
67.5773072555
 21
136.8844484207
 31
0.0
  0
LINE
  5
91
  8
0
  6
CONTINUOUS
 10
113.8309530481
 20
141.1851340202
 30
0.0
 11
113.2764081969
 21
141.6844486487
 31
0.0
  0
LINE
  5
92
  8
0
  6
CONTINUOUS
 10
68.357241483
 20
141.6844486487
 30
0.0
 11
67.8026966318
 21
141.1851340202
 31
0.0
  0
ARC
  5
93
  8
0
  6
CONTINUOUS
 10
151.8168248399
 20
212.6344485623
 30
0.0
 40
140.0
 50
238.2039000016
 51
243.7665897804
  0
ARC
  5
94
  8
0
  6
CONTINUOUS
 10
151.8168248399
 20
212.6344485623
 30
0.0
 40
140.0
 50
243.7665897804
 51
297.7960999984
  0
LINE
  5
95
  8
0
  6
CONTINUOUS
 10
78.0511127352
 20
93.6444516522
 30
0.0
 11
77.3636392816
 21
93.4844467086
 31
0.0
  0
LINE
  5
96
  8
0
  6
CONTINUOUS
 10
72.5943382397
 20
85.851967637
 30
0.0
 11
77.3636392816
 21
93.4844467086
 31
0.0
  0
LINE
  5
97
  8
0
  6
CONTINUOUS
 10
217.777162002
 20
88.5810966832
 30
0.0
 11
217.1025268301
 21
88.7886661333
 31
0.0
  0
LINE
  5
98
  8
0
  6
CONTINUOUS
 10
217.777162002
 20
88.5810966832
 30
0.0
 11
222.002430962
 21
80.6345234853
 31
0.0
  0
ARC
  5
99
  8
0
  6
CONTINUOUS
 10
151.8168248399
 20
212.6344485623
 30
0.0
 40
150.0
 50
238.1916250379
 51
297.8083749621
  0
LINE
  5
9A
  8
0
  6
CONTINUOUS
 10
72.5943382397
 20
85.851967637
 30
0.0
 11
72.7548218831
 21
85.1620997531
 31
0.0
  0
LINE
  5
9B
  8
0
  6
CONTINUOUS
 10
221.7942170366
 20
79.9575302047
 30
0.0
 11
222.002430962
 21
80.6345234853
 31
0.0
  0
LINE
  5
9C
  8
0
  6
CONTINUOUS
 10
63.316824989
 20
136.8844484207
 30
0.0
 11
118.3168246909
 21
136.8844484207
 31
0.0
  0
LINE
  5
9D
  8
0
  6
CONTINUOUS
 10
117.8168255403
 20
126.3844485623
 30
0.0
 11
63.8168241396
 21
126.3844485623
 31
0.0
  0
ARC
  5
9E
  8
0
  6
CONTINUOUS
 10
95.6688263355
 20
140.5152036755
 30
0.0
 40
10.66972758325345
 50
340.1057212457
 51
358.0328444823
  0
LINE
  5
9F
  8
0
  6
CONTINUOUS
 10
106.3322659149
 20
140.148948249
 30
0.0
 11
106.3958258867
 21
141.1851340202
 31
0.0
  0
ARC
  5
A0
  8
0
  6
CONTINUOUS
 10
85.7710782785
 20
140.4778258221
 30
0.0
 40
10.47485864651887
 50
181.7992027159
 51
200.0626727814
  0
LINE
  5
A1
  8
0
  6
CONTINUOUS
 10
75.301383765
 20
140.148948249
 30
0.0
 11
75.2378237932
 21
141.1851340202
 31
0.0
  0
LINE
  5
A2
  8
0
  6
CONTINUOUS
 10
107.06751156
 20
141.6844486487
 30
0.0
 11
113.2764081969
 21
141.6844486487
 31
0.0
  0
LINE
  5
A3
  8
0
  6
CONTINUOUS
 10
106.3958258867
 20
141.1851340202
 30
0.0
 11
107.06751156
 21
141.6844486487
 31
0.0
  0
LINE
  5
A4
  8
0
  6
CONTINUOUS
 10
68.357241483
 20
141.6844486487
 30
0.0
 11
74.5661381199
 21
141.6844486487
 31
0.0
  0
LINE
  5
A5
  8
0
  6
CONTINUOUS
 10
74.5661381199
 20
141.6844486487
 30
0.0
 11
75.2378237932
 21
141.1851340202
 31
0.0
  0
LINE
  5
A6
  8
0
  6
CONTINUOUS
 10
73.1732911929
 20
141.6844486487
 30
0.0
 11
74.5661381199
 21
141.6844486487
 31
0.0
  0
LINE
  5
A7
  8
0
  6
CONTINUOUS
 10
108.460358487
 20
141.6844486487
 30
0.0
 11
107.06751156
 21
141.6844486487
 31
0.0
  0
DIMENSION
  5
A8
  8
6
  6
CONTINUOUS
 62
     6
  2
*D6
 10
109.8168248399
 20
161.3451519187
 30
0.0
 11
91.7836095924
 21
161.3451519187
 31
0.0
 70
   160
  3
SLDDIMSTYLE0
 13
71.8168248399
 23
142.990884263
 33
0.0
 14
109.8168248399
 24
142.990884263
 34
0.0
  0
DIMENSION
  5
B2
  8
6
  6
CONTINUOUS
 62
     6
  2
*D7
 10
75.9288315251
 20
150.7153123389
 30
0.0
 11
85.3027948676
 21
150.7153123389
 31
0.0
 70
   160
  1
%%c<>
  3
SLDDIMSTYLE1
 13
67.5773063958
 23
137.5084810895
 33
0.0
 14
75.9288315251
 24
137.3492194335
 34
0.0
  0
DIMENSION
  5
BF
  8
6
  6
CONTINUOUS
 62
     6
  2
*D8
 10
131.2246040187
 20
126.3844485623
 30
0.0
 11
131.2246040187
 21
131.5049334253
 31
0.0
 70
   160
  1
10
  3
SLDDIMSTYLE2
 13
118.3168248399
 23
136.8844485623
 33
0.0
 14
117.8168248399
 24
126.3844485623
 34
0.0
 50
90.0
  0
DIMENSION
  5
CC
  8
6
  6
CONTINUOUS
 62
     6
  2
*D9
 10
205.2557987429
 20
72.4764089492
 30
0.0
 11
203.5084506514
 21
77.0592978997
 31
0.0
 70
   160
  3
SLDDIMSTYLE0
 13
201.6932004827
 23
81.8202782567
 33
0.0
 14
205.2557987429
 24
72.4764089492
 34
0.0
 50
-69.1293240259
  0
DIMENSION
  5
D6
  8
6
  6
CONTINUOUS
 62
     6
  2
*D10
 10
50.181151504
 20
136.8844485623
 30
0.0
 11
50.181151504
 21
130.2599974501
 31
0.0
 70
   160
  3
SLDDIMSTYLE1
 13
69.3168248399
 23
141.6844485623
 33
0.0
 14
63.3168248399
 24
136.8844485623
 34
0.0
 50
90.0
  0
DIMENSION
  5
E2
  8
6
  6
CONTINUOUS
 62
     6
  2
*D11
 10
100.8168248399
 20
108.4819110318
 30
0.0
 11
69.6780437666
 21
108.4819110318
 31
0.0
 70
   160
  1
%%c<>
  3
SLDDIMSTYLE0
 13
80.8168248399
 23
100.6344485623
 33
0.0
 14
100.8168248399
 24
100.6344485623
 34
0.0
  0
LINE
  5
EC
  8
6
  6
CENTER
 62
     6
 10
90.8168248399
 20
139.6344485623
 30
0.0
 11
90.8168248399
 21
87.0418087026
 31
0.0
  0
LINE
  5
ED
  8
0
  6
CONTINUOUS
 10
308.9949481406
 20
215.2609464118
 30
0.0
 11
334.7449481704
 21
215.2609464118
 31
0.0
  0
LINE
  5
EE
  8
0
  6
CONTINUOUS
 10
334.7449481704
 20
235.2609459648
 30
0.0
 11
308.9949481406
 21
235.2609459648
 31
0.0
  0
LINE
  5
EF
  8
0
  6
CONTINUOUS
 10
372.7449469485
 20
237.2609462926
 30
0.0
 11
372.2449459352
 21
237.7609463745
 31
0.0
  0
LINE
  5
F0
  8
0
  6
CONTINUOUS
 10
372.2449459352
 20
212.760946002
 30
0.0
 11
372.7449469485
 21
213.260946084
 31
0.0
  0
LINE
  5
F1
  8
0
  6
CONTINUOUS
 10
372.7449469485
 20
213.260946084
 30
0.0
 11
372.7449469485
 21
237.2609462926
 31
0.0
  0
LINE
  5
F2
  8
0
  6
CONTINUOUS
 10
334.7449481704
 20
215.2609464118
 30
0.0
 11
341.7349450507
 21
215.2609464118
 31
0.0
  0
LINE
  5
F3
  8
0
  6
CONTINUOUS
 10
341.7349450507
 20
235.2609459648
 30
0.0
 11
334.7449481704
 21
235.2609459648
 31
0.0
  0
LINE
  5
F4
  8
0
  6
CONTINUOUS
 10
299.494948446
 20
197.7609463373
 30
0.0
 11
308.4949481168
 21
197.7609463373
 31
0.0
  0
LINE
  5
F5
  8
0
  6
CONTINUOUS
 10
308.4949481168
 20
252.7609460393
 30
0.0
 11
298.4949482821
 21
252.7609460393
 31
0.0
  0
LINE
  5
F6
  8
0
  6
CONTINUOUS
 10
308.4949481168
 20
197.7609463373
 30
0.0
 11
308.9949481406
 21
198.2609454879
 31
0.0
  0
LINE
  5
F7
  8
0
  6
CONTINUOUS
 10
308.9949481406
 20
252.2609468886
 30
0.0
 11
308.4949481168
 21
252.7609460393
 31
0.0
  0
LINE
  5
F8
  8
0
  6
CONTINUOUS
 10
298.4949482821
 20
229.5004648493
 30
0.0
 11
294.1942626827
 21
229.275075473
 31
0.0
  0
LINE
  5
F9
  8
0
  6
CONTINUOUS
 10
294.1942626827
 20
221.2468169035
 30
0.0
 11
298.4949482821
 21
221.0214275272
 31
0.0
  0
LINE
  5
FA
  8
0
  6
CONTINUOUS
 10
294.1942626827
 20
229.275075473
 30
0.0
 11
293.6949480541
 21
228.7205301562
 31
0.0
  0
LINE
  5
FB
  8
0
  6
CONTINUOUS
 10
293.6949480541
 20
221.8013622204
 30
0.0
 11
294.1942626827
 21
221.2468169035
 31
0.0
  0
LINE
  5
FC
  8
0
  6
CONTINUOUS
 10
342.1599112668
 20
237.7609463745
 30
0.0
 11
349.7923903384
 21
237.7609463745
 31
0.0
  0
LINE
  5
FD
  8
0
  6
CONTINUOUS
 10
349.7923903384
 20
212.760946002
 30
0.0
 11
342.1599112668
 21
212.760946002
 31
0.0
  0
LINE
  5
FE
  8
0
  6
CONTINUOUS
 10
350.2172969498
 20
237.2609462926
 30
0.0
 11
350.2172969498
 21
213.260946084
 31
0.0
  0
LINE
  5
FF
  8
0
  6
CONTINUOUS
 10
349.7923903384
 20
212.760946002
 30
0.0
 11
350.2172969498
 21
213.260946084
 31
0.0
  0
LINE
  5
100
  8
0
  6
CONTINUOUS
 10
349.7923903384
 20
237.7609463745
 30
0.0
 11
350.2172969498
 21
237.2609462926
 31
0.0
  0
LINE
  5
101
  8
0
  6
CONTINUOUS
 10
349.7923903384
 20
237.7609463745
 30
0.0
 11
372.2449459352
 21
237.7609463745
 31
0.0
  0
LINE
  5
102
  8
0
  6
CONTINUOUS
 10
372.2449459352
 20
212.760946002
 30
0.0
 11
349.7923903384
 21
212.760946002
 31
0.0
  0
POLYLINE
  5
103
  8
0
  6
CONTINUOUS
 66
     1
 10
0.0
 20
0.0
 30
0.0
  0
VERTEX
  5
12A
  8
0
  6
CONTINUOUS
 10
341.7349450507
 20
222.6473246572
 30
0.0
  0
VERTEX
  5
12B
  8
0
  6
CONTINUOUS
 10
341.6853390851
 20
225.2457145358
 30
0.0
  0
VERTEX
  5
12C
  8
0
  6
CONTINUOUS
 10
341.7349450507
 20
227.8745677193
 30
0.0
  0
SEQEND
  5
129
  8
0
  6
CONTINUOUS
  0
LINE
  5
104
  8
0
  6
CONTINUOUS
 10
341.7349450507
 20
227.8745677193
 30
0.0
 11
341.7349450507
 21
237.2609462926
 31
0.0
  0
LINE
  5
105
  8
0
  6
CONTINUOUS
 10
341.7349450507
 20
213.260946084
 30
0.0
 11
341.7349450507
 21
222.6473246572
 31
0.0
  0
LINE
  5
106
  8
0
  6
CONTINUOUS
 10
341.7349450507
 20
213.260946084
 30
0.0
 11
342.1599112668
 21
212.760946002
 31
0.0
  0
LINE
  5
107
  8
0
  6
CONTINUOUS
 10
342.1599112668
 20
237.7609463745
 30
0.0
 11
341.7349450507
 21
237.2609462926
 31
0.0
  0
LINE
  5
108
  8
0
  6
CONTINUOUS
 10
363.2449463226
 20
212.760946002
 30
0.0
 11
347.0330342867
 21
212.760946002
 31
0.0
  0
LINE
  5
109
  8
0
  6
CONTINUOUS
 10
347.0330342867
 20
237.7609463745
 30
0.0
 11
363.2449463226
 21
237.7609463745
 31
0.0
  0
LINE
  5
10A
  8
0
  6
CONTINUOUS
 10
299.494948446
 20
197.7609463373
 30
0.0
 11
299.494948446
 21
197.925071452
 31
0.0
  0
LINE
  5
10B
  8
0
  6
CONTINUOUS
 10
299.494948446
 20
197.925071452
 30
0.0
 11
298.4949482821
 21
197.925071452
 31
0.0
  0
LINE
  5
10C
  8
0
  6
CONTINUOUS
 10
298.4949482821
 20
197.925071452
 30
0.0
 11
298.4949482821
 21
252.7609460393
 31
0.0
  0
LINE
  5
10D
  8
0
  6
CONTINUOUS
 10
308.9949481406
 20
225.2609461883
 30
0.0
 11
308.9949481406
 21
198.2609454879
 31
0.0
  0
LINE
  5
10E
  8
0
  6
CONTINUOUS
 10
308.9949481406
 20
252.2609468886
 30
0.0
 11
308.9949481406
 21
225.2609461883
 31
0.0
  0
LINE
  5
10F
  8
0
  6
CONTINUOUS
 10
298.4949482821
 20
197.925071452
 30
0.0
 11
298.4949482821
 21
199.1326094011
 31
0.0
  0
LINE
  5
110
  8
0
  6
CONTINUOUS
 10
293.6949480541
 20
221.8013622204
 30
0.0
 11
293.6949480541
 21
228.7205301562
 31
0.0
  0
LINE
  5
111
  8
0
  6
CONTINUOUS
 10
293.6949480541
 20
223.1609462632
 30
0.0
 11
293.6949480541
 21
222.7609462442
 31
0.0
  0
LINE
  5
112
  8
0
  6
CONTINUOUS
 10
293.6949480541
 20
227.7609461324
 30
0.0
 11
293.6949480541
 21
227.3609461134
 31
0.0
  0
DIMENSION
  5
113
  8
6
  6
CONTINUOUS
 62
     6
  2
*D12
 10
283.6949481406
 20
197.7609461883
 30
0.0
 11
283.6949481406
 21
226.8107785272
 31
0.0
 70
   160
  1
%%c<>
  3
SLDDIMSTYLE0
 13
298.4949481406
 23
252.7609461883
 33
0.0
 14
299.4949481406
 24
197.7609461883
 34
0.0
 50
90.0
  0
DIMENSION
  5
11E
  8
6
  6
CONTINUOUS
 62
     6
  2
*D13
 10
298.4949481406
 20
181.7609461883
 30
0.0
 11
336.7573709611
 21
181.7609461883
 31
0.0
 70
   160
  3
SLDDIMSTYLE1
 13
372.7449481406
 23
213.2609461883
 33
0.0
 14
298.4949481406
 24
197.9250723226
 34
0.0
  0
LINE
  5
128
  8
6
  6
CENTER
 62
     6
 10
291.7684140217
 20
225.2609461883
 30
0.0
 11
374.211221661
 21
225.2609461883
 31
0.0
  0
ENDSEC
  0
EOF
