  0
SECTION
  2
HEADER
  9
$ACADVER
  1
AC1009
  9
$DWGCODEPAGE
  3
ansi_1252
  9
$INSBASE
 10
0.0
 20
0.0
 30
0.0
  9
$EXTMIN
 10
0.0
 20
0.0
 30
0.0
  9
$EXTMAX
 10
420.0
 20
297.0
 30
0.0
  9
$LIMMIN
 10
0.0
 20
0.0
  9
$LIMMAX
 10
0.0
 20
0.0
  9
$ORTHOMODE
 70
     0
  9
$REGENMODE
 70
     1
  9
$FILLMODE
 70
     1
  9
$QTEXTMODE
 70
     0
  9
$MIRRTEXT
 70
     1
  9
$DRAGMODE
 70
     2
  9
$LTSCALE
 40
1.0
  9
$OSMODE
 70
    37
  9
$ATTMODE
 70
     1
  9
$TEXTSIZE
 40
3.5
  9
$TRACEWID
 40
1.0
  9
$TEXTSTYLE
  7
STANDARD
  9
$CLAYER
  8
0
  9
$CELTYPE
  6
BYLAYER
  9
$CECOLOR
 62
   256
  9
$DIMSCALE
 40
1.0
  9
$DIMASZ
 40
5.0
  9
$DIMEXO
 40
1.0
  9
$DIMDLI
 40
3.75
  9
$DIMRND
 40
0.0
  9
$DIMDLE
 40
0.0
  9
$DIMEXE
 40
1.0
  9
$DIMTP
 40
0.0
  9
$DIMTM
 40
0.0
  9
$DIMTXT
 40
3.5
  9
$DIMCEN
 40
2.5
  9
$DIMTSZ
 40
0.0
  9
$DIMTOL
 70
     0
  9
$DIMLIM
 70
     0
  9
$DIMTIH
 70
     1
  9
$DIMTOH
 70
     1
  9
$DIMSE1
 70
     0
  9
$DIMSE2
 70
     0
  9
$DIMTAD
 70
     1
  9
$DIMZIN
 70
     0
  9
$DIMBLK
  1

  9
$DIMASO
 70
     1
  9
$DIMSHO
 70
     1
  9
$DIMPOST
  1

  9
$DIMAPOST
  1

  9
$DIMALT
 70
     0
  9
$DIMALTD
 70
     3
  9
$DIMALTF
 40
0.0393700787
  9
$DIMLFAC
 40
1.0
  9
$DIMTOFL
 70
     1
  9
$DIMTVP
 40
0.0
  9
$DIMTIX
 70
     0
  9
$DIMSOXD
 70
     0
  9
$DIMSAH
 70
     0
  9
$DIMBLK1
  1

  9
$DIMBLK2
  1

  9
$DIMSTYLE
  2
ISO-25
  9
$DIMCLRD
 70
     0
  9
$DIMCLRE
 70
     0
  9
$DIMCLRT
 70
     0
  9
$DIMTFAC
 40
1.0
  9
$DIMGAP
 40
1.524
  9
$LUNITS
 70
     2
  9
$LUPREC
 70
     2
  9
$SKETCHINC
 40
1.0
  9
$FILLETRAD
 40
10.0
  9
$AUNITS
 70
     0
  9
$AUPREC
 70
     0
  9
$MENU
  1
.
  9
$ELEVATION
 40
0.0
  9
$PELEVATION
 40
0.0
  9
$THICKNESS
 40
0.0
  9
$LIMCHECK
 70
     0
  9
$CHAMFERA
 40
10.0
  9
$CHAMFERB
 40
10.0
  9
$SKPOLY
 70
     0
  9
$TDCREATE
 40
2454490.562190752
  9
$TDUPDATE
 40
2454490.562190764
  9
$TDINDWG
 40
0.0000000116
  9
$TDUSRTIMER
 40
0.0000000116
  9
$USRTIMER
 70
     1
  9
$ANGBASE
 50
0.0
  9
$ANGDIR
 70
     0
  9
$PDMODE
 70
     0
  9
$PDSIZE
 40
-1.0
  9
$PLINEWID
 40
0.0
  9
$COORDS
 70
     1
  9
$SPLFRAME
 70
     0
  9
$SPLINETYPE
 70
     6
  9
$SPLINESEGS
 70
     8
  9
$ATTDIA
 70
     0
  9
$ATTREQ
 70
     1
  9
$HANDLING
 70
     1
  9
$HANDSEED
  5
13A
  9
$SURFTAB1
 70
     6
  9
$SURFTAB2
 70
     6
  9
$SURFTYPE
 70
     6
  9
$SURFU
 70
     6
  9
$SURFV
 70
     6
  9
$UCSNAME
  2

  9
$UCSORG
 10
0.0
 20
0.0
 30
0.0
  9
$UCSXDIR
 10
1.0
 20
0.0
 30
0.0
  9
$UCSYDIR
 10
0.0
 20
1.0
 30
0.0
  9
$PUCSNAME
  2

  9
$PUCSORG
 10
0.0
 20
0.0
 30
0.0
  9
$PUCSXDIR
 10
1.0
 20
0.0
 30
0.0
  9
$PUCSYDIR
 10
0.0
 20
1.0
 30
0.0
  9
$USERI1
 70
     0
  9
$USERI2
 70
     0
  9
$USERI3
 70
     0
  9
$USERI4
 70
     0
  9
$USERI5
 70
     0
  9
$USERR1
 40
0.0
  9
$USERR2
 40
0.0
  9
$USERR3
 40
0.0
  9
$USERR4
 40
0.0
  9
$USERR5
 40
0.0
  9
$WORLDVIEW
 70
     1
  9
$SHADEDGE
 70
     3
  9
$SHADEDIF
 70
    70
  9
$TILEMODE
 70
     1
  9
$MAXACTVP
 70
    64
  9
$PLIMCHECK
 70
     0
  9
$PEXTMIN
 10
1.0000000000E+20
 20
1.0000000000E+20
 30
1.0000000000E+20
  9
$PEXTMAX
 10
-1.0000000000E+20
 20
-1.0000000000E+20
 30
-1.0000000000E+20
  9
$PLIMMIN
 10
0.0
 20
0.0
  9
$PLIMMAX
 10
420.0
 20
297.0
  9
$UNITMODE
 70
     0
  9
$VISRETAIN
 70
     1
  9
$PLINEGEN
 70
     0
  9
$PSLTSCALE
 70
     1
  0
ENDSEC
  0
SECTION
  2
TABLES
  0
TABLE
  2
VPORT
 70
     1
  0
VPORT
  2
*ACTIVE
 70
     0
 10
0.0
 20
0.0
 11
1.0
 21
1.0
 12
210.0
 22
148.5
 13
0.0
 23
0.0
 14
10.0
 24
10.0
 15
10.0
 25
10.0
 16
0.0
 26
0.0
 36
1.0
 17
0.0
 27
0.0
 37
0.0
 40
297.0
 41
1.4141414141
 42
50.0
 43
0.0
 44
0.0
 50
0.0
 51
0.0
 71
     0
 72
  2000
 73
     1
 74
     3
 75
     0
 76
     0
 77
     0
 78
     0
  0
ENDTAB
  0
TABLE
  2
LTYPE
 70
     6
  0
LTYPE
  2
CONTINUOUS
 70
     0
  3
Solid line
 72
    65
 73
     0
 40
0.0
  0
LTYPE
  2
HIDDEN
 70
     0
  3
Hidden __ __ __ __ __ __ __ __ __ __ __ __ __ __
 72
    65
 73
     2
 40
1.905
 49
1.27
 49
-0.635
  0
LTYPE
  2
PHANTOM
 70
     0
  3
Phantom ______  __  __  ______  __  __  ______
 72
    65
 73
     6
 40
12.7
 49
6.35
 49
-1.27
 49
1.27
 49
-1.27
 49
1.27
 49
-1.27
  0
LTYPE
  2
CENTER
 70
     0
  3
Center ____ _ ____ _ ____ _ ____ _ ____ _ ____
 72
    65
 73
     4
 40
10.16
 49
6.35
 49
-1.27
 49
1.27
 49
-1.27
  0
LTYPE
  2
CENTERX2
 70
     0
  3
Center (2x) ________  __  ________  __  _____
 72
    65
 73
     4
 40
20.32
 49
12.7
 49
-2.54
 49
2.54
 49
-2.54
  0
LTYPE
  2
DOT2
 70
     0
  3
Dot (.5x) ........................................
 72
    65
 73
     2
 40
0.635
 49
0.0
 49
-0.635
  0
ENDTAB
  0
TABLE
  2
LAYER
 70
     6
  0
LAYER
  2
0
 70
     0
 62
     7
  6
CONTINUOUS
  0
LAYER
  2
DEFPOINTS
 70
     0
 62
     7
  6
CONTINUOUS
  0
LAYER
  2
7
 70
     0
 62
     7
  6
CONTINUOUS
  0
LAYER
  2
1
 70
     0
 62
     1
  6
CONTINUOUS
  0
LAYER
  2
2
 70
     0
 62
     2
  6
PHANTOM
  0
LAYER
  2
6
 70
     0
 62
     6
  6
CONTINUOUS
  0
ENDTAB
  0
TABLE
  2
STYLE
 70
     1
  0
STYLE
  2
STANDARD
 70
     0
 40
0.0
 41
1.0
 50
0.0
 71
     0
 42
2.5
  3
txt
  4

  0
ENDTAB
  0
TABLE
  2
VIEW
 70
     0
  0
ENDTAB
  0
TABLE
  2
UCS
 70
     0
  0
ENDTAB
  0
TABLE
  2
APPID
 70
     1
  0
APPID
  2
ACAD
 70
     0
  0
ENDTAB
  0
TABLE
  2
DIMSTYLE
 70
     4
  0
DIMSTYLE
  2
ISO-25
 70
     0
  3

  4

  5

  6

  7

 40
1.0
 41
2.5
 42
0.625
 43
3.75
 44
1.25
 45
0.0
 46
0.0
 47
0.0
 48
0.0
140
2.5
141
2.5
142
0.0
143
0.0393700787
144
1.0
145
0.0
146
1.0
147
0.625
 71
     0
 72
     0
 73
     0
 74
     0
 75
     0
 76
     0
 77
     1
 78
     8
170
     0
171
     3
172
     1
173
     0
174
     0
175
     0
176
     0
177
     0
178
     0
  0
DIMSTYLE
  2
SLDDIMSTYLE0
 70
     0
  3

  4

  5

  6

  7

 40
1.0
 41
5.0
 42
0.0625
 43
0.38
 44
0.0
 45
0.0
 46
0.0
 47
0.0
 48
0.0
140
3.5
141
0.09
142
0.0
143
25.4
144
1.0
145
0.0
146
1.0
147
0.875
 71
     0
 72
     0
 73
     0
 74
     1
 75
     0
 76
     0
 77
     1
 78
    12
170
     0
171
     2
172
     0
173
     1
174
     0
175
     0
176
     0
177
     0
178
     0
  0
DIMSTYLE
  2
SLDDIMSTYLE1
 70
     0
  3

  4

  5

  6

  7

 40
1.0
 41
5.0
 42
0.0625
 43
0.38
 44
0.0
 45
0.0
 46
0.0
 47
0.0
 48
0.0
140
3.5
141
0.09
142
0.0
143
25.4
144
1.0
145
0.0
146
1.0
147
0.875
 71
     0
 72
     0
 73
     0
 74
     1
 75
     0
 76
     0
 77
     1
 78
    12
170
     0
171
     2
172
     0
173
     1
174
     0
175
     0
176
     0
177
     0
178
     0
  0
DIMSTYLE
  2
SLDDIMSTYLE2
 70
     0
  3

  4

  5

  6

  7

 40
1.0
 41
5.0
 42
0.0625
 43
0.38
 44
0.0
 45
0.0
 46
0.0
 47
0.0
 48
0.0
140
3.5
141
0.09
142
0.0
143
25.4
144
1.0
145
0.0
146
1.0
147
0.875
 71
     0
 72
     0
 73
     0
 74
     1
 75
     0
 76
     0
 77
     1
 78
    12
170
     0
171
     2
172
     0
173
     1
174
     0
175
     0
176
     0
177
     0
178
     0
  0
ENDTAB
  0
ENDSEC
  0
SECTION
  2
BLOCKS
  0
BLOCK
  8
0
  2
$MODEL_SPACE
 70
     0
 10
0.0
 20
0.0
 30
0.0
  3
$MODEL_SPACE
  1

  0
ENDBLK
  5
21
  8
0
  0
BLOCK
 67
     1
  8
0
  2
$PAPER_SPACE
 70
     0
 10
0.0
 20
0.0
 30
0.0
  3
$PAPER_SPACE
  1

  0
ENDBLK
  5
1D
 67
     1
  8
0
  0
BLOCK
  8
0
  2
SW_NOTE_0
 70
     0
 10
0.0
 20
0.0
 30
0.0
  3
SW_NOTE_0
  1

  0
TEXT
  5
41
  8
2
  6
CONTINUOUS
 62
     0
 10
0.0
 20
1.0
 30
0.0
 40
3.5
  1
Ausführung rechts
 41
0.7
 11
0.0
 21
0.0
 31
0.0
 73
     1
  0
TEXT
  5
42
  8
2
  6
CONTINUOUS
 62
     0
 10
0.0
 20
-3.5256945305
 30
0.0
 40
3.5
  1
demonstration right
 41
0.7
 11
0.0
 21
-4.5256945305
 31
0.0
 73
     1
  0
ENDBLK
  5
40
  8
0
  0
BLOCK
  8
0
  2
SW_NOTE_1
 70
     0
 10
0.0
 20
0.0
 30
0.0
  3
SW_NOTE_1
  1

  0
TEXT
  5
47
  8
2
  6
CONTINUOUS
 62
     0
 10
0.0
 20
1.0
 30
0.0
 40
3.5
  1
Diese Zeichnung ist gemäß Urheberrecht gesetzlich geschützt
 41
0.6644067797
 11
0.0
 21
0.0
 31
0.0
 73
     1
  0
TEXT
  5
48
  8
2
  6
CONTINUOUS
 62
     0
 10
0.0
 20
-8.0513890609
 30
0.0
 40
3.5
  1
This drawing is protected under copyright law; unauthorizid disclosure,
 41
0.6605633803
 11
0.0
 21
-9.0513890609
 31
0.0
 73
     1
  0
TEXT
  5
49
  8
2
  6
CONTINUOUS
 62
     0
 10
0.0
 20
-12.5770835914
 30
0.0
 40
3.5
  1
reprodution or use is prohibted.
 41
0.65625
 11
0.0
 21
-13.5770835914
 31
0.0
 73
     1
  0
ENDBLK
  5
46
  8
0
  0
BLOCK
  8
0
  2
SW_NOTE_2
 70
     0
 10
0.0
 20
0.0
 30
0.0
  3
SW_NOTE_2
  1

  0
TEXT
  5
4F
  8
2
  6
CONTINUOUS
 62
     0
 10
0.0
 20
1.0
 30
0.0
 40
3.5
  1
Vieler International GmbH+Co.KG
 41
0.6774193548
 11
0.0
 21
0.0
 31
0.0
 73
     1
  0
TEXT
  5
50
  8
2
  6
CONTINUOUS
 62
     0
 10
22.5458340719
 20
-3.5256945305
 30
0.0
 40
3.5
  1
58642 Iserlohn
 41
0.7
 11
22.5458340719
 21
-4.5256945305
 31
0.0
 73
     1
  0
ENDBLK
  5
4E
  8
0
  0
BLOCK
  8
0
  2
*D4
 70
     1
 10
0.0
 20
0.0
 30
0.0
  3
*D4
  1

  0
SOLID
  5
63
  8
6
  6
CONTINUOUS
 62
     6
 10
226.3839254466
 20
186.2062717022
 30
0.0
 11
221.3839254466
 21
186.8062717022
 31
0.0
 12
221.3839254466
 22
185.6062717022
 32
0.0
 13
221.3839254466
 23
185.6062717022
 33
0.0
  0
SOLID
  5
64
  8
6
  6
CONTINUOUS
 62
     6
 10
93.2290297224
 20
186.2062717022
 30
0.0
 11
98.2290297224
 21
185.6062717022
 31
0.0
 12
98.2290297224
 22
186.8062717022
 32
0.0
 13
98.2290297224
 23
186.8062717022
 33
0.0
  0
LINE
  5
65
  8
6
  6
CONTINUOUS
 62
     6
 10
226.3839254466
 20
224.7211781581
 30
0.0
 11
226.3839254466
 21
185.2062717022
 31
0.0
  0
LINE
  5
66
  8
6
  6
CONTINUOUS
 62
     6
 10
93.2290297224
 20
220.6772928603
 30
0.0
 11
93.2290297224
 21
185.2062717022
 31
0.0
  0
LINE
  5
67
  8
6
  6
CONTINUOUS
 62
     6
 10
226.3839254466
 20
186.2062717022
 30
0.0
 11
93.2290297224
 21
186.2062717022
 31
0.0
  0
TEXT
  5
68
  8
6
  6
CONTINUOUS
 62
     6
 10
155.3239788616
 20
187.2062715275
 30
0.0
 40
3.5
  1
133
 50
0.0
 41
0.7
 11
155.3239788616
 21
186.2062715275
 31
0.0
 73
     1
  0
ENDBLK
  5
62
  8
0
  0
BLOCK
  8
0
  2
*D5
 70
     1
 10
0.0
 20
0.0
 30
0.0
  3
*D5
  1

  0
SOLID
  5
6D
  8
6
  6
CONTINUOUS
 62
     6
 10
236.9102935184
 20
218.8023266706
 30
0.0
 11
234.7257804036
 21
214.2649372834
 31
0.0
 12
235.8613161199
 22
213.8769184218
 32
0.0
 13
235.8613161199
 23
213.8769184218
 33
0.0
  0
SOLID
  5
6E
  8
6
  6
CONTINUOUS
 62
     6
 10
239.5616469212
 20
226.5615022761
 30
0.0
 11
241.7461600361
 21
231.0988916633
 31
0.0
 12
240.6106243197
 22
231.4869105249
 32
0.0
 13
240.6106243197
 23
231.4869105249
 33
0.0
  0
LINE
  5
6F
  8
6
  6
CONTINUOUS
 62
     6
 10
222.1163547095
 20
223.8574977347
 30
0.0
 11
237.856573282
 21
218.4789776193
 31
0.0
  0
LINE
  5
70
  8
6
  6
CONTINUOUS
 62
     6
 10
224.7677081123
 20
231.6166733402
 30
0.0
 11
240.5079266848
 21
226.2381532248
 31
0.0
  0
LINE
  5
71
  8
6
  6
CONTINUOUS
 62
     6
 10
236.9102935184
 20
218.8023266706
 30
0.0
 11
233.676803005
 21
209.3395290346
 31
0.0
  0
LINE
  5
72
  8
6
  6
CONTINUOUS
 62
     6
 10
236.9102935184
 20
218.8023266706
 30
0.0
 11
239.5616469212
 21
226.5615022761
 31
0.0
  0
LINE
  5
73
  8
6
  6
CONTINUOUS
 62
     6
 10
239.5616469212
 20
226.5615022761
 30
0.0
 11
242.7951374346
 21
236.0242999121
 31
0.0
  0
TEXT
  5
74
  8
6
  6
CONTINUOUS
 62
     6
 10
236.8593416409
 20
221.7458488206
 30
0.0
 40
3.5
  1
8
 50
71.1344172706
 41
0.7
 11
237.8056214045
 21
221.4224997693
 31
0.0
 73
     1
  0
ENDBLK
  5
6C
  8
0
  0
BLOCK
  8
0
  2
*D6
 70
     1
 10
0.0
 20
0.0
 30
0.0
  3
*D6
  1

  0
SOLID
  5
7A
  8
6
  6
CONTINUOUS
 62
     6
 10
64.749281701
 20
218.1447155141
 30
0.0
 11
63.1799750645
 21
222.9298254063
 31
0.0
 12
62.0924057201
 22
222.4226834922
 32
0.0
 13
62.0924057201
 23
222.4226834922
 33
0.0
  0
SOLID
  5
7B
  8
6
  6
CONTINUOUS
 62
     6
 10
73.2016469358
 20
200.0185597734
 30
0.0
 11
74.7709535723
 21
195.2334498811
 31
0.0
 12
75.8585229167
 22
195.7405917952
 32
0.0
 13
75.8585229167
 23
195.7405917952
 33
0.0
  0
LINE
  5
7C
  8
6
  6
CONTINUOUS
 62
     6
 10
98.046539318
 20
233.6714817365
 30
0.0
 11
63.842973914
 21
217.7220972524
 31
0.0
  0
LINE
  5
7D
  8
6
  6
CONTINUOUS
 62
     6
 10
106.4989045528
 20
215.5453259957
 30
0.0
 11
72.2953391488
 21
199.5959415116
 31
0.0
  0
LINE
  5
7E
  8
6
  6
CONTINUOUS
 62
     6
 10
64.749281701
 20
218.1447155141
 30
0.0
 11
60.5230990836
 21
227.2077933845
 31
0.0
  0
LINE
  5
7F
  8
6
  6
CONTINUOUS
 62
     6
 10
64.749281701
 20
218.1447155141
 30
0.0
 11
73.2016469358
 21
200.0185597734
 31
0.0
  0
LINE
  5
80
  8
6
  6
CONTINUOUS
 62
     6
 10
73.2016469358
 20
200.0185597734
 30
0.0
 11
77.4278295532
 21
190.955481903
 31
0.0
  0
TEXT
  5
81
  8
6
  6
CONTINUOUS
 62
     6
 10
68.8145988201
 20
211.7928159881
 30
0.0
 40
3.5
  1
20
 50
295.0
 41
0.7
 11
67.9082910331
 21
211.3701977264
 31
0.0
 73
     1
  0
ENDBLK
  5
79
  8
0
  0
BLOCK
  8
0
  2
SW_CENTERMARKSYMBOL_0
 70
     0
 10
0.0
 20
0.0
 30
0.0
  3
SW_CENTERMARKSYMBOL_0
  1

  0
LINE
  5
86
  8
6
  6
CENTER
 62
     0
 10
0.0
 20
0.0
 30
0.0
 11
0.0
 21
2.5
 31
0.0
  0
LINE
  5
87
  8
6
  6
CENTER
 62
     0
 10
0.0
 20
0.0
 30
0.0
 11
-2.5
 21
0.0
 31
0.0
  0
LINE
  5
88
  8
6
  6
CENTER
 62
     0
 10
0.0
 20
0.0
 30
0.0
 11
0.0
 21
-2.5
 31
0.0
  0
LINE
  5
89
  8
6
  6
CENTER
 62
     0
 10
0.0
 20
0.0
 30
0.0
 11
2.5
 21
0.0
 31
0.0
  0
LINE
  5
8A
  8
6
  6
CENTER
 62
     0
 10
0.0
 20
5.0
 30
0.0
 11
0.0
 21
30.0
 31
0.0
  0
LINE
  5
8B
  8
6
  6
CENTER
 62
     0
 10
-5.0
 20
0.0
 30
0.0
 11
-30.0
 21
0.0
 31
0.0
  0
LINE
  5
8C
  8
6
  6
CENTER
 62
     0
 10
0.0
 20
-5.0
 30
0.0
 11
0.0
 21
-30.0
 31
0.0
  0
LINE
  5
8D
  8
6
  6
CENTER
 62
     0
 10
5.0
 20
0.0
 30
0.0
 11
30.0
 21
0.0
 31
0.0
  0
ENDBLK
  5
85
  8
0
  0
BLOCK
  8
0
  2
*D8
 70
     1
 10
0.0
 20
0.0
 30
0.0
  3
*D8
  1

  0
SOLID
  5
B9
  8
6
  6
CONTINUOUS
 62
     6
 10
84.1790297224
 20
161.8641828441
 30
0.0
 11
89.1790297224
 21
161.2641828441
 31
0.0
 12
89.1790297224
 22
162.4641828441
 32
0.0
 13
89.1790297224
 23
162.4641828441
 33
0.0
  0
SOLID
  5
BA
  8
6
  6
CONTINUOUS
 62
     6
 10
122.1790297224
 20
161.8641828441
 30
0.0
 11
117.1790297224
 21
162.4641828441
 31
0.0
 12
117.1790297224
 22
161.2641828441
 32
0.0
 13
117.1790297224
 23
161.2641828441
 33
0.0
  0
LINE
  5
BB
  8
6
  6
CONTINUOUS
 62
     6
 10
84.1790297224
 20
142.1706185448
 30
0.0
 11
84.1790297224
 21
162.8641828441
 31
0.0
  0
LINE
  5
BC
  8
6
  6
CONTINUOUS
 62
     6
 10
122.1790297224
 20
142.1706185448
 30
0.0
 11
122.1790297224
 21
162.8641828441
 31
0.0
  0
LINE
  5
BD
  8
6
  6
CONTINUOUS
 62
     6
 10
84.1790297224
 20
161.8641828441
 30
0.0
 11
122.1790297224
 21
161.8641828441
 31
0.0
  0
TEXT
  5
BE
  8
6
  6
CONTINUOUS
 62
     6
 10
101.1036186159
 20
162.8641826694
 30
0.0
 40
3.5
  1
38
 41
0.7
 11
101.1036186159
 21
161.8641826694
 31
0.0
 73
     1
  0
ENDBLK
  5
B8
  8
0
  0
BLOCK
  8
0
  2
*D9
 70
     1
 10
0.0
 20
0.0
 30
0.0
  3
*D9
  1

  0
SOLID
  5
C3
  8
6
  6
CONTINUOUS
 62
     6
 10
79.9395112783
 20
150.8043301664
 30
0.0
 11
74.9395112783
 21
151.4043301664
 31
0.0
 12
74.9395112783
 22
150.2043301664
 32
0.0
 13
74.9395112783
 23
150.2043301664
 33
0.0
  0
SOLID
  5
C4
  8
6
  6
CONTINUOUS
 62
     6
 10
88.2910364076
 20
150.8043301664
 30
0.0
 11
93.2910364076
 21
150.2043301664
 31
0.0
 12
93.2910364076
 22
151.4043301664
 32
0.0
 13
93.2910364076
 23
151.4043301664
 33
0.0
  0
LINE
  5
C5
  8
6
  6
CONTINUOUS
 62
     6
 10
79.9395112783
 20
136.8763313355
 30
0.0
 11
79.9395112783
 21
151.8043301664
 31
0.0
  0
LINE
  5
C6
  8
6
  6
CONTINUOUS
 62
     6
 10
88.2910364076
 20
136.4702570898
 30
0.0
 11
88.2910364076
 21
151.8043301664
 31
0.0
  0
LINE
  5
C7
  8
6
  6
CONTINUOUS
 62
     6
 10
79.9395112783
 20
150.8043301664
 30
0.0
 11
69.9395112783
 21
150.8043301664
 31
0.0
  0
LINE
  5
C8
  8
6
  6
CONTINUOUS
 62
     6
 10
79.9395112783
 20
150.8043301664
 30
0.0
 11
88.2910364076
 21
150.8043301664
 31
0.0
  0
LINE
  5
C9
  8
6
  6
CONTINUOUS
 62
     6
 10
88.2910364076
 20
150.8043301664
 30
0.0
 11
103.6336222718
 21
150.8043301664
 31
0.0
  0
TEXT
  5
CA
  8
6
  6
CONTINUOUS
 62
     6
 10
94.1881511928
 20
151.8043301664
 30
0.0
 40
3.5
  1
%%c
 41
0.7
 11
94.1881511928
 21
150.8043301664
 31
0.0
 73
     1
  0
TEXT
  5
CB
  8
6
  6
CONTINUOUS
 62
     6
 10
99.4633325054
 20
151.8043299918
 30
0.0
 40
3.5
  1
8
 41
0.7
 11
99.4633325054
 21
150.8043299918
 31
0.0
 73
     1
  0
ENDBLK
  5
C2
  8
0
  0
BLOCK
  8
0
  2
*D10
 70
     1
 10
0.0
 20
0.0
 30
0.0
  3
*D10
  1

  0
SOLID
  5
D1
  8
6
  6
CONTINUOUS
 62
     6
 10
144.8559047514
 20
135.0641828441
 30
0.0
 11
145.4559047514
 21
140.0641828441
 31
0.0
 12
144.2559047514
 22
140.0641828441
 32
0.0
 13
144.2559047514
 23
140.0641828441
 33
0.0
  0
SOLID
  5
D2
  8
6
  6
CONTINUOUS
 62
     6
 10
144.8559047514
 20
124.5641828441
 30
0.0
 11
144.2559047514
 21
119.5641828441
 31
0.0
 12
145.4559047514
 22
119.5641828441
 32
0.0
 13
145.4559047514
 23
119.5641828441
 33
0.0
  0
LINE
  5
D3
  8
6
  6
CONTINUOUS
 62
     6
 10
131.6790297224
 20
135.0641828441
 30
0.0
 11
145.8559047514
 21
135.0641828441
 31
0.0
  0
LINE
  5
D4
  8
6
  6
CONTINUOUS
 62
     6
 10
131.1790297224
 20
124.5641828441
 30
0.0
 11
145.8559047514
 21
124.5641828441
 31
0.0
  0
LINE
  5
D5
  8
6
  6
CONTINUOUS
 62
     6
 10
144.8559047514
 20
135.0641828441
 30
0.0
 11
144.8559047514
 21
147.5001205112
 31
0.0
  0
LINE
  5
D6
  8
6
  6
CONTINUOUS
 62
     6
 10
144.8559047514
 20
135.0641828441
 30
0.0
 11
144.8559047514
 21
124.5641828441
 31
0.0
  0
LINE
  5
D7
  8
6
  6
CONTINUOUS
 62
     6
 10
144.8559047514
 20
124.5641828441
 30
0.0
 11
144.8559047514
 21
114.5641828441
 31
0.0
  0
TEXT
  5
D8
  8
6
  6
CONTINUOUS
 62
     6
 10
143.855904926
 20
140.7422756836
 30
0.0
 40
3.5
  1
10
 50
90.0
 41
0.7
 11
144.855904926
 21
140.7422756836
 31
0.0
 73
     1
  0
ENDBLK
  5
D0
  8
0
  0
BLOCK
  8
0
  2
*D11
 70
     1
 10
0.0
 20
0.0
 30
0.0
  3
*D11
  1

  0
SOLID
  5
DD
  8
6
  6
CONTINUOUS
 62
     6
 10
238.2231925497
 20
87.8141828441
 30
0.0
 11
238.8231925497
 21
92.8141828441
 31
0.0
 12
237.6231925497
 22
92.8141828441
 32
0.0
 13
237.6231925497
 23
92.8141828441
 33
0.0
  0
SOLID
  5
DE
  8
6
  6
CONTINUOUS
 62
     6
 10
238.2231925497
 20
65.8141828441
 30
0.0
 11
237.6231925497
 21
60.8141828441
 31
0.0
 12
238.8231925497
 22
60.8141828441
 32
0.0
 13
238.8231925497
 23
60.8141828441
 33
0.0
  0
LINE
  5
DF
  8
6
  6
CONTINUOUS
 62
     6
 10
224.6350673656
 20
87.8141828441
 30
0.0
 11
239.2231925497
 21
87.8141828441
 31
0.0
  0
LINE
  5
E0
  8
6
  6
CONTINUOUS
 62
     6
 10
224.6351861203
 20
65.8141828441
 30
0.0
 11
239.2231925497
 21
65.8141828441
 31
0.0
  0
LINE
  5
E1
  8
6
  6
CONTINUOUS
 62
     6
 10
238.2231925497
 20
87.8141828441
 30
0.0
 11
238.2231925497
 21
97.8141828441
 31
0.0
  0
LINE
  5
E2
  8
6
  6
CONTINUOUS
 62
     6
 10
238.2231925497
 20
87.8141828441
 30
0.0
 11
238.2231925497
 21
65.8141828441
 31
0.0
  0
LINE
  5
E3
  8
6
  6
CONTINUOUS
 62
     6
 10
238.2231925497
 20
65.8141828441
 30
0.0
 11
238.2231925497
 21
55.8141828441
 31
0.0
  0
TEXT
  5
E4
  8
6
  6
CONTINUOUS
 62
     6
 10
237.2231927243
 20
74.8686244327
 30
0.0
 40
3.5
  1
22
 50
90.0
 41
0.7
 11
238.2231927243
 21
74.8686244327
 31
0.0
 73
     1
  0
ENDBLK
  5
DC
  8
0
  0
BLOCK
  8
0
  2
*D12
 70
     1
 10
0.0
 20
0.0
 30
0.0
  3
*D12
  1

  0
SOLID
  5
E9
  8
6
  6
CONTINUOUS
 62
     6
 10
65.6790297224
 20
139.8641828441
 30
0.0
 11
66.2790297224
 21
144.8641828441
 31
0.0
 12
65.0790297224
 22
144.8641828441
 32
0.0
 13
65.0790297224
 23
144.8641828441
 33
0.0
  0
SOLID
  5
EA
  8
6
  6
CONTINUOUS
 62
     6
 10
65.6790297224
 20
135.0641828441
 30
0.0
 11
65.0790297224
 21
130.0641828441
 31
0.0
 12
66.2790297224
 22
130.0641828441
 32
0.0
 13
66.2790297224
 23
130.0641828441
 33
0.0
  0
LINE
  5
EB
  8
6
  6
CONTINUOUS
 62
     6
 10
80.6790297224
 20
139.8641828441
 30
0.0
 11
64.6790297224
 21
139.8641828441
 31
0.0
  0
LINE
  5
EC
  8
6
  6
CONTINUOUS
 62
     6
 10
74.6790297224
 20
135.0641828441
 30
0.0
 11
64.6790297224
 21
135.0641828441
 31
0.0
  0
LINE
  5
ED
  8
6
  6
CONTINUOUS
 62
     6
 10
65.6790297224
 20
139.8641828441
 30
0.0
 11
65.6790297224
 21
149.8641828441
 31
0.0
  0
LINE
  5
EE
  8
6
  6
CONTINUOUS
 62
     6
 10
65.6790297224
 20
139.8641828441
 30
0.0
 11
65.6790297224
 21
135.0641828441
 31
0.0
  0
LINE
  5
EF
  8
6
  6
CONTINUOUS
 62
     6
 10
65.6790297224
 20
135.0641828441
 30
0.0
 11
65.6790297224
 21
126.686720083
 31
0.0
  0
TEXT
  5
F0
  8
6
  6
CONTINUOUS
 62
     6
 10
64.6790298971
 20
128.274220083
 30
0.0
 40
3.5
  1
5
 50
90.0
 41
0.7
 11
65.6790298971
 21
128.274220083
 31
0.0
 73
     1
  0
ENDBLK
  5
E8
  8
0
  0
BLOCK
  8
0
  2
*D13
 70
     1
 10
0.0
 20
0.0
 30
0.0
  3
*D13
  1

  0
SOLID
  5
F5
  8
6
  6
CONTINUOUS
 62
     6
 10
93.1790297224
 20
106.4616377796
 30
0.0
 11
98.1790297224
 21
105.8616377796
 31
0.0
 12
98.1790297224
 22
107.0616377796
 32
0.0
 13
98.1790297224
 23
107.0616377796
 33
0.0
  0
SOLID
  5
F6
  8
6
  6
CONTINUOUS
 62
     6
 10
113.1790297224
 20
106.4616377796
 30
0.0
 11
108.1790297224
 21
107.0616377796
 31
0.0
 12
108.1790297224
 22
105.8616377796
 32
0.0
 13
108.1790297224
 23
105.8616377796
 33
0.0
  0
LINE
  5
F7
  8
6
  6
CONTINUOUS
 62
     6
 10
93.1790297224
 20
106.4616377796
 30
0.0
 11
74.1540421226
 21
106.4616377796
 31
0.0
  0
LINE
  5
F8
  8
6
  6
CONTINUOUS
 62
     6
 10
93.1790297224
 20
106.4616377796
 30
0.0
 11
113.1790297224
 21
106.4616377796
 31
0.0
  0
TEXT
  5
F9
  8
6
  6
CONTINUOUS
 62
     6
 10
75.7415421226
 20
107.4616377796
 30
0.0
 40
3.5
  1
%%c
 50
0.0
 41
0.7
 11
75.7415421226
 21
106.4616377796
 31
0.0
 73
     1
  0
TEXT
  5
FA
  8
6
  6
CONTINUOUS
 62
     6
 10
81.0167234352
 20
107.461637605
 30
0.0
 40
3.5
  1
20
 50
0.0
 41
0.7
 11
81.0167234352
 21
106.461637605
 31
0.0
 73
     1
  0
ENDBLK
  5
F4
  8
0
  0
BLOCK
  8
0
  2
*D14
 70
     1
 10
0.0
 20
0.0
 30
0.0
  3
*D14
  1

  0
SOLID
  5
11D
  8
6
  6
CONTINUOUS
 62
     6
 10
281.8572655542
 20
252.5310221279
 30
0.0
 11
281.2572655542
 21
247.5310221279
 31
0.0
 12
282.4572655542
 22
247.5310221279
 32
0.0
 13
282.4572655542
 23
247.5310221279
 33
0.0
  0
SOLID
  5
11E
  8
6
  6
CONTINUOUS
 62
     6
 10
281.8572655542
 20
197.5310221279
 30
0.0
 11
282.4572655542
 21
202.5310221279
 31
0.0
 12
281.2572655542
 22
202.5310221279
 32
0.0
 13
281.2572655542
 23
202.5310221279
 33
0.0
  0
LINE
  5
11F
  8
6
  6
CONTINUOUS
 62
     6
 10
297.4949481406
 20
252.5310221279
 30
0.0
 11
280.8572655542
 21
252.5310221279
 31
0.0
  0
LINE
  5
120
  8
6
  6
CONTINUOUS
 62
     6
 10
298.4949481406
 20
197.5310221279
 30
0.0
 11
280.8572655542
 21
197.5310221279
 31
0.0
  0
LINE
  5
121
  8
6
  6
CONTINUOUS
 62
     6
 10
281.8572655542
 20
252.5310221279
 30
0.0
 11
281.8572655542
 21
197.5310221279
 31
0.0
  0
TEXT
  5
122
  8
6
  6
CONTINUOUS
 62
     6
 10
280.8572655542
 20
219.4454542285
 30
0.0
 40
3.5
  1
%%c
 50
90.0
 41
0.7
 11
281.8572655542
 21
219.4454542285
 31
0.0
 73
     1
  0
TEXT
  5
123
  8
6
  6
CONTINUOUS
 62
     6
 10
280.8572657289
 20
224.7206355411
 30
0.0
 40
3.5
  1
55
 50
90.0
 41
0.7
 11
281.8572657289
 21
224.7206355411
 31
0.0
 73
     1
  0
ENDBLK
  5
11C
  8
0
  0
BLOCK
  8
0
  2
*D15
 70
     1
 10
0.0
 20
0.0
 30
0.0
  3
*D15
  1

  0
SOLID
  5
128
  8
6
  6
CONTINUOUS
 62
     6
 10
298.4949481406
 20
184.2278213994
 30
0.0
 11
303.4949481406
 21
183.6278213994
 31
0.0
 12
303.4949481406
 22
184.8278213994
 32
0.0
 13
303.4949481406
 23
184.8278213994
 33
0.0
  0
SOLID
  5
129
  8
6
  6
CONTINUOUS
 62
     6
 10
367.7449481406
 20
184.2278213994
 30
0.0
 11
362.7449481406
 21
184.8278213994
 31
0.0
 12
362.7449481406
 22
183.6278213994
 32
0.0
 13
362.7449481406
 23
183.6278213994
 33
0.0
  0
LINE
  5
12A
  8
6
  6
CONTINUOUS
 62
     6
 10
298.4949481406
 20
196.6951482622
 30
0.0
 11
298.4949481406
 21
183.2278213994
 31
0.0
  0
LINE
  5
12B
  8
6
  6
CONTINUOUS
 62
     6
 10
367.7449481406
 20
214.5471437239
 30
0.0
 11
367.7449481406
 21
183.2278213994
 31
0.0
  0
LINE
  5
12C
  8
6
  6
CONTINUOUS
 62
     6
 10
298.4949481406
 20
184.2278213994
 30
0.0
 11
367.7449481406
 21
184.2278213994
 31
0.0
  0
TEXT
  5
12D
  8
6
  6
CONTINUOUS
 62
     6
 10
330.7527488672
 20
185.2278212248
 30
0.0
 40
3.5
  1
69
 50
0.0
 41
0.7
 11
330.7527488672
 21
184.2278212248
 31
0.0
 73
     1
  0
ENDBLK
  5
127
  8
0
  0
ENDSEC
  0
SECTION
  2
ENTITIES
  0
LINE
  5
34
  8
6
  6
CONTINUOUS
 62
     6
 10
20.0
 20
287.0
 30
0.0
 11
20.0
 21
9.0
 31
0.0
  0
LINE
  5
35
  8
6
  6
CONTINUOUS
 62
     6
 10
20.0
 20
148.5
 30
0.0
 11
13.375265605
 21
148.5
 31
0.0
  0
LINE
  5
36
  8
6
  6
CONTINUOUS
 62
     6
 10
20.0
 20
287.0
 30
0.0
 11
414.5
 21
287.0
 31
0.0
  0
LINE
  5
37
  8
6
  6
CONTINUOUS
 62
     6
 10
20.0
 20
9.0
 30
0.0
 11
414.5
 21
9.0
 31
0.0
  0
LINE
  5
38
  8
6
  6
CONTINUOUS
 62
     6
 10
0.0
 20
297.0
 30
0.0
 11
420.0
 21
297.0
 31
0.0
  0
LINE
  5
39
  8
6
  6
CONTINUOUS
 62
     6
 10
420.0
 20
297.0
 30
0.0
 11
420.0
 21
0.0
 31
0.0
  0
LINE
  5
3A
  8
6
  6
CONTINUOUS
 62
     6
 10
420.0
 20
0.0
 30
0.0
 11
0.0
 21
0.0
 31
0.0
  0
LINE
  5
3B
  8
6
  6
CONTINUOUS
 62
     6
 10
0.0
 20
0.0
 30
0.0
 11
0.0
 21
297.0
 31
0.0
  0
LINE
  5
3C
  8
6
  6
CONTINUOUS
 62
     6
 10
414.5
 20
52.5
 30
0.0
 11
414.5
 21
287.0
 31
0.0
  0
LINE
  5
3D
  8
6
  6
CONTINUOUS
 62
     6
 10
414.5
 20
52.5
 30
0.0
 11
414.5
 21
9.0
 31
0.0
  0
INSERT
  5
43
  8
2
  6
CONTINUOUS
 62
     1
  2
SW_NOTE_0
 10
92.9293400174
 20
47.2771093288
 30
0.0
  0
INSERT
  5
4A
  8
2
  6
CONTINUOUS
 62
     1
  2
SW_NOTE_1
 10
25.131147541
 20
27.4759448138
 30
0.0
  0
TEXT
  5
4B
  8
2
  6
CONTINUOUS
 62
     1
 10
312.7010196007
 20
39.8322418184
 30
0.0
 40
10.0
  1
Modell 
 41
0.7
 11
312.7010196007
 21
36.9750989613
 31
0.0
 73
     1
  0
INSERT
  5
51
  8
2
  6
CONTINUOUS
 62
     1
  2
SW_NOTE_2
 10
309.7662955082
 20
27.4759448138
 30
0.0
  0
TEXT
  5
52
  8
2
  6
CONTINUOUS
 62
     1
 10
300.4572681642
 20
14.8988612224
 30
0.0
 40
3.5
  1
Datum/Date 01/2008    Maßstab/Scale 1:1
 41
0.6461538462
 11
300.4572681642
 21
13.8988612224
 31
0.0
 73
     1
  0
LINE
  5
53
  8
6
  6
CONTINUOUS
 62
     6
 10
226.3839254466
 20
228.2932369093
 30
0.0
 11
226.3839254466
 21
225.7211781581
 31
0.0
  0
LINE
  5
54
  8
6
  6
CONTINUOUS
 62
     6
 10
93.2290297224
 20
225.0310221279
 30
0.0
 11
93.2290297224
 21
221.6772928603
 31
0.0
  0
ARC
  5
55
  8
0
  6
CONTINUOUS
 10
158.4372022329
 20
62.5048608039
 30
0.0
 40
181.6109980295852
 50
68.8986323129
 51
108.4469921506
  0
ARC
  5
56
  8
0
  6
CONTINUOUS
 10
222.4171316349
 20
228.2241262453
 30
0.0
 40
3.974645881446655
 50
346.6814043805
 51
69.2974311674
  0
ARC
  5
57
  8
0
  6
CONTINUOUS
 10
174.9584854272
 20
72.2622402981
 30
0.0
 40
158.7916055591311
 50
73.0809469429
 51
115.1773100563
  0
ARC
  5
58
  8
0
  6
CONTINUOUS
 10
103.1790297224
 20
225.0310221279
 30
0.0
 40
10.00000000000003
 50
102.7588566201
 51
295.0
  0
LINE
  5
59
  8
0
  6
CONTINUOUS
 10
226.2848760679
 20
227.3085046617
 30
0.0
 11
226.2381087735
 21
227.1059606282
 31
0.0
  0
ARC
  5
5A
  8
0
  6
CONTINUOUS
 10
222.3373856939
 20
228.0113501754
 30
0.0
 40
4.004418906159287
 50
253.0518796258
 51
346.9325699882
  0
ARC
  5
5B
  8
0
  6
CONTINUOUS
 10
103.1790297224
 20
225.0310221279
 30
0.0
 40
10.49999999999999
 50
89.5904154938
 51
310.3282440877
  0
ARC
  5
5C
  8
0
  6
CONTINUOUS
 10
103.1790297224
 20
225.0310221279
 30
0.0
 40
27.5
 50
35.959352399
 51
180.0
  0
ARC
  5
5D
  8
0
  6
CONTINUOUS
 10
103.1790297224
 20
225.0310221279
 30
0.0
 40
27.5
 50
180.0
 51
359.2617297352
  0
DIMENSION
  5
5E
  8
6
  6
CONTINUOUS
 62
     6
  2
*D4
 10
93.2290297224
 20
186.2062717022
 30
0.0
 11
159.202928806
 21
186.2062717022
 31
0.0
 70
   160
  3
SLDDIMSTYLE0
 13
226.3839254466
 23
225.7211781581
 33
0.0
 14
93.2290297224
 24
221.6772928603
 34
0.0
  0
DIMENSION
  5
69
  8
6
  6
CONTINUOUS
 62
     6
  2
*D5
 10
239.5616469212
 20
226.5615022761
 30
0.0
 11
238.2231925497
 21
222.6445206706
 31
0.0
 70
   160
  3
SLDDIMSTYLE0
 13
221.1700749459
 23
224.180846786
 33
0.0
 14
223.8214283487
 24
231.9400223915
 34
0.0
 50
71.1344172706
  0
DIMENSION
  5
75
  8
6
  6
CONTINUOUS
 62
     6
  2
*D6
 10
73.2016469358
 20
200.0185597734
 30
0.0
 11
69.0008322631
 21
209.0272359107
 31
0.0
 70
   160
  3
SLDDIMSTYLE1
 13
98.952847105
 23
234.0940999982
 33
0.0
 14
107.4052123399
 24
215.9679442575
 34
0.0
 50
-65.0
  0
TEXT
  5
82
  8
2
  6
CONTINUOUS
 62
     1
 10
363.6851494208
 20
39.6737789882
 30
0.0
 40
10.0
  1
807
 41
0.7
 11
363.6851494208
 21
36.8166361311
 31
0.0
 73
     1
  0
INSERT
  5
8E
  8
6
  6
CENTER
 62
     6
  2
SW_CENTERMARKSYMBOL_0
 10
103.1790297224
 20
225.0310221279
 30
0.0
  0
LINE
  5
8F
  8
6
  6
CONTINUOUS
 62
     6
 10
79.9395112783
 20
135.0641828441
 30
0.0
 11
79.9395112783
 21
135.8763313355
 31
0.0
  0
LINE
  5
90
  8
6
  6
CENTER
 62
     6
 10
84.1790297224
 20
141.1706185448
 30
0.0
 11
84.1790297224
 21
124.5641828441
 31
0.0
  0
LINE
  5
91
  8
6
  6
CONTINUOUS
 62
     6
 10
88.2910364076
 20
135.0641828441
 30
0.0
 11
88.2910364076
 21
135.4702570898
 31
0.0
  0
LINE
  5
92
  8
6
  6
CENTER
 62
     6
 10
122.1790297224
 20
141.1706185448
 30
0.0
 11
122.1790297224
 21
124.5641828441
 31
0.0
  0
LINE
  5
93
  8
0
  6
CONTINUOUS
 10
93.179029946
 20
124.5641828441
 30
0.0
 11
93.179029946
 21
98.8141828143
 31
0.0
  0
LINE
  5
94
  8
0
  6
CONTINUOUS
 10
113.1790294989
 20
98.8141828143
 30
0.0
 11
113.1790294989
 21
124.5641828441
 31
0.0
  0
LINE
  5
95
  8
0
  6
CONTINUOUS
 10
113.1790294989
 20
89.8141832017
 30
0.0
 11
113.1790294989
 21
98.8141828143
 31
0.0
  0
LINE
  5
96
  8
0
  6
CONTINUOUS
 10
93.179029946
 20
98.8141828143
 30
0.0
 11
93.179029946
 21
66.3223088645
 31
0.0
  0
ARC
  5
97
  8
0
  6
CONTINUOUS
 10
115.1790297224
 20
89.8141828441
 30
0.0
 40
2.0
 50
180.0
 51
270.0
  0
LINE
  5
98
  8
0
  6
CONTINUOUS
 10
93.179029946
 20
66.3223088645
 30
0.0
 11
93.6951512217
 21
65.8141829931
 31
0.0
  0
POLYLINE
  5
99
  8
0
  6
CONTINUOUS
 66
     1
 10
0.0
 20
0.0
 30
0.0
  0
VERTEX
  5
130
  8
0
  6
CONTINUOUS
 10
226.3870458796
 20
66.3219139837
 30
0.0
  0
VERTEX
  5
131
  8
0
  6
CONTINUOUS
 10
226.3897876933
 20
70.3662306928
 30
0.0
  0
VERTEX
  5
132
  8
0
  6
CONTINUOUS
 10
226.3852502897
 20
87.3046898209
 30
0.0
  0
SEQEND
  5
12F
  8
0
  6
CONTINUOUS
  0
LINE
  5
9A
  8
0
  6
CONTINUOUS
 10
225.8713390424
 20
65.8091054224
 30
0.0
 11
226.393416126
 21
66.3219400607
 31
0.0
  0
LINE
  5
9B
  8
0
  6
CONTINUOUS
 10
226.3937215998
 20
87.3046749197
 30
0.0
 11
225.8733134463
 21
87.8141828739
 31
0.0
  0
LINE
  5
9C
  8
0
  6
CONTINUOUS
 10
75.6790298715
 20
135.0641827025
 30
0.0
 11
75.6790298715
 21
125.0641828678
 31
0.0
  0
LINE
  5
9D
  8
0
  6
CONTINUOUS
 10
130.6790295734
 20
125.0641828678
 30
0.0
 11
130.6790295734
 21
135.0641827025
 31
0.0
  0
LINE
  5
9E
  8
0
  6
CONTINUOUS
 10
75.6790298715
 20
125.0641828678
 30
0.0
 11
76.1790290221
 21
124.5641828441
 31
0.0
  0
LINE
  5
9F
  8
0
  6
CONTINUOUS
 10
130.1790304228
 20
124.5641828441
 30
0.0
 11
130.6790295734
 21
125.0641828678
 31
0.0
  0
LINE
  5
A0
  8
0
  6
CONTINUOUS
 10
126.4185473069
 20
135.0641827025
 30
0.0
 11
126.1931579306
 21
139.3648683019
 31
0.0
  0
LINE
  5
A1
  8
0
  6
CONTINUOUS
 10
80.1649015143
 20
139.3648683019
 30
0.0
 11
79.939512138
 21
135.0641827025
 31
0.0
  0
LINE
  5
A2
  8
0
  6
CONTINUOUS
 10
126.1931579306
 20
139.3648683019
 30
0.0
 11
125.6386130794
 21
139.8641829305
 31
0.0
  0
LINE
  5
A3
  8
0
  6
CONTINUOUS
 10
80.7194463655
 20
139.8641829305
 30
0.0
 11
80.1649015143
 21
139.3648683019
 31
0.0
  0
LINE
  5
A4
  8
0
  6
CONTINUOUS
 10
223.6344288781
 20
65.8141829931
 30
0.0
 11
101.1096316601
 21
65.8141829931
 31
0.0
  0
LINE
  5
A5
  8
0
  6
CONTINUOUS
 10
107.3983694173
 20
87.8141828739
 30
0.0
 11
223.6342724159
 21
87.8141828739
 31
0.0
  0
LINE
  5
A6
  8
0
  6
CONTINUOUS
 10
101.1096316601
 20
65.8141829931
 30
0.0
 11
93.6951512217
 21
65.8141829931
 31
0.0
  0
LINE
  5
A7
  8
0
  6
CONTINUOUS
 10
223.6359413459
 20
65.8141829931
 30
0.0
 11
225.8438464
 21
65.8141829931
 31
0.0
  0
LINE
  5
A8
  8
0
  6
CONTINUOUS
 10
223.6358668401
 20
87.8141828739
 30
0.0
 11
225.840471287
 21
87.8141828739
 31
0.0
  0
LINE
  5
A9
  8
0
  6
CONTINUOUS
 10
75.6790298715
 20
135.0641827025
 30
0.0
 11
130.6790295734
 21
135.0641827025
 31
0.0
  0
LINE
  5
AA
  8
0
  6
CONTINUOUS
 10
130.1790304228
 20
124.5641828441
 30
0.0
 11
76.1790290221
 21
124.5641828441
 31
0.0
  0
ARC
  5
AB
  8
0
  6
CONTINUOUS
 10
108.031031218
 20
138.6949379573
 30
0.0
 40
10.66972758325343
 50
340.1057212457
 51
358.0328444823
  0
LINE
  5
AC
  8
0
  6
CONTINUOUS
 10
118.6944707974
 20
138.3286825307
 30
0.0
 11
118.7580307692
 21
139.3648683019
 31
0.0
  0
ARC
  5
AD
  8
0
  6
CONTINUOUS
 10
97.9057199147
 20
138.6136108835
 30
0.0
 40
10.24609374644736
 50
181.5935142987
 51
200.2683611987
  0
LINE
  5
AE
  8
0
  6
CONTINUOUS
 10
87.6635886475
 20
138.3286825307
 30
0.0
 11
87.6000286757
 21
139.3648683019
 31
0.0
  0
LINE
  5
AF
  8
0
  6
CONTINUOUS
 10
119.4297164425
 20
139.8641829305
 30
0.0
 11
125.6386130794
 21
139.8641829305
 31
0.0
  0
LINE
  5
B0
  8
0
  6
CONTINUOUS
 10
118.7580307692
 20
139.3648683019
 30
0.0
 11
119.4297164425
 21
139.8641829305
 31
0.0
  0
LINE
  5
B1
  8
0
  6
CONTINUOUS
 10
80.7194463655
 20
139.8641829305
 30
0.0
 11
86.9283430024
 21
139.8641829305
 31
0.0
  0
LINE
  5
B2
  8
0
  6
CONTINUOUS
 10
86.9283430024
 20
139.8641829305
 30
0.0
 11
87.6000286757
 21
139.3648683019
 31
0.0
  0
LINE
  5
B3
  8
0
  6
CONTINUOUS
 10
85.5354960754
 20
139.8641829305
 30
0.0
 11
86.9283430024
 21
139.8641829305
 31
0.0
  0
LINE
  5
B4
  8
0
  6
CONTINUOUS
 10
120.8225633695
 20
139.8641829305
 30
0.0
 11
119.4297164425
 21
139.8641829305
 31
0.0
  0
DIMENSION
  5
B5
  8
6
  6
CONTINUOUS
 62
     6
  2
*D8
 10
122.1790297224
 20
161.8641828441
 30
0.0
 11
103.6887910297
 21
161.8641828441
 31
0.0
 70
   160
  3
SLDDIMSTYLE1
 13
84.1790297224
 23
141.1706185448
 33
0.0
 14
122.1790297224
 24
141.1706185448
 34
0.0
  0
DIMENSION
  5
BF
  8
6
  6
CONTINUOUS
 62
     6
  2
*D9
 10
88.2910364076
 20
150.8043301664
 30
0.0
 11
98.1171367323
 21
150.8043301664
 31
0.0
 70
   160
  1
%%c<>
  3
SLDDIMSTYLE0
 13
79.9395112783
 23
135.8763313355
 33
0.0
 14
88.2910364076
 24
135.4702570898
 34
0.0
  0
DIMENSION
  5
CC
  8
6
  6
CONTINUOUS
 62
     6
  2
*D10
 10
144.8559047514
 20
124.5641828441
 30
0.0
 11
144.8559047514
 21
143.3274480974
 31
0.0
 70
   160
  1
10
  3
SLDDIMSTYLE2
 13
130.6790297224
 23
135.0641828441
 33
0.0
 14
130.1790297224
 24
124.5641828441
 34
0.0
 50
90.0
  0
DIMENSION
  5
D9
  8
6
  6
CONTINUOUS
 62
     6
  2
*D11
 10
238.2231925497
 20
65.8141828441
 30
0.0
 11
238.2231925497
 21
77.4537968465
 31
0.0
 70
   160
  3
SLDDIMSTYLE1
 13
223.6350673656
 23
87.8141828441
 33
0.0
 14
223.6351861203
 24
65.8141828441
 34
0.0
 50
90.0
  0
DIMENSION
  5
E5
  8
6
  6
CONTINUOUS
 62
     6
  2
*D12
 10
65.6790297224
 20
135.0641828441
 30
0.0
 11
65.6790297224
 21
129.5656149662
 31
0.0
 70
   160
  3
SLDDIMSTYLE0
 13
81.6790297224
 23
139.8641828441
 33
0.0
 14
75.6790297224
 24
135.0641828441
 34
0.0
 50
90.0
  0
DIMENSION
  5
F1
  8
6
  6
CONTINUOUS
 62
     6
  2
*D13
 10
113.1790297224
 20
106.4616377796
 30
0.0
 11
80.9643051927
 21
106.4616377796
 31
0.0
 70
   160
  1
%%c<>
  3
SLDDIMSTYLE1
 13
93.1790297224
 23
98.8141828441
 33
0.0
 14
113.1790297224
 24
98.8141828441
 34
0.0
 50
0.0
  0
LINE
  5
FB
  8
6
  6
CENTER
 62
     6
 10
103.1790297224
 20
63.0623007093
 30
0.0
 11
103.1790297224
 21
137.6242825186
 31
0.0
  0
LINE
  5
FC
  8
0
  6
CONTINUOUS
 10
308.9949481406
 20
215.0310223514
 30
0.0
 11
334.7449481704
 21
215.0310223514
 31
0.0
  0
LINE
  5
FD
  8
0
  6
CONTINUOUS
 10
334.7449481704
 20
235.0310219043
 30
0.0
 11
308.9949481406
 21
235.0310219043
 31
0.0
  0
LINE
  5
FE
  8
0
  6
CONTINUOUS
 10
345.7989946224
 20
235.0310219043
 30
0.0
 11
334.7449481704
 21
235.0310219043
 31
0.0
  0
LINE
  5
FF
  8
0
  6
CONTINUOUS
 10
334.7449481704
 20
215.0310223514
 30
0.0
 11
367.2368221201
 21
215.0310223514
 31
0.0
  0
LINE
  5
100
  8
0
  6
CONTINUOUS
 10
367.2368221201
 20
215.0310223514
 30
0.0
 11
367.7449479916
 21
215.5471436271
 31
0.0
  0
POLYLINE
  5
101
  8
0
  6
CONTINUOUS
 66
     1
 10
0.0
 20
0.0
 30
0.0
  0
VERTEX
  5
134
  8
0
  6
CONTINUOUS
 10
367.2471411743
 20
244.115153473
 30
0.0
  0
VERTEX
  5
135
  8
0
  6
CONTINUOUS
 10
363.194595299
 20
244.1824340784
 30
0.0
  0
VERTEX
  5
136
  8
0
  6
CONTINUOUS
 10
358.8969327726
 20
244.2233228648
 30
0.0
  0
VERTEX
  5
137
  8
0
  6
CONTINUOUS
 10
354.5944012918
 20
244.2233303153
 30
0.0
  0
VERTEX
  5
138
  8
0
  6
CONTINUOUS
 10
350.2967164137
 20
244.1824527049
 30
0.0
  0
VERTEX
  5
139
  8
0
  6
CONTINUOUS
 10
346.2444462099
 20
244.1151832753
 30
0.0
  0
SEQEND
  5
133
  8
0
  6
CONTINUOUS
  0
LINE
  5
102
  8
0
  6
CONTINUOUS
 10
367.7449479916
 20
243.6004263872
 30
0.0
 11
367.2462433793
 21
244.1164629125
 31
0.0
  0
LINE
  5
103
  8
0
  6
CONTINUOUS
 10
346.2503470697
 20
244.1216894948
 30
0.0
 11
345.7145609178
 21
243.5654645377
 31
0.0
  0
LINE
  5
104
  8
0
  6
CONTINUOUS
 10
299.494948446
 20
197.5310222769
 30
0.0
 11
308.4949481168
 21
197.5310222769
 31
0.0
  0
LINE
  5
105
  8
0
  6
CONTINUOUS
 10
308.4949481168
 20
252.5310219788
 30
0.0
 11
298.4949482821
 21
252.5310219788
 31
0.0
  0
LINE
  5
106
  8
0
  6
CONTINUOUS
 10
308.4949481168
 20
197.5310222769
 30
0.0
 11
308.9949481406
 21
198.0310214275
 31
0.0
  0
LINE
  5
107
  8
0
  6
CONTINUOUS
 10
308.9949481406
 20
252.0310228282
 30
0.0
 11
308.4949481168
 21
252.5310219788
 31
0.0
  0
LINE
  5
108
  8
0
  6
CONTINUOUS
 10
298.4949482821
 20
229.2705407889
 30
0.0
 11
294.1942626827
 21
229.0451514126
 31
0.0
  0
LINE
  5
109
  8
0
  6
CONTINUOUS
 10
294.1942626827
 20
221.0168928431
 30
0.0
 11
298.4949482821
 21
220.7915034668
 31
0.0
  0
LINE
  5
10A
  8
0
  6
CONTINUOUS
 10
294.1942626827
 20
229.0451514126
 30
0.0
 11
293.6949480541
 21
228.4906060958
 31
0.0
  0
LINE
  5
10B
  8
0
  6
CONTINUOUS
 10
293.6949480541
 20
221.5714381599
 30
0.0
 11
294.1942626827
 21
221.0168928431
 31
0.0
  0
LINE
  5
10C
  8
0
  6
CONTINUOUS
 10
367.7449479916
 20
234.2863745579
 30
0.0
 11
367.7449479916
 21
215.5471436271
 31
0.0
  0
LINE
  5
10D
  8
0
  6
CONTINUOUS
 10
367.7449479916
 20
243.5457335377
 30
0.0
 11
367.7449479916
 21
234.2863745579
 31
0.0
  0
ARC
  5
10E
  8
0
  6
CONTINUOUS
 10
343.5027380888
 20
236.8267424575
 30
0.0
 40
2.311653473954214
 50
309.0303796597
 51
345.9205672419
  0
LINE
  5
10F
  8
0
  6
CONTINUOUS
 10
345.7449481108
 20
236.2647737899
 30
0.0
 11
345.7449481108
 21
243.5529866779
 31
0.0
  0
LINE
  5
110
  8
0
  6
CONTINUOUS
 10
299.494948446
 20
197.5310222769
 30
0.0
 11
299.494948446
 21
197.6951473915
 31
0.0
  0
LINE
  5
111
  8
0
  6
CONTINUOUS
 10
299.494948446
 20
197.6951473915
 30
0.0
 11
298.4949482821
 21
197.6951473915
 31
0.0
  0
LINE
  5
112
  8
0
  6
CONTINUOUS
 10
298.4949482821
 20
197.6951473915
 30
0.0
 11
298.4949482821
 21
252.5310219788
 31
0.0
  0
LINE
  5
113
  8
0
  6
CONTINUOUS
 10
308.9949481406
 20
225.0310221279
 30
0.0
 11
308.9949481406
 21
198.0310214275
 31
0.0
  0
LINE
  5
114
  8
0
  6
CONTINUOUS
 10
308.9949481406
 20
252.0310228282
 30
0.0
 11
308.9949481406
 21
225.0310221279
 31
0.0
  0
LINE
  5
115
  8
0
  6
CONTINUOUS
 10
298.4949482821
 20
197.6951473915
 30
0.0
 11
298.4949482821
 21
198.9026853406
 31
0.0
  0
LINE
  5
116
  8
0
  6
CONTINUOUS
 10
293.6949480541
 20
221.5714381599
 30
0.0
 11
293.6949480541
 21
228.4906060958
 31
0.0
  0
LINE
  5
117
  8
0
  6
CONTINUOUS
 10
293.6949480541
 20
222.9310222027
 30
0.0
 11
293.6949480541
 21
222.5310221837
 31
0.0
  0
LINE
  5
118
  8
0
  6
CONTINUOUS
 10
293.6949480541
 20
227.531022072
 30
0.0
 11
293.6949480541
 21
227.131022053
 31
0.0
  0
DIMENSION
  5
119
  8
6
  6
CONTINUOUS
 62
     6
  2
*D14
 10
281.8572655542
 20
197.5310221279
 30
0.0
 11
281.8572655542
 21
224.6682172986
 31
0.0
 70
   160
  1
%%c<>
  3
SLDDIMSTYLE1
 13
298.4949481406
 23
252.5310221279
 33
0.0
 14
299.4949481406
 24
197.5310221279
 34
0.0
 50
90.0
  0
DIMENSION
  5
124
  8
6
  6
CONTINUOUS
 62
     6
  2
*D15
 10
367.7449481406
 20
184.2278213994
 30
0.0
 11
333.337921281
 21
184.2278213994
 31
0.0
 70
   160
  3
SLDDIMSTYLE0
 13
298.4949481406
 23
197.6951482622
 33
0.0
 14
367.7449481406
 24
215.5471437239
 34
0.0
  0
LINE
  5
12E
  8
6
  6
CENTER
 62
     6
 10
291.7489111153
 20
225.0310221279
 30
0.0
 11
369.0573698379
 21
225.0310221279
 31
0.0
  0
ENDSEC
  0
EOF
