  0
SECTION
  2
HEADER
  9
$ACADVER
  1
AC1009
  9
$DWGCODEPAGE
  3
ansi_1252
  9
$INSBASE
 10
0.0
 20
0.0
 30
0.0
  9
$EXTMIN
 10
0.0
 20
0.0
 30
0.0
  9
$EXTMAX
 10
420.0
 20
297.0
 30
0.0
  9
$LIMMIN
 10
0.0
 20
0.0
  9
$LIMMAX
 10
0.0
 20
0.0
  9
$ORTHOMODE
 70
     0
  9
$REGENMODE
 70
     1
  9
$FILLMODE
 70
     1
  9
$QTEXTMODE
 70
     0
  9
$MIRRTEXT
 70
     1
  9
$DRAGMODE
 70
     2
  9
$LTSCALE
 40
1.0
  9
$OSMODE
 70
    37
  9
$ATTMODE
 70
     1
  9
$TEXTSIZE
 40
3.5
  9
$TRACEWID
 40
1.0
  9
$TEXTSTYLE
  7
STANDARD
  9
$CLAYER
  8
0
  9
$CELTYPE
  6
BYLAYER
  9
$CECOLOR
 62
   256
  9
$DIMSCALE
 40
1.0
  9
$DIMASZ
 40
5.0
  9
$DIMEXO
 40
1.0
  9
$DIMDLI
 40
3.75
  9
$DIMRND
 40
0.0
  9
$DIMDLE
 40
0.0
  9
$DIMEXE
 40
1.0
  9
$DIMTP
 40
0.0
  9
$DIMTM
 40
0.0
  9
$DIMTXT
 40
3.5
  9
$DIMCEN
 40
2.5
  9
$DIMTSZ
 40
0.0
  9
$DIMTOL
 70
     0
  9
$DIMLIM
 70
     0
  9
$DIMTIH
 70
     1
  9
$DIMTOH
 70
     1
  9
$DIMSE1
 70
     0
  9
$DIMSE2
 70
     0
  9
$DIMTAD
 70
     1
  9
$DIMZIN
 70
     0
  9
$DIMBLK
  1

  9
$DIMASO
 70
     1
  9
$DIMSHO
 70
     1
  9
$DIMPOST
  1

  9
$DIMAPOST
  1

  9
$DIMALT
 70
     0
  9
$DIMALTD
 70
     3
  9
$DIMALTF
 40
0.0393700787
  9
$DIMLFAC
 40
1.0
  9
$DIMTOFL
 70
     1
  9
$DIMTVP
 40
0.0
  9
$DIMTIX
 70
     0
  9
$DIMSOXD
 70
     0
  9
$DIMSAH
 70
     0
  9
$DIMBLK1
  1

  9
$DIMBLK2
  1

  9
$DIMSTYLE
  2
ISO-25
  9
$DIMCLRD
 70
     0
  9
$DIMCLRE
 70
     0
  9
$DIMCLRT
 70
     0
  9
$DIMTFAC
 40
1.0
  9
$DIMGAP
 40
1.524
  9
$LUNITS
 70
     2
  9
$LUPREC
 70
     2
  9
$SKETCHINC
 40
1.0
  9
$FILLETRAD
 40
10.0
  9
$AUNITS
 70
     0
  9
$AUPREC
 70
     0
  9
$MENU
  1
.
  9
$ELEVATION
 40
0.0
  9
$PELEVATION
 40
0.0
  9
$THICKNESS
 40
0.0
  9
$LIMCHECK
 70
     0
  9
$CHAMFERA
 40
10.0
  9
$CHAMFERB
 40
10.0
  9
$SKPOLY
 70
     0
  9
$TDCREATE
 40
2454490.564442627
  9
$TDUPDATE
 40
2454490.564442639
  9
$TDINDWG
 40
0.0000000116
  9
$TDUSRTIMER
 40
0.0000000116
  9
$USRTIMER
 70
     1
  9
$ANGBASE
 50
0.0
  9
$ANGDIR
 70
     0
  9
$PDMODE
 70
     0
  9
$PDSIZE
 40
-1.0
  9
$PLINEWID
 40
0.0
  9
$COORDS
 70
     1
  9
$SPLFRAME
 70
     0
  9
$SPLINETYPE
 70
     6
  9
$SPLINESEGS
 70
     8
  9
$ATTDIA
 70
     0
  9
$ATTREQ
 70
     1
  9
$HANDLING
 70
     1
  9
$HANDSEED
  5
18A
  9
$SURFTAB1
 70
     6
  9
$SURFTAB2
 70
     6
  9
$SURFTYPE
 70
     6
  9
$SURFU
 70
     6
  9
$SURFV
 70
     6
  9
$UCSNAME
  2

  9
$UCSORG
 10
0.0
 20
0.0
 30
0.0
  9
$UCSXDIR
 10
1.0
 20
0.0
 30
0.0
  9
$UCSYDIR
 10
0.0
 20
1.0
 30
0.0
  9
$PUCSNAME
  2

  9
$PUCSORG
 10
0.0
 20
0.0
 30
0.0
  9
$PUCSXDIR
 10
1.0
 20
0.0
 30
0.0
  9
$PUCSYDIR
 10
0.0
 20
1.0
 30
0.0
  9
$USERI1
 70
     0
  9
$USERI2
 70
     0
  9
$USERI3
 70
     0
  9
$USERI4
 70
     0
  9
$USERI5
 70
     0
  9
$USERR1
 40
0.0
  9
$USERR2
 40
0.0
  9
$USERR3
 40
0.0
  9
$USERR4
 40
0.0
  9
$USERR5
 40
0.0
  9
$WORLDVIEW
 70
     1
  9
$SHADEDGE
 70
     3
  9
$SHADEDIF
 70
    70
  9
$TILEMODE
 70
     1
  9
$MAXACTVP
 70
    64
  9
$PLIMCHECK
 70
     0
  9
$PEXTMIN
 10
1.0000000000E+20
 20
1.0000000000E+20
 30
1.0000000000E+20
  9
$PEXTMAX
 10
-1.0000000000E+20
 20
-1.0000000000E+20
 30
-1.0000000000E+20
  9
$PLIMMIN
 10
0.0
 20
0.0
  9
$PLIMMAX
 10
420.0
 20
297.0
  9
$UNITMODE
 70
     0
  9
$VISRETAIN
 70
     1
  9
$PLINEGEN
 70
     0
  9
$PSLTSCALE
 70
     1
  0
ENDSEC
  0
SECTION
  2
TABLES
  0
TABLE
  2
VPORT
 70
     1
  0
VPORT
  2
*ACTIVE
 70
     0
 10
0.0
 20
0.0
 11
1.0
 21
1.0
 12
210.0
 22
148.5
 13
0.0
 23
0.0
 14
10.0
 24
10.0
 15
10.0
 25
10.0
 16
0.0
 26
0.0
 36
1.0
 17
0.0
 27
0.0
 37
0.0
 40
297.0
 41
1.4141414141
 42
50.0
 43
0.0
 44
0.0
 50
0.0
 51
0.0
 71
     0
 72
  2000
 73
     1
 74
     3
 75
     0
 76
     0
 77
     0
 78
     0
  0
ENDTAB
  0
TABLE
  2
LTYPE
 70
     6
  0
LTYPE
  2
CONTINUOUS
 70
     0
  3
Solid line
 72
    65
 73
     0
 40
0.0
  0
LTYPE
  2
HIDDEN
 70
     0
  3
Hidden __ __ __ __ __ __ __ __ __ __ __ __ __ __
 72
    65
 73
     2
 40
1.905
 49
1.27
 49
-0.635
  0
LTYPE
  2
PHANTOM
 70
     0
  3
Phantom ______  __  __  ______  __  __  ______
 72
    65
 73
     6
 40
12.7
 49
6.35
 49
-1.27
 49
1.27
 49
-1.27
 49
1.27
 49
-1.27
  0
LTYPE
  2
CENTER
 70
     0
  3
Center ____ _ ____ _ ____ _ ____ _ ____ _ ____
 72
    65
 73
     4
 40
10.16
 49
6.35
 49
-1.27
 49
1.27
 49
-1.27
  0
LTYPE
  2
CENTERX2
 70
     0
  3
Center (2x) ________  __  ________  __  _____
 72
    65
 73
     4
 40
20.32
 49
12.7
 49
-2.54
 49
2.54
 49
-2.54
  0
LTYPE
  2
DOT2
 70
     0
  3
Dot (.5x) ........................................
 72
    65
 73
     2
 40
0.635
 49
0.0
 49
-0.635
  0
ENDTAB
  0
TABLE
  2
LAYER
 70
     6
  0
LAYER
  2
0
 70
     0
 62
     7
  6
CONTINUOUS
  0
LAYER
  2
DEFPOINTS
 70
     0
 62
     7
  6
CONTINUOUS
  0
LAYER
  2
7
 70
     0
 62
     7
  6
CONTINUOUS
  0
LAYER
  2
1
 70
     0
 62
     1
  6
CONTINUOUS
  0
LAYER
  2
2
 70
     0
 62
     2
  6
PHANTOM
  0
LAYER
  2
6
 70
     0
 62
     6
  6
CONTINUOUS
  0
ENDTAB
  0
TABLE
  2
STYLE
 70
     1
  0
STYLE
  2
STANDARD
 70
     0
 40
0.0
 41
1.0
 50
0.0
 71
     0
 42
2.5
  3
txt
  4

  0
ENDTAB
  0
TABLE
  2
VIEW
 70
     0
  0
ENDTAB
  0
TABLE
  2
UCS
 70
     0
  0
ENDTAB
  0
TABLE
  2
APPID
 70
     1
  0
APPID
  2
ACAD
 70
     0
  0
ENDTAB
  0
TABLE
  2
DIMSTYLE
 70
     4
  0
DIMSTYLE
  2
ISO-25
 70
     0
  3

  4

  5

  6

  7

 40
1.0
 41
2.5
 42
0.625
 43
3.75
 44
1.25
 45
0.0
 46
0.0
 47
0.0
 48
0.0
140
2.5
141
2.5
142
0.0
143
0.0393700787
144
1.0
145
0.0
146
1.0
147
0.625
 71
     0
 72
     0
 73
     0
 74
     0
 75
     0
 76
     0
 77
     1
 78
     8
170
     0
171
     3
172
     1
173
     0
174
     0
175
     0
176
     0
177
     0
178
     0
  0
DIMSTYLE
  2
SLDDIMSTYLE0
 70
     0
  3

  4

  5

  6

  7

 40
1.0
 41
5.0
 42
0.0625
 43
0.38
 44
0.0
 45
0.0
 46
0.0
 47
0.0
 48
0.0
140
3.5
141
0.09
142
0.0
143
25.4
144
1.0
145
0.0
146
1.0
147
0.875
 71
     0
 72
     0
 73
     0
 74
     1
 75
     0
 76
     0
 77
     1
 78
    12
170
     0
171
     2
172
     0
173
     1
174
     0
175
     0
176
     0
177
     0
178
     0
  0
DIMSTYLE
  2
SLDDIMSTYLE1
 70
     0
  3

  4

  5

  6

  7

 40
1.0
 41
5.0
 42
0.0625
 43
0.38
 44
0.0
 45
0.0
 46
0.0
 47
0.0
 48
0.0
140
3.5
141
0.09
142
0.0
143
25.4
144
1.0
145
0.0
146
1.0
147
0.875
 71
     0
 72
     0
 73
     0
 74
     1
 75
     0
 76
     0
 77
     1
 78
    12
170
     0
171
     2
172
     0
173
     1
174
     0
175
     0
176
     0
177
     0
178
     0
  0
DIMSTYLE
  2
SLDDIMSTYLE2
 70
     0
  3

  4

  5

  6

  7

 40
1.0
 41
5.0
 42
0.0625
 43
0.38
 44
0.0
 45
0.0
 46
0.0
 47
0.0
 48
0.0
140
3.5
141
0.09
142
0.0
143
25.4
144
1.0
145
0.0
146
1.0
147
0.875
 71
     0
 72
     0
 73
     0
 74
     1
 75
     0
 76
     0
 77
     1
 78
    12
170
     0
171
     2
172
     0
173
     1
174
     0
175
     0
176
     0
177
     0
178
     0
  0
ENDTAB
  0
ENDSEC
  0
SECTION
  2
BLOCKS
  0
BLOCK
  8
0
  2
$MODEL_SPACE
 70
     0
 10
0.0
 20
0.0
 30
0.0
  3
$MODEL_SPACE
  1

  0
ENDBLK
  5
21
  8
0
  0
BLOCK
 67
     1
  8
0
  2
$PAPER_SPACE
 70
     0
 10
0.0
 20
0.0
 30
0.0
  3
$PAPER_SPACE
  1

  0
ENDBLK
  5
1D
 67
     1
  8
0
  0
BLOCK
  8
0
  2
SW_NOTE_0
 70
     0
 10
0.0
 20
0.0
 30
0.0
  3
SW_NOTE_0
  1

  0
TEXT
  5
42
  8
2
  6
CONTINUOUS
 62
     0
 10
0.0
 20
1.0
 30
0.0
 40
3.5
  1
Ausführung rechts
 41
0.7
 11
0.0
 21
0.0
 31
0.0
 73
     1
  0
TEXT
  5
43
  8
2
  6
CONTINUOUS
 62
     0
 10
0.0
 20
-3.5256945305
 30
0.0
 40
3.5
  1
demonstration right
 41
0.7
 11
0.0
 21
-4.5256945305
 31
0.0
 73
     1
  0
ENDBLK
  5
41
  8
0
  0
BLOCK
  8
0
  2
SW_NOTE_1
 70
     0
 10
0.0
 20
0.0
 30
0.0
  3
SW_NOTE_1
  1

  0
TEXT
  5
48
  8
2
  6
CONTINUOUS
 62
     0
 10
0.0
 20
1.0
 30
0.0
 40
3.5
  1
Diese Zeichnung ist gemäß Urheberrecht gesetzlich geschützt
 41
0.6644067797
 11
0.0
 21
0.0
 31
0.0
 73
     1
  0
TEXT
  5
49
  8
2
  6
CONTINUOUS
 62
     0
 10
0.0
 20
-8.0513890609
 30
0.0
 40
3.5
  1
This drawing is protected under copyright law; unauthorizid disclosure,
 41
0.6605633803
 11
0.0
 21
-9.0513890609
 31
0.0
 73
     1
  0
TEXT
  5
4A
  8
2
  6
CONTINUOUS
 62
     0
 10
0.0
 20
-12.5770835914
 30
0.0
 40
3.5
  1
reprodution or use is prohibted.
 41
0.65625
 11
0.0
 21
-13.5770835914
 31
0.0
 73
     1
  0
ENDBLK
  5
47
  8
0
  0
BLOCK
  8
0
  2
SW_NOTE_2
 70
     0
 10
0.0
 20
0.0
 30
0.0
  3
SW_NOTE_2
  1

  0
TEXT
  5
50
  8
2
  6
CONTINUOUS
 62
     0
 10
0.0
 20
1.0
 30
0.0
 40
3.5
  1
Vieler International GmbH+Co.KG
 41
0.6774193548
 11
0.0
 21
0.0
 31
0.0
 73
     1
  0
TEXT
  5
51
  8
2
  6
CONTINUOUS
 62
     0
 10
22.5458340719
 20
-3.5256945305
 30
0.0
 40
3.5
  1
58642 Iserlohn
 41
0.7
 11
22.5458340719
 21
-4.5256945305
 31
0.0
 73
     1
  0
ENDBLK
  5
4F
  8
0
  0
BLOCK
  8
0
  2
*D4
 70
     1
 10
0.0
 20
0.0
 30
0.0
  3
*D4
  1

  0
SOLID
  5
60
  8
6
  6
CONTINUOUS
 62
     6
 10
71.676801202
 20
187.2813937718
 30
0.0
 11
76.676801202
 21
186.6813937718
 31
0.0
 12
76.676801202
 22
187.8813937718
 32
0.0
 13
76.676801202
 23
187.8813937718
 33
0.0
  0
SOLID
  5
61
  8
6
  6
CONTINUOUS
 62
     6
 10
206.676801202
 20
187.2813937718
 30
0.0
 11
201.676801202
 21
187.8813937718
 31
0.0
 12
201.676801202
 22
186.6813937718
 32
0.0
 13
201.676801202
 23
186.6813937718
 33
0.0
  0
LINE
  5
62
  8
6
  6
CONTINUOUS
 62
     6
 10
71.676801202
 20
211.2813937718
 30
0.0
 11
71.676801202
 21
186.2813937718
 31
0.0
  0
LINE
  5
63
  8
6
  6
CONTINUOUS
 62
     6
 10
206.676801202
 20
223.7813937718
 30
0.0
 11
206.676801202
 21
186.2813937718
 31
0.0
  0
LINE
  5
64
  8
6
  6
CONTINUOUS
 62
     6
 10
71.676801202
 20
187.2813937718
 30
0.0
 11
206.676801202
 21
187.2813937718
 31
0.0
  0
TEXT
  5
65
  8
6
  6
CONTINUOUS
 62
     6
 10
138.5268534221
 20
188.2813935972
 30
0.0
 40
3.5
  1
135
 50
360.0
 41
0.7
 11
138.5268534221
 21
187.2813935972
 31
0.0
 73
     1
  0
ENDBLK
  5
5F
  8
0
  0
BLOCK
  8
0
  2
*D5
 70
     1
 10
0.0
 20
0.0
 30
0.0
  3
*D5
  1

  0
SOLID
  5
6B
  8
6
  6
CONTINUOUS
 62
     6
 10
222.726801202
 20
237.2813937718
 30
0.0
 11
223.326801202
 21
242.2813937718
 31
0.0
 12
222.126801202
 22
242.2813937718
 32
0.0
 13
222.126801202
 23
242.2813937718
 33
0.0
  0
SOLID
  5
6C
  8
6
  6
CONTINUOUS
 62
     6
 10
222.726801202
 20
224.7813937718
 30
0.0
 11
222.126801202
 21
219.7813937718
 31
0.0
 12
223.326801202
 22
219.7813937718
 32
0.0
 13
223.326801202
 23
219.7813937718
 33
0.0
  0
LINE
  5
6D
  8
6
  6
CONTINUOUS
 62
     6
 10
207.676801202
 20
237.2813937718
 30
0.0
 11
223.726801202
 21
237.2813937718
 31
0.0
  0
LINE
  5
6E
  8
6
  6
CONTINUOUS
 62
     6
 10
207.676801202
 20
224.7813937718
 30
0.0
 11
223.726801202
 21
224.7813937718
 31
0.0
  0
LINE
  5
6F
  8
6
  6
CONTINUOUS
 62
     6
 10
222.726801202
 20
237.2813937718
 30
0.0
 11
222.726801202
 21
247.2813937718
 31
0.0
  0
LINE
  5
70
  8
6
  6
CONTINUOUS
 62
     6
 10
222.726801202
 20
237.2813937718
 30
0.0
 11
222.726801202
 21
224.7813937718
 31
0.0
  0
LINE
  5
71
  8
6
  6
CONTINUOUS
 62
     6
 10
222.726801202
 20
224.7813937718
 30
0.0
 11
222.726801202
 21
214.7813937718
 31
0.0
  0
TEXT
  5
72
  8
6
  6
CONTINUOUS
 62
     6
 10
221.7268013766
 20
226.0494158459
 30
0.0
 40
3.5
  1
12,5
 50
90.0
 41
0.7
 11
222.7268013766
 21
226.0494158459
 31
0.0
 73
     1
  0
ENDBLK
  5
6A
  8
0
  0
BLOCK
  8
0
  2
*D6
 70
     1
 10
0.0
 20
0.0
 30
0.0
  3
*D6
  1

  0
SOLID
  5
77
  8
6
  6
CONTINUOUS
 62
     6
 10
47.4495847022
 20
237.2813937718
 30
0.0
 11
48.0495847022
 21
242.2813937718
 31
0.0
 12
46.8495847022
 22
242.2813937718
 32
0.0
 13
46.8495847022
 23
242.2813937718
 33
0.0
  0
SOLID
  5
78
  8
6
  6
CONTINUOUS
 62
     6
 10
47.4495847022
 20
212.2813937718
 30
0.0
 11
46.8495847022
 21
207.2813937718
 31
0.0
 12
48.0495847022
 22
207.2813937718
 32
0.0
 13
48.0495847022
 23
207.2813937718
 33
0.0
  0
LINE
  5
79
  8
6
  6
CONTINUOUS
 62
     6
 10
70.676801202
 20
237.2813937718
 30
0.0
 11
46.4495847022
 21
237.2813937718
 31
0.0
  0
LINE
  5
7A
  8
6
  6
CONTINUOUS
 62
     6
 10
70.676801202
 20
212.2813937718
 30
0.0
 11
46.4495847022
 21
212.2813937718
 31
0.0
  0
LINE
  5
7B
  8
6
  6
CONTINUOUS
 62
     6
 10
47.4495847022
 20
237.2813937718
 30
0.0
 11
47.4495847022
 21
247.2813937718
 31
0.0
  0
LINE
  5
7C
  8
6
  6
CONTINUOUS
 62
     6
 10
47.4495847022
 20
237.2813937718
 30
0.0
 11
47.4495847022
 21
212.2813937718
 31
0.0
  0
LINE
  5
7D
  8
6
  6
CONTINUOUS
 62
     6
 10
47.4495847022
 20
212.2813937718
 30
0.0
 11
47.4495847022
 21
202.2813937718
 31
0.0
  0
TEXT
  5
7E
  8
6
  6
CONTINUOUS
 62
     6
 10
46.4495848768
 20
223.8471187684
 30
0.0
 40
3.5
  1
25
 50
90.0
 41
0.7
 11
47.4495848768
 21
223.8471187684
 31
0.0
 73
     1
  0
ENDBLK
  5
76
  8
0
  0
BLOCK
  8
0
  2
SW_CENTERMARKSYMBOL_0
 70
     0
 10
0.0
 20
0.0
 30
0.0
  3
SW_CENTERMARKSYMBOL_0
  1

  0
LINE
  5
82
  8
6
  6
CENTER
 62
     0
 10
0.0
 20
0.0
 30
0.0
 11
0.0
 21
2.5
 31
0.0
  0
LINE
  5
83
  8
6
  6
CENTER
 62
     0
 10
0.0
 20
0.0
 30
0.0
 11
-2.5
 21
0.0
 31
0.0
  0
LINE
  5
84
  8
6
  6
CENTER
 62
     0
 10
0.0
 20
0.0
 30
0.0
 11
0.0
 21
-2.5
 31
0.0
  0
LINE
  5
85
  8
6
  6
CENTER
 62
     0
 10
0.0
 20
0.0
 30
0.0
 11
2.5
 21
0.0
 31
0.0
  0
LINE
  5
86
  8
6
  6
CENTER
 62
     0
 10
0.0
 20
5.0
 30
0.0
 11
0.0
 21
30.0
 31
0.0
  0
LINE
  5
87
  8
6
  6
CENTER
 62
     0
 10
-5.0
 20
0.0
 30
0.0
 11
-30.0
 21
0.0
 31
0.0
  0
LINE
  5
88
  8
6
  6
CENTER
 62
     0
 10
0.0
 20
-5.0
 30
0.0
 11
0.0
 21
-30.0
 31
0.0
  0
LINE
  5
89
  8
6
  6
CENTER
 62
     0
 10
5.0
 20
0.0
 30
0.0
 11
123.116641421
 21
0.0
 31
0.0
  0
ENDBLK
  5
81
  8
0
  0
BLOCK
  8
0
  2
*D8
 70
     1
 10
0.0
 20
0.0
 30
0.0
  3
*D8
  1

  0
SOLID
  5
B1
  8
6
  6
CONTINUOUS
 62
     6
 10
67.676801202
 20
166.9791572208
 30
0.0
 11
72.676801202
 21
166.3791572208
 31
0.0
 12
72.676801202
 22
167.5791572208
 32
0.0
 13
72.676801202
 23
167.5791572208
 33
0.0
  0
SOLID
  5
B2
  8
6
  6
CONTINUOUS
 62
     6
 10
105.676801202
 20
166.9791572208
 30
0.0
 11
100.676801202
 21
167.5791572208
 31
0.0
 12
100.676801202
 22
166.3791572208
 32
0.0
 13
100.676801202
 23
166.3791572208
 33
0.0
  0
LINE
  5
B3
  8
6
  6
CONTINUOUS
 62
     6
 10
67.676801202
 20
147.2855929216
 30
0.0
 11
67.676801202
 21
167.9791572208
 31
0.0
  0
LINE
  5
B4
  8
6
  6
CONTINUOUS
 62
     6
 10
105.676801202
 20
147.2855929216
 30
0.0
 11
105.676801202
 21
167.9791572208
 31
0.0
  0
LINE
  5
B5
  8
6
  6
CONTINUOUS
 62
     6
 10
67.676801202
 20
166.9791572208
 30
0.0
 11
105.676801202
 21
166.9791572208
 31
0.0
  0
TEXT
  5
B6
  8
6
  6
CONTINUOUS
 62
     6
 10
84.5345414546
 20
167.9791570462
 30
0.0
 40
3.5
  1
38
 41
0.7
 11
84.5345414546
 21
166.9791570462
 31
0.0
 73
     1
  0
ENDBLK
  5
B0
  8
0
  0
BLOCK
  8
0
  2
*D9
 70
     1
 10
0.0
 20
0.0
 30
0.0
  3
*D9
  1

  0
SOLID
  5
BB
  8
6
  6
CONTINUOUS
 62
     6
 10
127.3151829495
 20
140.1791572208
 30
0.0
 11
127.9151829495
 21
145.1791572208
 31
0.0
 12
126.7151829495
 22
145.1791572208
 32
0.0
 13
126.7151829495
 23
145.1791572208
 33
0.0
  0
SOLID
  5
BC
  8
6
  6
CONTINUOUS
 62
     6
 10
127.3151829495
 20
129.6791572208
 30
0.0
 11
126.7151829495
 21
124.6791572208
 31
0.0
 12
127.9151829495
 22
124.6791572208
 32
0.0
 13
127.9151829495
 23
124.6791572208
 33
0.0
  0
LINE
  5
BD
  8
6
  6
CONTINUOUS
 62
     6
 10
115.176801202
 20
140.1791572208
 30
0.0
 11
128.3151829495
 21
140.1791572208
 31
0.0
  0
LINE
  5
BE
  8
6
  6
CONTINUOUS
 62
     6
 10
114.676801202
 20
129.6791572208
 30
0.0
 11
128.3151829495
 21
129.6791572208
 31
0.0
  0
LINE
  5
BF
  8
6
  6
CONTINUOUS
 62
     6
 10
127.3151829495
 20
140.1791572208
 30
0.0
 11
127.3151829495
 21
150.1791572208
 31
0.0
  0
LINE
  5
C0
  8
6
  6
CONTINUOUS
 62
     6
 10
127.3151829495
 20
140.1791572208
 30
0.0
 11
127.3151829495
 21
129.6791572208
 31
0.0
  0
LINE
  5
C1
  8
6
  6
CONTINUOUS
 62
     6
 10
127.3151829495
 20
129.6791572208
 30
0.0
 11
127.3151829495
 21
119.6791572208
 31
0.0
  0
TEXT
  5
C2
  8
6
  6
CONTINUOUS
 62
     6
 10
126.3151831241
 20
133.0491662558
 30
0.0
 40
3.5
  1
10
 50
90.0
 41
0.7
 11
127.3151831241
 21
133.0491662558
 31
0.0
 73
     1
  0
ENDBLK
  5
BA
  8
0
  0
BLOCK
  8
0
  2
*D10
 70
     1
 10
0.0
 20
0.0
 30
0.0
  3
*D10
  1

  0
SOLID
  5
C7
  8
6
  6
CONTINUOUS
 62
     6
 10
222.726801202
 20
66.4291572208
 30
0.0
 11
222.126801202
 21
61.4291572208
 31
0.0
 12
223.326801202
 22
61.4291572208
 32
0.0
 13
223.326801202
 23
61.4291572208
 33
0.0
  0
SOLID
  5
C8
  8
6
  6
CONTINUOUS
 62
     6
 10
222.726801202
 20
91.4291572208
 30
0.0
 11
223.326801202
 21
96.4291572208
 31
0.0
 12
222.126801202
 22
96.4291572208
 32
0.0
 13
222.126801202
 23
96.4291572208
 33
0.0
  0
LINE
  5
C9
  8
6
  6
CONTINUOUS
 62
     6
 10
207.676801202
 20
66.4291572208
 30
0.0
 11
223.726801202
 21
66.4291572208
 31
0.0
  0
LINE
  5
CA
  8
6
  6
CONTINUOUS
 62
     6
 10
207.676801202
 20
91.4291572208
 30
0.0
 11
223.726801202
 21
91.4291572208
 31
0.0
  0
LINE
  5
CB
  8
6
  6
CONTINUOUS
 62
     6
 10
222.726801202
 20
66.4291572208
 30
0.0
 11
222.726801202
 21
56.4291572208
 31
0.0
  0
LINE
  5
CC
  8
6
  6
CONTINUOUS
 62
     6
 10
222.726801202
 20
66.4291572208
 30
0.0
 11
222.726801202
 21
91.4291572208
 31
0.0
  0
LINE
  5
CD
  8
6
  6
CONTINUOUS
 62
     6
 10
222.726801202
 20
91.4291572208
 30
0.0
 11
222.726801202
 21
101.4291572208
 31
0.0
  0
TEXT
  5
CE
  8
6
  6
CONTINUOUS
 62
     6
 10
221.7268013766
 20
76.9092663452
 30
0.0
 40
3.5
  1
25
 50
90.0
 41
0.7
 11
222.7268013766
 21
76.9092663452
 31
0.0
 73
     1
  0
ENDBLK
  5
C6
  8
0
  0
BLOCK
  8
0
  2
*D11
 70
     1
 10
0.0
 20
0.0
 30
0.0
  3
*D11
  1

  0
SOLID
  5
D3
  8
6
  6
CONTINUOUS
 62
     6
 10
60.6348574842
 20
91.4291572208
 30
0.0
 11
61.2348574842
 21
96.4291572208
 31
0.0
 12
60.0348574842
 22
96.4291572208
 32
0.0
 13
60.0348574842
 23
96.4291572208
 33
0.0
  0
SOLID
  5
D4
  8
6
  6
CONTINUOUS
 62
     6
 10
60.6348574842
 20
78.9291572208
 30
0.0
 11
60.0348574842
 21
73.9291572208
 31
0.0
 12
61.2348574842
 22
73.9291572208
 32
0.0
 13
61.2348574842
 23
73.9291572208
 33
0.0
  0
LINE
  5
D5
  8
6
  6
CONTINUOUS
 62
     6
 10
70.676801202
 20
91.4291572208
 30
0.0
 11
59.6348574842
 21
91.4291572208
 31
0.0
  0
LINE
  5
D6
  8
6
  6
CONTINUOUS
 62
     6
 10
70.676801202
 20
78.9291572208
 30
0.0
 11
59.6348574842
 21
78.9291572208
 31
0.0
  0
LINE
  5
D7
  8
6
  6
CONTINUOUS
 62
     6
 10
60.6348574842
 20
91.4291572208
 30
0.0
 11
60.6348574842
 21
101.4291572208
 31
0.0
  0
LINE
  5
D8
  8
6
  6
CONTINUOUS
 62
     6
 10
60.6348574842
 20
91.4291572208
 30
0.0
 11
60.6348574842
 21
78.9291572208
 31
0.0
  0
LINE
  5
D9
  8
6
  6
CONTINUOUS
 62
     6
 10
60.6348574842
 20
78.9291572208
 30
0.0
 11
60.6348574842
 21
68.9291572208
 31
0.0
  0
TEXT
  5
DA
  8
6
  6
CONTINUOUS
 62
     6
 10
59.6348576588
 20
80.0008758325
 30
0.0
 40
3.5
  1
12,5
 50
90.0
 41
0.7
 11
60.6348576588
 21
80.0008758325
 31
0.0
 73
     1
  0
ENDBLK
  5
D2
  8
0
  0
BLOCK
  8
0
  2
*D12
 70
     1
 10
0.0
 20
0.0
 30
0.0
  3
*D12
  1

  0
SOLID
  5
DF
  8
6
  6
CONTINUOUS
 62
     6
 10
76.676801202
 20
113.3127628765
 30
0.0
 11
81.676801202
 21
112.7127628765
 31
0.0
 12
81.676801202
 22
113.9127628765
 32
0.0
 13
81.676801202
 23
113.9127628765
 33
0.0
  0
SOLID
  5
E0
  8
6
  6
CONTINUOUS
 62
     6
 10
96.676801202
 20
113.3127628765
 30
0.0
 11
91.676801202
 21
113.9127628765
 31
0.0
 12
91.676801202
 22
112.7127628765
 32
0.0
 13
91.676801202
 23
112.7127628765
 33
0.0
  0
LINE
  5
E1
  8
6
  6
CONTINUOUS
 62
     6
 10
76.676801202
 20
113.3127628765
 30
0.0
 11
58.4013857915
 21
113.3127628765
 31
0.0
  0
LINE
  5
E2
  8
6
  6
CONTINUOUS
 62
     6
 10
76.676801202
 20
113.3127628765
 30
0.0
 11
96.676801202
 21
113.3127628765
 31
0.0
  0
TEXT
  5
E3
  8
6
  6
CONTINUOUS
 62
     6
 10
59.9888857915
 20
114.3127628765
 30
0.0
 40
3.5
  1
%%c
 50
0.0
 41
0.7
 11
59.9888857915
 21
113.3127628765
 31
0.0
 73
     1
  0
TEXT
  5
E4
  8
6
  6
CONTINUOUS
 62
     6
 10
65.2640671041
 20
114.3127627019
 30
0.0
 40
3.5
  1
20
 50
0.0
 41
0.7
 11
65.2640671041
 21
113.3127627019
 31
0.0
 73
     1
  0
ENDBLK
  5
DE
  8
0
  0
BLOCK
  8
0
  2
*D13
 70
     1
 10
0.0
 20
0.0
 30
0.0
  3
*D13
  1

  0
SOLID
  5
EA
  8
6
  6
CONTINUOUS
 62
     6
 10
63.426801202
 20
154.9791572208
 30
0.0
 11
58.426801202
 21
155.5791572208
 31
0.0
 12
58.426801202
 22
154.3791572208
 32
0.0
 13
58.426801202
 23
154.3791572208
 33
0.0
  0
SOLID
  5
EB
  8
6
  6
CONTINUOUS
 62
     6
 10
71.868303738
 20
154.9791572208
 30
0.0
 11
76.868303738
 21
154.3791572208
 31
0.0
 12
76.868303738
 22
155.5791572208
 32
0.0
 13
76.868303738
 23
155.5791572208
 33
0.0
  0
LINE
  5
EC
  8
6
  6
CONTINUOUS
 62
     6
 10
63.426801202
 20
140.9791572208
 30
0.0
 11
63.426801202
 21
155.9791572208
 31
0.0
  0
LINE
  5
ED
  8
6
  6
CONTINUOUS
 62
     6
 10
71.868303738
 20
140.9791572208
 30
0.0
 11
71.868303738
 21
155.9791572208
 31
0.0
  0
LINE
  5
EE
  8
6
  6
CONTINUOUS
 62
     6
 10
63.426801202
 20
154.9791572208
 30
0.0
 11
53.426801202
 21
154.9791572208
 31
0.0
  0
LINE
  5
EF
  8
6
  6
CONTINUOUS
 62
     6
 10
63.426801202
 20
154.9791572208
 30
0.0
 11
71.868303738
 21
154.9791572208
 31
0.0
  0
LINE
  5
F0
  8
6
  6
CONTINUOUS
 62
     6
 10
71.868303738
 20
154.9791572208
 30
0.0
 11
83.5101546984
 21
154.9791572208
 31
0.0
  0
TEXT
  5
F1
  8
6
  6
CONTINUOUS
 62
     6
 10
79.339864932
 20
155.9791570462
 30
0.0
 40
3.5
  1
8
 50
360.0
 41
0.7
 11
79.339864932
 21
154.9791570462
 31
0.0
 73
     1
  0
ENDBLK
  5
E9
  8
0
  0
BLOCK
  8
0
  2
*D14
 70
     1
 10
0.0
 20
0.0
 30
0.0
  3
*D14
  1

  0
SOLID
  5
F6
  8
6
  6
CONTINUOUS
 62
     6
 10
46.9452229805
 20
144.9791572208
 30
0.0
 11
47.5452229805
 21
149.9791572208
 31
0.0
 12
46.3452229805
 22
149.9791572208
 32
0.0
 13
46.3452229805
 23
149.9791572208
 33
0.0
  0
SOLID
  5
F7
  8
6
  6
CONTINUOUS
 62
     6
 10
46.9452229805
 20
140.1791572208
 30
0.0
 11
46.3452229805
 21
135.1791572208
 31
0.0
 12
47.5452229805
 22
135.1791572208
 32
0.0
 13
47.5452229805
 23
135.1791572208
 33
0.0
  0
LINE
  5
F8
  8
6
  6
CONTINUOUS
 62
     6
 10
64.176801202
 20
144.9791572208
 30
0.0
 11
45.9452229805
 21
144.9791572208
 31
0.0
  0
LINE
  5
F9
  8
6
  6
CONTINUOUS
 62
     6
 10
58.176801202
 20
140.1791572208
 30
0.0
 11
45.9452229805
 21
140.1791572208
 31
0.0
  0
LINE
  5
FA
  8
6
  6
CONTINUOUS
 62
     6
 10
46.9452229805
 20
144.9791572208
 30
0.0
 11
46.9452229805
 21
154.9791572208
 31
0.0
  0
LINE
  5
FB
  8
6
  6
CONTINUOUS
 62
     6
 10
46.9452229805
 20
144.9791572208
 30
0.0
 11
46.9452229805
 21
140.1791572208
 31
0.0
  0
LINE
  5
FC
  8
6
  6
CONTINUOUS
 62
     6
 10
46.9452229805
 20
140.1791572208
 30
0.0
 11
46.9452229805
 21
130.2535392053
 31
0.0
  0
TEXT
  5
FD
  8
6
  6
CONTINUOUS
 62
     6
 10
45.9452231551
 20
131.8410392053
 30
0.0
 40
3.5
  1
5
 50
90.0
 41
0.7
 11
46.9452231551
 21
131.8410392053
 31
0.0
 73
     1
  0
ENDBLK
  5
F5
  8
0
  0
BLOCK
  8
0
  2
*D15
 70
     1
 10
0.0
 20
0.0
 30
0.0
  3
*D15
  1

  0
SOLID
  5
120
  8
6
  6
CONTINUOUS
 62
     6
 10
283.6949481406
 20
252.2813937718
 30
0.0
 11
283.0949481406
 21
247.2813937718
 31
0.0
 12
284.2949481406
 22
247.2813937718
 32
0.0
 13
284.2949481406
 23
247.2813937718
 33
0.0
  0
SOLID
  5
121
  8
6
  6
CONTINUOUS
 62
     6
 10
283.6949481406
 20
197.2813937718
 30
0.0
 11
284.2949481406
 21
202.2813937718
 31
0.0
 12
283.0949481406
 22
202.2813937718
 32
0.0
 13
283.0949481406
 23
202.2813937718
 33
0.0
  0
LINE
  5
122
  8
6
  6
CONTINUOUS
 62
     6
 10
297.4949481406
 20
252.2813937718
 30
0.0
 11
282.6949481406
 21
252.2813937718
 31
0.0
  0
LINE
  5
123
  8
6
  6
CONTINUOUS
 62
     6
 10
298.4949481406
 20
197.2813937718
 30
0.0
 11
282.6949481406
 21
197.2813937718
 31
0.0
  0
LINE
  5
124
  8
6
  6
CONTINUOUS
 62
     6
 10
283.6949481406
 20
252.2813937718
 30
0.0
 11
283.6949481406
 21
197.2813937718
 31
0.0
  0
TEXT
  5
125
  8
6
  6
CONTINUOUS
 62
     6
 10
282.6949481406
 20
220.8746553429
 30
0.0
 40
3.5
  1
%%c
 50
90.0
 41
0.7
 11
283.6949481406
 21
220.8746553429
 31
0.0
 73
     1
  0
TEXT
  5
126
  8
6
  6
CONTINUOUS
 62
     6
 10
282.6949483152
 20
226.1498366554
 30
0.0
 40
3.5
  1
55
 50
90.0
 41
0.7
 11
283.6949483152
 21
226.1498366554
 31
0.0
 73
     1
  0
ENDBLK
  5
11F
  8
0
  0
BLOCK
  8
0
  2
*D16
 70
     1
 10
0.0
 20
0.0
 30
0.0
  3
*D16
  1

  0
SOLID
  5
12B
  8
6
  6
CONTINUOUS
 62
     6
 10
298.4949481406
 20
187.2813937718
 30
0.0
 11
303.4949481406
 21
186.6813937718
 31
0.0
 12
303.4949481406
 22
187.8813937718
 32
0.0
 13
303.4949481406
 23
187.8813937718
 33
0.0
  0
SOLID
  5
12C
  8
6
  6
CONTINUOUS
 62
     6
 10
372.2449481406
 20
187.2813937718
 30
0.0
 11
367.2449481406
 21
187.8813937718
 31
0.0
 12
367.2449481406
 22
186.6813937718
 32
0.0
 13
367.2449481406
 23
186.6813937718
 33
0.0
  0
LINE
  5
12D
  8
6
  6
CONTINUOUS
 62
     6
 10
298.4949481406
 20
196.4455199061
 30
0.0
 11
298.4949481406
 21
186.2813937718
 31
0.0
  0
LINE
  5
12E
  8
6
  6
CONTINUOUS
 62
     6
 10
372.2449481406
 20
223.7813937718
 30
0.0
 11
372.2449481406
 21
186.2813937718
 31
0.0
  0
LINE
  5
12F
  8
6
  6
CONTINUOUS
 62
     6
 10
298.4949481406
 20
187.2813937718
 30
0.0
 11
372.2449481406
 21
187.2813937718
 31
0.0
  0
TEXT
  5
130
  8
6
  6
CONTINUOUS
 62
     6
 10
337.08206737
 20
188.2813935972
 30
0.0
 40
3.5
  1
74
 50
360.0
 41
0.7
 11
337.08206737
 21
187.2813935972
 31
0.0
 73
     1
  0
ENDBLK
  5
12A
  8
0
  0
ENDSEC
  0
SECTION
  2
ENTITIES
  0
LINE
  5
34
  8
6
  6
CONTINUOUS
 62
     6
 10
20.0
 20
287.0
 30
0.0
 11
20.0
 21
9.0
 31
0.0
  0
LINE
  5
35
  8
6
  6
CONTINUOUS
 62
     6
 10
20.0
 20
148.5
 30
0.0
 11
13.375265605
 21
148.5
 31
0.0
  0
LINE
  5
36
  8
6
  6
CONTINUOUS
 62
     6
 10
20.0
 20
287.0
 30
0.0
 11
414.5
 21
287.0
 31
0.0
  0
LINE
  5
37
  8
6
  6
CONTINUOUS
 62
     6
 10
20.0
 20
9.0
 30
0.0
 11
414.5
 21
9.0
 31
0.0
  0
LINE
  5
38
  8
6
  6
CONTINUOUS
 62
     6
 10
0.0
 20
297.0
 30
0.0
 11
420.0
 21
297.0
 31
0.0
  0
LINE
  5
39
  8
6
  6
CONTINUOUS
 62
     6
 10
420.0
 20
297.0
 30
0.0
 11
420.0
 21
0.0
 31
0.0
  0
LINE
  5
3A
  8
6
  6
CONTINUOUS
 62
     6
 10
420.0
 20
0.0
 30
0.0
 11
0.0
 21
0.0
 31
0.0
  0
LINE
  5
3B
  8
6
  6
CONTINUOUS
 62
     6
 10
0.0
 20
0.0
 30
0.0
 11
0.0
 21
297.0
 31
0.0
  0
LINE
  5
3C
  8
6
  6
CONTINUOUS
 62
     6
 10
414.5
 20
52.5
 30
0.0
 11
414.5
 21
287.0
 31
0.0
  0
LINE
  5
3D
  8
6
  6
CONTINUOUS
 62
     6
 10
414.5
 20
52.5
 30
0.0
 11
414.5
 21
9.0
 31
0.0
  0
TEXT
  5
3E
  8
2
  6
CONTINUOUS
 62
     1
 10
362.015050968
 20
39.9909360343
 30
0.0
 40
10.0
  1
809
 41
0.7
 11
362.015050968
 21
37.1337931771
 31
0.0
 73
     1
  0
INSERT
  5
44
  8
2
  6
CONTINUOUS
 62
     1
  2
SW_NOTE_0
 10
73.5324916667
 20
49.7754528679
 30
0.0
  0
INSERT
  5
4B
  8
2
  6
CONTINUOUS
 62
     1
  2
SW_NOTE_1
 10
25.131147541
 20
27.4759448138
 30
0.0
  0
TEXT
  5
4C
  8
2
  6
CONTINUOUS
 62
     1
 10
312.7010196007
 20
39.8322418184
 30
0.0
 40
10.0
  1
Modell 
 41
0.7
 11
312.7010196007
 21
36.9750989613
 31
0.0
 73
     1
  0
INSERT
  5
52
  8
2
  6
CONTINUOUS
 62
     1
  2
SW_NOTE_2
 10
309.7662955082
 20
27.4759448138
 30
0.0
  0
TEXT
  5
53
  8
2
  6
CONTINUOUS
 62
     1
 10
300.4572681642
 20
14.8988612224
 30
0.0
 40
3.5
  1
Datum/Date 01/2008    Maßstab/Scale 1:1
 41
0.6461538462
 11
300.4572681642
 21
13.8988612224
 31
0.0
 73
     1
  0
LINE
  5
54
  8
0
  6
CONTINUOUS
 10
206.6767985198
 20
237.2813939581
 30
0.0
 11
71.6268016222
 21
237.2813939581
 31
0.0
  0
POLYLINE
  5
55
  8
0
  6
CONTINUOUS
 66
     1
 10
0.0
 20
0.0
 30
0.0
  0
VERTEX
  5
133
  8
0
  6
CONTINUOUS
 10
206.6767985198
 20
224.7813937718
 30
0.0
  0
VERTEX
  5
134
  8
0
  6
CONTINUOUS
 10
191.5451089117
 20
226.9697396548
 30
0.0
  0
VERTEX
  5
135
  8
0
  6
CONTINUOUS
 10
176.4327386591
 20
229.0896147022
 30
0.0
  0
VERTEX
  5
136
  8
0
  6
CONTINUOUS
 10
161.3250101182
 20
231.076339958
 30
0.0
  0
VERTEX
  5
137
  8
0
  6
CONTINUOUS
 10
146.2071897659
 20
232.8692094887
 30
0.0
  0
VERTEX
  5
138
  8
0
  6
CONTINUOUS
 10
131.0692975494
 20
234.4130415002
 30
0.0
  0
VERTEX
  5
139
  8
0
  6
CONTINUOUS
 10
116.2169171694
 20
235.6395253444
 30
0.0
  0
VERTEX
  5
13A
  8
0
  6
CONTINUOUS
 10
101.3792181584
 20
236.5423634181
 30
0.0
  0
VERTEX
  5
13B
  8
0
  6
CONTINUOUS
 10
86.5384241006
 20
237.0951639021
 30
0.0
  0
VERTEX
  5
13C
  8
0
  6
CONTINUOUS
 10
71.6768015373
 20
237.2813939581
 30
0.0
  0
SEQEND
  5
132
  8
0
  6
CONTINUOUS
  0
POLYLINE
  5
56
  8
0
  6
CONTINUOUS
 66
     1
 10
0.0
 20
0.0
 30
0.0
  0
VERTEX
  5
13E
  8
0
  6
CONTINUOUS
 10
206.6767985198
 20
224.7813937718
 30
0.0
  0
VERTEX
  5
13F
  8
0
  6
CONTINUOUS
 10
191.5451089117
 20
222.5930478888
 30
0.0
  0
VERTEX
  5
140
  8
0
  6
CONTINUOUS
 10
176.4327386591
 20
220.4731728414
 30
0.0
  0
VERTEX
  5
141
  8
0
  6
CONTINUOUS
 10
161.3250101182
 20
218.4864475856
 30
0.0
  0
VERTEX
  5
142
  8
0
  6
CONTINUOUS
 10
146.2071897659
 20
216.6935780549
 30
0.0
  0
VERTEX
  5
143
  8
0
  6
CONTINUOUS
 10
131.0692975494
 20
215.1497460434
 30
0.0
  0
VERTEX
  5
144
  8
0
  6
CONTINUOUS
 10
116.2169171694
 20
213.9232621992
 30
0.0
  0
VERTEX
  5
145
  8
0
  6
CONTINUOUS
 10
101.3792181584
 20
213.0204241255
 30
0.0
  0
VERTEX
  5
146
  8
0
  6
CONTINUOUS
 10
86.5384241006
 20
212.4676236415
 30
0.0
  0
VERTEX
  5
147
  8
0
  6
CONTINUOUS
 10
71.6768015373
 20
212.2813935855
 30
0.0
  0
SEQEND
  5
13D
  8
0
  6
CONTINUOUS
  0
LINE
  5
57
  8
0
  6
CONTINUOUS
 10
206.6767985198
 20
224.7813937718
 30
0.0
 11
206.6767985198
 21
237.2813939581
 31
0.0
  0
LINE
  5
58
  8
0
  6
CONTINUOUS
 10
71.6768015373
 20
237.2813939581
 30
0.0
 11
71.6768015373
 21
212.2813935855
 31
0.0
  0
ARC
  5
59
  8
0
  6
CONTINUOUS
 10
86.676801202
 20
224.7813937718
 30
0.0
 40
27.50000000000001
 50
27.0356917894
 51
180.0
  0
ARC
  5
5A
  8
0
  6
CONTINUOUS
 10
86.676801202
 20
224.7813937718
 30
0.0
 40
27.5
 50
180.0
 51
336.1181620111
  0
DIMENSION
  5
5B
  8
6
  6
CONTINUOUS
 62
     6
  2
*D4
 10
206.676801202
 20
187.2813937718
 30
0.0
 11
142.4058033664
 21
187.2813937718
 31
0.0
 70
   160
  3
SLDDIMSTYLE0
 13
71.676801202
 23
212.2813937718
 33
0.0
 14
206.676801202
 24
224.7813937718
 34
0.0
 50
0.0
  0
DIMENSION
  5
66
  8
6
  6
CONTINUOUS
 62
     6
  2
*D5
 10
222.726801202
 20
224.7813937718
 30
0.0
 11
222.726801202
 21
230.5740632319
 31
0.0
 70
   160
  3
SLDDIMSTYLE1
 13
206.676801202
 23
237.2813937718
 33
0.0
 14
206.676801202
 24
224.7813937718
 34
0.0
 50
90.0
  0
DIMENSION
  5
73
  8
6
  6
CONTINUOUS
 62
     6
  2
*D6
 10
47.4495847022
 20
212.2813937718
 30
0.0
 11
47.4495847022
 21
226.4322911822
 31
0.0
 70
   160
  3
SLDDIMSTYLE0
 13
71.676801202
 23
237.2813937718
 33
0.0
 14
71.676801202
 24
212.2813937718
 34
0.0
 50
90.0
  0
INSERT
  5
8A
  8
6
  6
CENTER
 62
     6
  2
SW_CENTERMARKSYMBOL_0
 10
86.676801202
 20
224.7813937718
 30
0.0
  0
LINE
  5
8B
  8
6
  6
CENTER
 62
     6
 10
67.676801202
 20
146.2855929216
 30
0.0
 11
67.676801202
 21
129.6791572208
 31
0.0
  0
LINE
  5
8C
  8
6
  6
CENTER
 62
     6
 10
105.676801202
 20
146.2855929216
 30
0.0
 11
105.676801202
 21
129.6791572208
 31
0.0
  0
LINE
  5
8D
  8
0
  6
CONTINUOUS
 10
76.6768014255
 20
129.6791572208
 30
0.0
 11
76.6768014255
 21
103.929157191
 31
0.0
  0
LINE
  5
8E
  8
0
  6
CONTINUOUS
 10
96.6768009785
 20
103.929157191
 30
0.0
 11
96.6768009785
 21
129.6791572208
 31
0.0
  0
LINE
  5
8F
  8
0
  6
CONTINUOUS
 10
74.6768010977
 20
91.4291579361
 30
0.0
 11
71.6768015373
 21
91.4291579361
 31
0.0
  0
LINE
  5
90
  8
0
  6
CONTINUOUS
 10
206.6767985198
 20
91.4291579361
 30
0.0
 11
98.6766727838
 21
91.4291579361
 31
0.0
  0
ARC
  5
91
  8
0
  6
CONTINUOUS
 10
98.6442653132
 20
93.3974013806
 30
0.0
 40
1.965129612669399
 50
179.1799609239
 51
270.9343312122
  0
ARC
  5
92
  8
0
  6
CONTINUOUS
 10
74.7039859884
 20
93.3973319585
 30
0.0
 40
1.981304539855993
 50
265.5913086094
 51
1.0409654741
  0
LINE
  5
93
  8
0
  6
CONTINUOUS
 10
76.6768014255
 20
103.929157191
 30
0.0
 11
76.6768014255
 21
93.4291582639
 31
0.0
  0
LINE
  5
94
  8
0
  6
CONTINUOUS
 10
96.6768009785
 20
93.425950789
 30
0.0
 11
96.6768009785
 21
103.929157191
 31
0.0
  0
LINE
  5
95
  8
0
  6
CONTINUOUS
 10
59.176801351
 20
140.1791570793
 30
0.0
 11
59.176801351
 21
130.1791572446
 31
0.0
  0
LINE
  5
96
  8
0
  6
CONTINUOUS
 10
114.176801053
 20
130.1791572446
 30
0.0
 11
114.176801053
 21
140.1791570793
 31
0.0
  0
LINE
  5
97
  8
0
  6
CONTINUOUS
 10
59.176801351
 20
130.1791572446
 30
0.0
 11
59.6768005016
 21
129.6791572208
 31
0.0
  0
LINE
  5
98
  8
0
  6
CONTINUOUS
 10
113.6768019023
 20
129.6791572208
 30
0.0
 11
114.176801053
 21
130.1791572446
 31
0.0
  0
LINE
  5
99
  8
0
  6
CONTINUOUS
 10
109.9163187864
 20
140.1791570793
 30
0.0
 11
109.6909294101
 21
144.4798426787
 31
0.0
  0
LINE
  5
9A
  8
0
  6
CONTINUOUS
 10
63.6626729938
 20
144.4798426787
 30
0.0
 11
63.4372836175
 21
140.1791570793
 31
0.0
  0
LINE
  5
9B
  8
0
  6
CONTINUOUS
 10
109.6909294101
 20
144.4798426787
 30
0.0
 11
109.136384559
 21
144.9791573073
 31
0.0
  0
LINE
  5
9C
  8
0
  6
CONTINUOUS
 10
64.217217845
 20
144.9791573073
 30
0.0
 11
63.6626729938
 21
144.4798426787
 31
0.0
  0
POLYLINE
  5
9D
  8
0
  6
CONTINUOUS
 66
     1
 10
0.0
 20
0.0
 30
0.0
  0
VERTEX
  5
149
  8
0
  6
CONTINUOUS
 10
206.6767985198
 20
66.4291594262
 30
0.0
  0
VERTEX
  5
14A
  8
0
  6
CONTINUOUS
 10
191.5451089117
 20
66.6222039695
 30
0.0
  0
VERTEX
  5
14B
  8
0
  6
CONTINUOUS
 10
176.4327386591
 20
67.1950530345
 30
0.0
  0
VERTEX
  5
14C
  8
0
  6
CONTINUOUS
 10
161.3250101182
 20
68.1299146349
 30
0.0
  0
VERTEX
  5
14D
  8
0
  6
CONTINUOUS
 10
146.2071897659
 20
69.3983014758
 30
0.0
  0
VERTEX
  5
14E
  8
0
  6
CONTINUOUS
 10
131.0692975494
 20
70.961638176
 30
0.0
  0
VERTEX
  5
14F
  8
0
  6
CONTINUOUS
 10
116.2169171694
 20
72.7363403971
 30
0.0
  0
VERTEX
  5
150
  8
0
  6
CONTINUOUS
 10
101.3792181584
 20
74.6948223646
 30
0.0
  0
VERTEX
  5
151
  8
0
  6
CONTINUOUS
 10
86.5384241006
 20
76.779487365
 30
0.0
  0
VERTEX
  5
152
  8
0
  6
CONTINUOUS
 10
71.6768015373
 20
78.9291586811
 30
0.0
  0
SEQEND
  5
148
  8
0
  6
CONTINUOUS
  0
LINE
  5
9E
  8
0
  6
CONTINUOUS
 10
206.6767985198
 20
66.4291594262
 30
0.0
 11
206.6767985198
 21
91.4291579361
 31
0.0
  0
LINE
  5
9F
  8
0
  6
CONTINUOUS
 10
71.6768015373
 20
78.9291586811
 30
0.0
 11
71.6768015373
 21
91.4291579361
 31
0.0
  0
LINE
  5
A0
  8
0
  6
CONTINUOUS
 10
59.176801351
 20
140.1791570793
 30
0.0
 11
114.176801053
 21
140.1791570793
 31
0.0
  0
LINE
  5
A1
  8
0
  6
CONTINUOUS
 10
113.6768019023
 20
129.6791572208
 30
0.0
 11
59.6768005016
 21
129.6791572208
 31
0.0
  0
ARC
  5
A2
  8
0
  6
CONTINUOUS
 10
91.5288026976
 20
143.809912334
 30
0.0
 40
10.66972758325347
 50
340.1057212457
 51
358.0328444823
  0
LINE
  5
A3
  8
0
  6
CONTINUOUS
 10
102.192242277
 20
143.4436569075
 30
0.0
 11
102.2558022487
 21
144.4798426787
 31
0.0
  0
ARC
  5
A4
  8
0
  6
CONTINUOUS
 10
81.6310546405
 20
143.7725344806
 30
0.0
 40
10.47485864651887
 50
181.7992027159
 51
200.0626727814
  0
LINE
  5
A5
  8
0
  6
CONTINUOUS
 10
71.161360127
 20
143.4436569075
 30
0.0
 11
71.0978001553
 21
144.4798426787
 31
0.0
  0
LINE
  5
A6
  8
0
  6
CONTINUOUS
 10
102.927487922
 20
144.9791573073
 30
0.0
 11
109.136384559
 21
144.9791573073
 31
0.0
  0
LINE
  5
A7
  8
0
  6
CONTINUOUS
 10
102.2558022487
 20
144.4798426787
 30
0.0
 11
102.927487922
 21
144.9791573073
 31
0.0
  0
LINE
  5
A8
  8
0
  6
CONTINUOUS
 10
64.217217845
 20
144.9791573073
 30
0.0
 11
70.426114482
 21
144.9791573073
 31
0.0
  0
LINE
  5
A9
  8
0
  6
CONTINUOUS
 10
70.426114482
 20
144.9791573073
 30
0.0
 11
71.0978001553
 21
144.4798426787
 31
0.0
  0
LINE
  5
AA
  8
0
  6
CONTINUOUS
 10
69.0332675549
 20
144.9791573073
 30
0.0
 11
70.426114482
 21
144.9791573073
 31
0.0
  0
LINE
  5
AB
  8
0
  6
CONTINUOUS
 10
104.320334849
 20
144.9791573073
 30
0.0
 11
102.927487922
 21
144.9791573073
 31
0.0
  0
POLYLINE
  5
AC
  8
0
  6
CONTINUOUS
 66
     1
 10
0.0
 20
0.0
 30
0.0
  0
VERTEX
  5
154
  8
0
  6
CONTINUOUS
 10
98.6766727838
 20
91.4290648038
 30
0.0
  0
VERTEX
  5
155
  8
0
  6
CONTINUOUS
 10
98.5627329174
 20
91.3478981788
 30
0.0
  0
VERTEX
  5
156
  8
0
  6
CONTINUOUS
 10
98.2411658588
 20
91.1201823587
 30
0.0
  0
VERTEX
  5
157
  8
0
  6
CONTINUOUS
 10
97.7175958651
 20
90.7539378936
 30
0.0
  0
VERTEX
  5
158
  8
0
  6
CONTINUOUS
 10
97.0010036799
 20
90.2626317079
 30
0.0
  0
VERTEX
  5
159
  8
0
  6
CONTINUOUS
 10
96.122197454
 20
89.6779324944
 30
0.0
  0
VERTEX
  5
15A
  8
0
  6
CONTINUOUS
 10
94.8868408996
 20
88.8954650695
 30
0.0
  0
VERTEX
  5
15B
  8
0
  6
CONTINUOUS
 10
93.4755966264
 20
88.071706527
 30
0.0
  0
VERTEX
  5
15C
  8
0
  6
CONTINUOUS
 10
91.8621952842
 20
87.248827153
 30
0.0
  0
VERTEX
  5
15D
  8
0
  6
CONTINUOUS
 10
90.0665115296
 20
86.5300510163
 30
0.0
  0
VERTEX
  5
15E
  8
0
  6
CONTINUOUS
 10
88.8825872644
 20
86.1989844675
 30
0.0
  0
VERTEX
  5
15F
  8
0
  6
CONTINUOUS
 10
87.6311190623
 20
85.9939556653
 30
0.0
  0
VERTEX
  5
160
  8
0
  6
CONTINUOUS
 10
86.3593594077
 20
85.9512228603
 30
0.0
  0
VERTEX
  5
161
  8
0
  6
CONTINUOUS
 10
85.0618878576
 20
86.0826660032
 30
0.0
  0
VERTEX
  5
162
  8
0
  6
CONTINUOUS
 10
83.6600345756
 20
86.4123355682
 30
0.0
  0
VERTEX
  5
163
  8
0
  6
CONTINUOUS
 10
82.3006100218
 20
86.8957664902
 30
0.0
  0
VERTEX
  5
164
  8
0
  6
CONTINUOUS
 10
80.4333888191
 20
87.7724129791
 30
0.0
  0
VERTEX
  5
165
  8
0
  6
CONTINUOUS
 10
78.7085551965
 20
88.7485321696
 30
0.0
  0
VERTEX
  5
166
  8
0
  6
CONTINUOUS
 10
77.2418469387
 20
89.6711152131
 30
0.0
  0
VERTEX
  5
167
  8
0
  6
CONTINUOUS
 10
76.5771564293
 20
90.1112321849
 30
0.0
  0
VERTEX
  5
168
  8
0
  6
CONTINUOUS
 10
75.9892255264
 20
90.510251754
 30
0.0
  0
VERTEX
  5
169
  8
0
  6
CONTINUOUS
 10
75.3551438647
 20
90.9496869976
 30
0.0
  0
VERTEX
  5
16A
  8
0
  6
CONTINUOUS
 10
74.9025536898
 20
91.2685792978
 30
0.0
  0
VERTEX
  5
16B
  8
0
  6
CONTINUOUS
 10
74.7349705744
 20
91.3876880045
 30
0.0
  0
VERTEX
  5
16C
  8
0
  6
CONTINUOUS
 10
74.6768010977
 20
91.4291579361
 30
0.0
  0
SEQEND
  5
153
  8
0
  6
CONTINUOUS
  0
DIMENSION
  5
AD
  8
6
  6
CONTINUOUS
 62
     6
  2
*D8
 10
105.676801202
 20
166.9791572208
 30
0.0
 11
87.1197138684
 21
166.9791572208
 31
0.0
 70
   160
  3
SLDDIMSTYLE0
 13
67.676801202
 23
146.2855929216
 33
0.0
 14
105.676801202
 24
146.2855929216
 34
0.0
  0
DIMENSION
  5
B7
  8
6
  6
CONTINUOUS
 62
     6
  2
*D9
 10
127.3151829495
 20
129.6791572208
 30
0.0
 11
127.3151829495
 21
135.6343386696
 31
0.0
 70
   160
  1
10
  3
SLDDIMSTYLE1
 13
114.176801202
 23
140.1791572208
 33
0.0
 14
113.676801202
 24
129.6791572208
 34
0.0
 50
90.0
  0
DIMENSION
  5
C3
  8
6
  6
CONTINUOUS
 62
     6
  2
*D10
 10
222.726801202
 20
91.4291572208
 30
0.0
 11
222.726801202
 21
79.494438759
 31
0.0
 70
   160
  3
SLDDIMSTYLE0
 13
206.676801202
 23
66.4291572208
 33
0.0
 14
206.676801202
 24
91.4291572208
 34
0.0
 50
90.0
  0
DIMENSION
  5
CF
  8
6
  6
CONTINUOUS
 62
     6
  2
*D11
 10
60.6348574842
 20
78.9291572208
 30
0.0
 11
60.6348574842
 21
84.5255232185
 31
0.0
 70
   160
  3
SLDDIMSTYLE1
 13
71.676801202
 23
91.4291572208
 33
0.0
 14
71.676801202
 24
78.9291572208
 34
0.0
 50
90.0
  0
DIMENSION
  5
DB
  8
6
  6
CONTINUOUS
 62
     6
  2
*D12
 10
96.676801202
 20
113.3127628765
 30
0.0
 11
65.2116488616
 21
113.3127628765
 31
0.0
 70
   160
  1
%%c<>
  3
SLDDIMSTYLE0
 13
76.676801202
 23
103.9291572208
 33
0.0
 14
96.676801202
 24
103.9291572208
 34
0.0
  0
DIMENSION
  5
E5
  8
6
  6
CONTINUOUS
 62
     6
  2
*D13
 10
71.868303738
 20
154.9791572208
 30
0.0
 11
80.6312598152
 21
154.9791572208
 31
0.0
 70
   160
  3
SLDDIMSTYLE2
 13
63.426801202
 23
139.9791572208
 33
0.0
 14
71.868303738
 24
139.9791572208
 34
0.0
  0
DIMENSION
  5
F2
  8
6
  6
CONTINUOUS
 62
     6
  2
*D14
 10
46.9452229805
 20
140.1791572208
 30
0.0
 11
46.9452229805
 21
133.1324340885
 31
0.0
 70
   160
  3
SLDDIMSTYLE2
 13
65.176801202
 23
144.9791572208
 33
0.0
 14
59.176801202
 24
140.1791572208
 34
0.0
 50
90.0
  0
LINE
  5
FE
  8
6
  6
CENTER
 62
     6
 10
86.676801202
 20
84.0415389248
 30
0.0
 11
86.676801202
 21
142.1962884977
 31
0.0
  0
LINE
  5
FF
  8
0
  6
CONTINUOUS
 10
308.9949481406
 20
214.7813939953
 30
0.0
 11
334.7449481704
 21
214.7813939953
 31
0.0
  0
LINE
  5
100
  8
0
  6
CONTINUOUS
 10
334.7449481704
 20
234.7813935483
 30
0.0
 11
308.9949481406
 21
234.7813935483
 31
0.0
  0
ARC
  5
101
  8
0
  6
CONTINUOUS
 10
351.6088144084
 20
212.8566019852
 30
0.0
 40
1.928178578603963
 50
58.7989644529
 51
90.6099098221
  0
ARC
  5
102
  8
0
  6
CONTINUOUS
 10
351.5880545437
 20
236.7508764463
 30
0.0
 40
1.977159830987087
 50
270.0116655932
 51
301.0066569615
  0
LINE
  5
103
  8
0
  6
CONTINUOUS
 10
334.7449481704
 20
214.7813939953
 30
0.0
 11
351.5883155384
 21
214.7813939953
 31
0.0
  0
LINE
  5
104
  8
0
  6
CONTINUOUS
 10
351.5859760561
 20
234.7813935483
 30
0.0
 11
334.7449481704
 21
234.7813935483
 31
0.0
  0
LINE
  5
105
  8
0
  6
CONTINUOUS
 10
299.494948446
 20
197.2813939208
 30
0.0
 11
308.4949481168
 21
197.2813939208
 31
0.0
  0
LINE
  5
106
  8
0
  6
CONTINUOUS
 10
308.4949481168
 20
252.2813936228
 30
0.0
 11
298.4949482821
 21
252.2813936228
 31
0.0
  0
LINE
  5
107
  8
0
  6
CONTINUOUS
 10
308.4949481168
 20
197.2813939208
 30
0.0
 11
308.9949481406
 21
197.7813930714
 31
0.0
  0
LINE
  5
108
  8
0
  6
CONTINUOUS
 10
308.9949481406
 20
251.7813944722
 30
0.0
 11
308.4949481168
 21
252.2813936228
 31
0.0
  0
LINE
  5
109
  8
0
  6
CONTINUOUS
 10
298.4949482821
 20
229.0209124328
 30
0.0
 11
294.1942626827
 21
228.7955230566
 31
0.0
  0
LINE
  5
10A
  8
0
  6
CONTINUOUS
 10
294.1942626827
 20
220.767264487
 30
0.0
 11
298.4949482821
 21
220.5418751107
 31
0.0
  0
LINE
  5
10B
  8
0
  6
CONTINUOUS
 10
294.1942626827
 20
228.7955230566
 30
0.0
 11
293.6949480541
 21
228.2409777397
 31
0.0
  0
LINE
  5
10C
  8
0
  6
CONTINUOUS
 10
293.6949480541
 20
221.3218098039
 30
0.0
 11
294.1942626827
 21
220.767264487
 31
0.0
  0
ARC
  5
10D
  8
0
  6
CONTINUOUS
 10
359.7449481406
 20
224.7813937718
 30
0.0
 40
12.5
 50
90.0
 51
270.0
  0
LINE
  5
10E
  8
0
  6
CONTINUOUS
 10
359.7449466803
 20
237.2813939581
 30
0.0
 11
359.7449466803
 21
212.2813935855
 31
0.0
  0
LINE
  5
10F
  8
0
  6
CONTINUOUS
 10
359.7549490847
 20
224.7813937718
 30
0.0
 11
372.2449459352
 21
224.7813937718
 31
0.0
  0
ARC
  5
110
  8
0
  6
CONTINUOUS
 10
359.7449483948
 20
224.7813964176
 30
0.0
 40
12.49999754043131
 50
359.9999878724
 51
90.0000078587
  0
LINE
  5
111
  8
0
  6
CONTINUOUS
 10
299.494948446
 20
197.2813939208
 30
0.0
 11
299.494948446
 21
197.4455190355
 31
0.0
  0
LINE
  5
112
  8
0
  6
CONTINUOUS
 10
299.494948446
 20
197.4455190355
 30
0.0
 11
298.4949482821
 21
197.4455190355
 31
0.0
  0
LINE
  5
113
  8
0
  6
CONTINUOUS
 10
298.4949482821
 20
197.4455190355
 30
0.0
 11
298.4949482821
 21
252.2813936228
 31
0.0
  0
LINE
  5
114
  8
0
  6
CONTINUOUS
 10
308.9949481406
 20
224.7813937718
 30
0.0
 11
308.9949481406
 21
197.7813930714
 31
0.0
  0
LINE
  5
115
  8
0
  6
CONTINUOUS
 10
308.9949481406
 20
251.7813944722
 30
0.0
 11
308.9949481406
 21
224.7813937718
 31
0.0
  0
LINE
  5
116
  8
0
  6
CONTINUOUS
 10
298.4949482821
 20
197.4455190355
 30
0.0
 11
298.4949482821
 21
198.6530569846
 31
0.0
  0
LINE
  5
117
  8
0
  6
CONTINUOUS
 10
293.6949480541
 20
221.3218098039
 30
0.0
 11
293.6949480541
 21
228.2409777397
 31
0.0
  0
LINE
  5
118
  8
0
  6
CONTINUOUS
 10
293.6949480541
 20
222.6813938467
 30
0.0
 11
293.6949480541
 21
222.2813938277
 31
0.0
  0
LINE
  5
119
  8
0
  6
CONTINUOUS
 10
293.6949480541
 20
227.2813937159
 30
0.0
 11
293.6949480541
 21
226.8813936969
 31
0.0
  0
POLYLINE
  5
11A
  8
0
  6
CONTINUOUS
 66
     1
 10
0.0
 20
0.0
 30
0.0
  0
VERTEX
  5
16E
  8
0
  6
CONTINUOUS
 10
345.2449470975
 20
224.7813937718
 30
0.0
  0
VERTEX
  5
16F
  8
0
  6
CONTINUOUS
 10
345.2912897088
 20
225.7466848239
 30
0.0
  0
VERTEX
  5
170
  8
0
  6
CONTINUOUS
 10
345.4312153377
 20
226.711975876
 30
0.0
  0
VERTEX
  5
171
  8
0
  6
CONTINUOUS
 10
345.8527431108
 20
228.2431556376
 30
0.0
  0
VERTEX
  5
172
  8
0
  6
CONTINUOUS
 10
346.4927926876
 20
229.6853561418
 30
0.0
  0
VERTEX
  5
173
  8
0
  6
CONTINUOUS
 10
347.3590158143
 20
231.0640115755
 30
0.0
  0
VERTEX
  5
174
  8
0
  6
CONTINUOUS
 10
348.3544729867
 20
232.2585375512
 30
0.0
  0
VERTEX
  5
175
  8
0
  6
CONTINUOUS
 10
349.4465753653
 20
233.2876611033
 30
0.0
  0
VERTEX
  5
176
  8
0
  6
CONTINUOUS
 10
350.5036786415
 20
234.0927131006
 30
0.0
  0
VERTEX
  5
177
  8
0
  6
CONTINUOUS
 10
351.0456972041
 20
234.4485276842
 30
0.0
  0
VERTEX
  5
178
  8
0
  6
CONTINUOUS
 10
351.4468811669
 20
234.6904266158
 30
0.0
  0
VERTEX
  5
179
  8
0
  6
CONTINUOUS
 10
351.5877530195
 20
234.7713250199
 30
0.0
  0
VERTEX
  5
17A
  8
0
  6
CONTINUOUS
 10
351.5859350779
 20
234.7702940458
 30
0.0
  0
SEQEND
  5
16D
  8
0
  6
CONTINUOUS
  0
POLYLINE
  5
11B
  8
0
  6
CONTINUOUS
 66
     1
 10
0.0
 20
0.0
 30
0.0
  0
VERTEX
  5
17C
  8
0
  6
CONTINUOUS
 10
351.5886098363
 20
214.7909996563
 30
0.0
  0
VERTEX
  5
17D
  8
0
  6
CONTINUOUS
 10
351.6002662696
 20
214.7843751589
 30
0.0
  0
VERTEX
  5
17E
  8
0
  6
CONTINUOUS
 10
351.4703765728
 20
214.858725434
 30
0.0
  0
VERTEX
  5
17F
  8
0
  6
CONTINUOUS
 10
351.1773750402
 20
215.0329367721
 30
0.0
  0
VERTEX
  5
180
  8
0
  6
CONTINUOUS
 10
350.7698953368
 20
215.2911021838
 30
0.0
  0
VERTEX
  5
181
  8
0
  6
CONTINUOUS
 10
350.2867587127
 20
215.6225850338
 30
0.0
  0
VERTEX
  5
182
  8
0
  6
CONTINUOUS
 10
349.1591580429
 20
216.5237755978
 30
0.0
  0
VERTEX
  5
183
  8
0
  6
CONTINUOUS
 10
348.048380784
 20
217.6399494054
 30
0.0
  0
VERTEX
  5
184
  8
0
  6
CONTINUOUS
 10
346.980924926
 20
219.0483442971
 30
0.0
  0
VERTEX
  5
185
  8
0
  6
CONTINUOUS
 10
346.3673696138
 20
220.1199091503
 30
0.0
  0
VERTEX
  5
186
  8
0
  6
CONTINUOUS
 10
345.8481498279
 20
221.3324597103
 30
0.0
  0
VERTEX
  5
187
  8
0
  6
CONTINUOUS
 10
345.4978272535
 20
222.534551285
 30
0.0
  0
VERTEX
  5
188
  8
0
  6
CONTINUOUS
 10
345.2889241495
 20
223.8410237476
 30
0.0
  0
VERTEX
  5
189
  8
0
  6
CONTINUOUS
 10
345.2449470975
 20
224.7813937718
 30
0.0
  0
SEQEND
  5
17B
  8
0
  6
CONTINUOUS
  0
DIMENSION
  5
11C
  8
6
  6
CONTINUOUS
 62
     6
  2
*D15
 10
283.6949481406
 20
197.2813937718
 30
0.0
 11
283.6949481406
 21
226.0974184129
 31
0.0
 70
   160
  1
%%c<>
  3
SLDDIMSTYLE0
 13
298.4949481406
 23
252.2813937718
 33
0.0
 14
299.4949481406
 24
197.2813937718
 34
0.0
 50
90.0
  0
DIMENSION
  5
127
  8
6
  6
CONTINUOUS
 62
     6
  2
*D16
 10
372.2449481406
 20
187.2813937718
 30
0.0
 11
339.6672397838
 21
187.2813937718
 31
0.0
 70
   160
  3
SLDDIMSTYLE2
 13
298.4949481406
 23
197.4455199061
 33
0.0
 14
372.2449481406
 24
224.7813937718
 34
0.0
 50
0.0
  0
LINE
  5
131
  8
6
  6
CENTER
 62
     6
 10
290.7090645368
 20
224.7813937718
 30
0.0
 11
360.8062378702
 21
224.7813937718
 31
0.0
  0
ENDSEC
  0
EOF
