  0
SECTION
  2
HEADER
  9
$ACADVER
  1
AC1009
  9
$DWGCODEPAGE
  3
ansi_1252
  9
$INSBASE
 10
0.0
 20
0.0
 30
0.0
  9
$EXTMIN
 10
0.0
 20
0.0
 30
0.0
  9
$EXTMAX
 10
420.0
 20
297.0
 30
0.0
  9
$LIMMIN
 10
0.0
 20
0.0
  9
$LIMMAX
 10
0.0
 20
0.0
  9
$ORTHOMODE
 70
     0
  9
$REGENMODE
 70
     1
  9
$FILLMODE
 70
     1
  9
$QTEXTMODE
 70
     0
  9
$MIRRTEXT
 70
     1
  9
$DRAGMODE
 70
     2
  9
$LTSCALE
 40
1.0
  9
$OSMODE
 70
    37
  9
$ATTMODE
 70
     1
  9
$TEXTSIZE
 40
3.5
  9
$TRACEWID
 40
1.0
  9
$TEXTSTYLE
  7
STANDARD
  9
$CLAYER
  8
0
  9
$CELTYPE
  6
BYLAYER
  9
$CECOLOR
 62
   256
  9
$DIMSCALE
 40
1.0
  9
$DIMASZ
 40
5.0
  9
$DIMEXO
 40
1.0
  9
$DIMDLI
 40
3.75
  9
$DIMRND
 40
0.0
  9
$DIMDLE
 40
0.0
  9
$DIMEXE
 40
1.0
  9
$DIMTP
 40
0.0
  9
$DIMTM
 40
0.0
  9
$DIMTXT
 40
3.5
  9
$DIMCEN
 40
2.5
  9
$DIMTSZ
 40
0.0
  9
$DIMTOL
 70
     0
  9
$DIMLIM
 70
     0
  9
$DIMTIH
 70
     1
  9
$DIMTOH
 70
     1
  9
$DIMSE1
 70
     0
  9
$DIMSE2
 70
     0
  9
$DIMTAD
 70
     1
  9
$DIMZIN
 70
     0
  9
$DIMBLK
  1

  9
$DIMASO
 70
     1
  9
$DIMSHO
 70
     1
  9
$DIMPOST
  1

  9
$DIMAPOST
  1

  9
$DIMALT
 70
     0
  9
$DIMALTD
 70
     3
  9
$DIMALTF
 40
0.0393700787
  9
$DIMLFAC
 40
1.0
  9
$DIMTOFL
 70
     1
  9
$DIMTVP
 40
0.0
  9
$DIMTIX
 70
     0
  9
$DIMSOXD
 70
     0
  9
$DIMSAH
 70
     0
  9
$DIMBLK1
  1

  9
$DIMBLK2
  1

  9
$DIMSTYLE
  2
ISO-25
  9
$DIMCLRD
 70
     0
  9
$DIMCLRE
 70
     0
  9
$DIMCLRT
 70
     0
  9
$DIMTFAC
 40
1.0
  9
$DIMGAP
 40
1.524
  9
$LUNITS
 70
     2
  9
$LUPREC
 70
     2
  9
$SKETCHINC
 40
1.0
  9
$FILLETRAD
 40
10.0
  9
$AUNITS
 70
     0
  9
$AUPREC
 70
     0
  9
$MENU
  1
.
  9
$ELEVATION
 40
0.0
  9
$PELEVATION
 40
0.0
  9
$THICKNESS
 40
0.0
  9
$LIMCHECK
 70
     0
  9
$CHAMFERA
 40
10.0
  9
$CHAMFERB
 40
10.0
  9
$SKPOLY
 70
     0
  9
$TDCREATE
 40
2454490.567728588
  9
$TDUPDATE
 40
2454490.5677286
  9
$TDINDWG
 40
0.0000000116
  9
$TDUSRTIMER
 40
0.0000000116
  9
$USRTIMER
 70
     1
  9
$ANGBASE
 50
0.0
  9
$ANGDIR
 70
     0
  9
$PDMODE
 70
     0
  9
$PDSIZE
 40
-1.0
  9
$PLINEWID
 40
0.0
  9
$COORDS
 70
     1
  9
$SPLFRAME
 70
     0
  9
$SPLINETYPE
 70
     6
  9
$SPLINESEGS
 70
     8
  9
$ATTDIA
 70
     0
  9
$ATTREQ
 70
     1
  9
$HANDLING
 70
     1
  9
$HANDSEED
  5
174
  9
$SURFTAB1
 70
     6
  9
$SURFTAB2
 70
     6
  9
$SURFTYPE
 70
     6
  9
$SURFU
 70
     6
  9
$SURFV
 70
     6
  9
$UCSNAME
  2

  9
$UCSORG
 10
0.0
 20
0.0
 30
0.0
  9
$UCSXDIR
 10
1.0
 20
0.0
 30
0.0
  9
$UCSYDIR
 10
0.0
 20
1.0
 30
0.0
  9
$PUCSNAME
  2

  9
$PUCSORG
 10
0.0
 20
0.0
 30
0.0
  9
$PUCSXDIR
 10
1.0
 20
0.0
 30
0.0
  9
$PUCSYDIR
 10
0.0
 20
1.0
 30
0.0
  9
$USERI1
 70
     0
  9
$USERI2
 70
     0
  9
$USERI3
 70
     0
  9
$USERI4
 70
     0
  9
$USERI5
 70
     0
  9
$USERR1
 40
0.0
  9
$USERR2
 40
0.0
  9
$USERR3
 40
0.0
  9
$USERR4
 40
0.0
  9
$USERR5
 40
0.0
  9
$WORLDVIEW
 70
     1
  9
$SHADEDGE
 70
     3
  9
$SHADEDIF
 70
    70
  9
$TILEMODE
 70
     1
  9
$MAXACTVP
 70
    64
  9
$PLIMCHECK
 70
     0
  9
$PEXTMIN
 10
1.0000000000E+20
 20
1.0000000000E+20
 30
1.0000000000E+20
  9
$PEXTMAX
 10
-1.0000000000E+20
 20
-1.0000000000E+20
 30
-1.0000000000E+20
  9
$PLIMMIN
 10
0.0
 20
0.0
  9
$PLIMMAX
 10
420.0
 20
297.0
  9
$UNITMODE
 70
     0
  9
$VISRETAIN
 70
     1
  9
$PLINEGEN
 70
     0
  9
$PSLTSCALE
 70
     1
  0
ENDSEC
  0
SECTION
  2
TABLES
  0
TABLE
  2
VPORT
 70
     1
  0
VPORT
  2
*ACTIVE
 70
     0
 10
0.0
 20
0.0
 11
1.0
 21
1.0
 12
210.0
 22
148.5
 13
0.0
 23
0.0
 14
10.0
 24
10.0
 15
10.0
 25
10.0
 16
0.0
 26
0.0
 36
1.0
 17
0.0
 27
0.0
 37
0.0
 40
297.0
 41
1.4141414141
 42
50.0
 43
0.0
 44
0.0
 50
0.0
 51
0.0
 71
     0
 72
  2000
 73
     1
 74
     3
 75
     0
 76
     0
 77
     0
 78
     0
  0
ENDTAB
  0
TABLE
  2
LTYPE
 70
     6
  0
LTYPE
  2
CONTINUOUS
 70
     0
  3
Solid line
 72
    65
 73
     0
 40
0.0
  0
LTYPE
  2
HIDDEN
 70
     0
  3
Hidden __ __ __ __ __ __ __ __ __ __ __ __ __ __
 72
    65
 73
     2
 40
1.905
 49
1.27
 49
-0.635
  0
LTYPE
  2
PHANTOM
 70
     0
  3
Phantom ______  __  __  ______  __  __  ______
 72
    65
 73
     6
 40
12.7
 49
6.35
 49
-1.27
 49
1.27
 49
-1.27
 49
1.27
 49
-1.27
  0
LTYPE
  2
CENTER
 70
     0
  3
Center ____ _ ____ _ ____ _ ____ _ ____ _ ____
 72
    65
 73
     4
 40
10.16
 49
6.35
 49
-1.27
 49
1.27
 49
-1.27
  0
LTYPE
  2
CENTERX2
 70
     0
  3
Center (2x) ________  __  ________  __  _____
 72
    65
 73
     4
 40
20.32
 49
12.7
 49
-2.54
 49
2.54
 49
-2.54
  0
LTYPE
  2
DOT2
 70
     0
  3
Dot (.5x) ........................................
 72
    65
 73
     2
 40
0.635
 49
0.0
 49
-0.635
  0
ENDTAB
  0
TABLE
  2
LAYER
 70
     6
  0
LAYER
  2
0
 70
     0
 62
     7
  6
CONTINUOUS
  0
LAYER
  2
DEFPOINTS
 70
     0
 62
     7
  6
CONTINUOUS
  0
LAYER
  2
7
 70
     0
 62
     7
  6
CONTINUOUS
  0
LAYER
  2
1
 70
     0
 62
     1
  6
CONTINUOUS
  0
LAYER
  2
2
 70
     0
 62
     2
  6
PHANTOM
  0
LAYER
  2
6
 70
     0
 62
     6
  6
CONTINUOUS
  0
ENDTAB
  0
TABLE
  2
STYLE
 70
     1
  0
STYLE
  2
STANDARD
 70
     0
 40
0.0
 41
1.0
 50
0.0
 71
     0
 42
2.5
  3
txt
  4

  0
ENDTAB
  0
TABLE
  2
VIEW
 70
     0
  0
ENDTAB
  0
TABLE
  2
UCS
 70
     0
  0
ENDTAB
  0
TABLE
  2
APPID
 70
     1
  0
APPID
  2
ACAD
 70
     0
  0
ENDTAB
  0
TABLE
  2
DIMSTYLE
 70
     4
  0
DIMSTYLE
  2
ISO-25
 70
     0
  3

  4

  5

  6

  7

 40
1.0
 41
2.5
 42
0.625
 43
3.75
 44
1.25
 45
0.0
 46
0.0
 47
0.0
 48
0.0
140
2.5
141
2.5
142
0.0
143
0.0393700787
144
1.0
145
0.0
146
1.0
147
0.625
 71
     0
 72
     0
 73
     0
 74
     0
 75
     0
 76
     0
 77
     1
 78
     8
170
     0
171
     3
172
     1
173
     0
174
     0
175
     0
176
     0
177
     0
178
     0
  0
DIMSTYLE
  2
SLDDIMSTYLE0
 70
     0
  3

  4

  5

  6

  7

 40
1.0
 41
5.0
 42
0.0625
 43
0.38
 44
0.0
 45
0.0
 46
0.0
 47
0.0
 48
0.0
140
3.5
141
0.09
142
0.0
143
25.4
144
1.0
145
0.0
146
1.0
147
0.875
 71
     0
 72
     0
 73
     0
 74
     1
 75
     0
 76
     0
 77
     1
 78
    12
170
     0
171
     2
172
     0
173
     1
174
     0
175
     0
176
     0
177
     0
178
     0
  0
DIMSTYLE
  2
SLDDIMSTYLE1
 70
     0
  3

  4

  5

  6

  7

 40
1.0
 41
5.0
 42
0.0625
 43
0.38
 44
0.0
 45
0.0
 46
0.0
 47
0.0
 48
0.0
140
3.5
141
0.09
142
0.0
143
25.4
144
1.0
145
0.0
146
1.0
147
0.875
 71
     0
 72
     0
 73
     0
 74
     1
 75
     0
 76
     0
 77
     1
 78
    12
170
     0
171
     2
172
     0
173
     1
174
     0
175
     0
176
     0
177
     0
178
     0
  0
DIMSTYLE
  2
SLDDIMSTYLE2
 70
     0
  3

  4

  5

  6

  7

 40
1.0
 41
5.0
 42
0.0625
 43
0.38
 44
0.0
 45
0.0
 46
0.0
 47
0.0
 48
0.0
140
3.5
141
0.09
142
0.0
143
25.4
144
1.0
145
0.0
146
1.0
147
0.875
 71
     0
 72
     0
 73
     0
 74
     1
 75
     0
 76
     0
 77
     1
 78
    12
170
     0
171
     2
172
     0
173
     1
174
     0
175
     0
176
     0
177
     0
178
     0
  0
ENDTAB
  0
ENDSEC
  0
SECTION
  2
BLOCKS
  0
BLOCK
  8
0
  2
$MODEL_SPACE
 70
     0
 10
0.0
 20
0.0
 30
0.0
  3
$MODEL_SPACE
  1

  0
ENDBLK
  5
21
  8
0
  0
BLOCK
 67
     1
  8
0
  2
$PAPER_SPACE
 70
     0
 10
0.0
 20
0.0
 30
0.0
  3
$PAPER_SPACE
  1

  0
ENDBLK
  5
1D
 67
     1
  8
0
  0
BLOCK
  8
0
  2
SW_NOTE_0
 70
     0
 10
0.0
 20
0.0
 30
0.0
  3
SW_NOTE_0
  1

  0
TEXT
  5
41
  8
2
  6
CONTINUOUS
 62
     0
 10
0.0
 20
1.0
 30
0.0
 40
3.5
  1
Diese Zeichnung ist gemäß Urheberrecht gesetzlich geschützt
 41
0.6644067797
 11
0.0
 21
0.0
 31
0.0
 73
     1
  0
TEXT
  5
42
  8
2
  6
CONTINUOUS
 62
     0
 10
0.0
 20
-8.0513890609
 30
0.0
 40
3.5
  1
This drawing is protected under copyright law; unauthorizid disclosure,
 41
0.6605633803
 11
0.0
 21
-9.0513890609
 31
0.0
 73
     1
  0
TEXT
  5
43
  8
2
  6
CONTINUOUS
 62
     0
 10
0.0
 20
-12.5770835914
 30
0.0
 40
3.5
  1
reprodution or use is prohibted.
 41
0.65625
 11
0.0
 21
-13.5770835914
 31
0.0
 73
     1
  0
ENDBLK
  5
40
  8
0
  0
BLOCK
  8
0
  2
SW_NOTE_1
 70
     0
 10
0.0
 20
0.0
 30
0.0
  3
SW_NOTE_1
  1

  0
TEXT
  5
49
  8
2
  6
CONTINUOUS
 62
     0
 10
0.0
 20
1.0
 30
0.0
 40
3.5
  1
Vieler International GmbH+Co.KG
 41
0.6774193548
 11
0.0
 21
0.0
 31
0.0
 73
     1
  0
TEXT
  5
4A
  8
2
  6
CONTINUOUS
 62
     0
 10
22.5458340719
 20
-3.5256945305
 30
0.0
 40
3.5
  1
58642 Iserlohn
 41
0.7
 11
22.5458340719
 21
-4.5256945305
 31
0.0
 73
     1
  0
ENDBLK
  5
48
  8
0
  0
BLOCK
  8
0
  2
*D3
 70
     1
 10
0.0
 20
0.0
 30
0.0
  3
*D3
  1

  0
SOLID
  5
60
  8
6
  6
CONTINUOUS
 62
     6
 10
88.9390027622
 20
190.8462098815
 30
0.0
 11
93.9390027622
 21
190.2462098815
 31
0.0
 12
93.9390027622
 22
191.4462098815
 32
0.0
 13
93.9390027622
 23
191.4462098815
 33
0.0
  0
SOLID
  5
61
  8
6
  6
CONTINUOUS
 62
     6
 10
228.7064083728
 20
190.8462098815
 30
0.0
 11
223.7064083728
 21
191.4462098815
 31
0.0
 12
223.7064083728
 22
190.2462098815
 32
0.0
 13
223.7064083728
 23
190.2462098815
 33
0.0
  0
LINE
  5
62
  8
6
  6
CONTINUOUS
 62
     6
 10
88.9390027622
 20
222.6380574736
 30
0.0
 11
88.9390027622
 21
189.8462098815
 31
0.0
  0
LINE
  5
63
  8
6
  6
CONTINUOUS
 62
     6
 10
228.7064083728
 20
227.1761229
 30
0.0
 11
228.7064083728
 21
189.8462098815
 31
0.0
  0
LINE
  5
64
  8
6
  6
CONTINUOUS
 62
     6
 10
88.9390027622
 20
190.8462098815
 30
0.0
 11
228.7064083728
 21
190.8462098815
 31
0.0
  0
TEXT
  5
65
  8
6
  6
CONTINUOUS
 62
     6
 10
164.0490649547
 20
191.8462097069
 30
0.0
 40
3.5
  1
140
 41
0.7
 11
164.0490649547
 21
190.8462097069
 31
0.0
 73
     1
  0
ENDBLK
  5
5F
  8
0
  0
BLOCK
  8
0
  2
*D4
 70
     1
 10
0.0
 20
0.0
 30
0.0
  3
*D4
  1

  0
SOLID
  5
6A
  8
6
  6
CONTINUOUS
 62
     6
 10
240.5273251702
 20
232.5127321785
 30
0.0
 11
241.1273173696
 21
237.5127331146
 31
0.0
 12
239.9273173696
 22
237.5127312424
 32
0.0
 13
239.9273173696
 23
237.5127312424
 33
0.0
  0
SOLID
  5
6B
  8
6
  6
CONTINUOUS
 62
     6
 10
240.5273381706
 20
224.1797343618
 30
0.0
 11
239.9273459712
 21
219.1797334257
 31
0.0
 12
241.1273459712
 22
219.1797352978
 32
0.0
 13
241.1273459712
 23
219.1797352978
 33
0.0
  0
LINE
  5
6C
  8
6
  6
CONTINUOUS
 62
     6
 10
226.540826012
 20
232.5127103579
 30
0.0
 11
241.5273251702
 21
232.5127337386
 31
0.0
  0
LINE
  5
6D
  8
6
  6
CONTINUOUS
 62
     6
 10
226.5408390125
 20
224.1797125412
 30
0.0
 11
241.5273381706
 21
224.1797359219
 31
0.0
  0
LINE
  5
6E
  8
6
  6
CONTINUOUS
 62
     6
 10
240.5273251702
 20
232.5127321785
 30
0.0
 11
240.5273107393
 21
241.7626247133
 31
0.0
  0
LINE
  5
6F
  8
6
  6
CONTINUOUS
 62
     6
 10
240.5273251702
 20
232.5127321785
 30
0.0
 11
240.5273381706
 21
224.1797343618
 31
0.0
  0
LINE
  5
70
  8
6
  6
CONTINUOUS
 62
     6
 10
240.5273381706
 20
224.1797343618
 30
0.0
 11
240.5273537718
 21
214.1797343618
 31
0.0
  0
TEXT
  5
71
  8
6
  6
CONTINUOUS
 62
     6
 10
239.52731742
 20
237.5923333868
 30
0.0
 40
3.5
  1
8
 50
90.000089388
 41
0.7
 11
240.52731742
 21
237.5923349469
 31
0.0
 73
     1
  0
ENDBLK
  5
69
  8
0
  0
BLOCK
  8
0
  2
*D5
 70
     1
 10
0.0
 20
0.0
 30
0.0
  3
*D5
  1

  0
SOLID
  5
77
  8
6
  6
CONTINUOUS
 62
     6
 10
61.3890027622
 20
238.3462098815
 30
0.0
 11
61.9890027622
 21
243.3462098815
 31
0.0
 12
60.7890027622
 22
243.3462098815
 32
0.0
 13
60.7890027622
 23
243.3462098815
 33
0.0
  0
SOLID
  5
78
  8
6
  6
CONTINUOUS
 62
     6
 10
61.3890027622
 20
218.3462098815
 30
0.0
 11
60.7890027622
 21
213.3462098815
 31
0.0
 12
61.9890027622
 22
213.3462098815
 32
0.0
 13
61.9890027622
 23
213.3462098815
 33
0.0
  0
LINE
  5
79
  8
6
  6
CONTINUOUS
 62
     6
 10
97.8890027622
 20
238.3462098815
 30
0.0
 11
60.3890027622
 21
238.3462098815
 31
0.0
  0
LINE
  5
7A
  8
6
  6
CONTINUOUS
 62
     6
 10
97.8890027622
 20
218.3462098815
 30
0.0
 11
60.3890027622
 21
218.3462098815
 31
0.0
  0
LINE
  5
7B
  8
6
  6
CONTINUOUS
 62
     6
 10
61.3890027622
 20
238.3462098815
 30
0.0
 11
61.3890027622
 21
248.3462098815
 31
0.0
  0
LINE
  5
7C
  8
6
  6
CONTINUOUS
 62
     6
 10
61.3890027622
 20
238.3462098815
 30
0.0
 11
61.3890027622
 21
218.3462098815
 31
0.0
  0
LINE
  5
7D
  8
6
  6
CONTINUOUS
 62
     6
 10
61.3890027622
 20
218.3462098815
 30
0.0
 11
61.3890027622
 21
208.3462098815
 31
0.0
  0
TEXT
  5
7E
  8
6
  6
CONTINUOUS
 62
     6
 10
60.3890029368
 20
226.3717744287
 30
0.0
 40
3.5
  1
20
 50
90.0
 41
0.7
 11
61.3890029368
 21
226.3717744287
 31
0.0
 73
     1
  0
ENDBLK
  5
76
  8
0
  0
BLOCK
  8
0
  2
SW_CENTERMARKSYMBOL_0
 70
     0
 10
0.0
 20
0.0
 30
0.0
  3
SW_CENTERMARKSYMBOL_0
  1

  0
LINE
  5
82
  8
6
  6
CENTER
 62
     0
 10
0.0
 20
0.0
 30
0.0
 11
0.0
 21
2.5
 31
0.0
  0
LINE
  5
83
  8
6
  6
CENTER
 62
     0
 10
0.0
 20
0.0
 30
0.0
 11
-2.5
 21
0.0
 31
0.0
  0
LINE
  5
84
  8
6
  6
CENTER
 62
     0
 10
0.0
 20
0.0
 30
0.0
 11
0.0
 21
-2.5
 31
0.0
  0
LINE
  5
85
  8
6
  6
CENTER
 62
     0
 10
0.0
 20
0.0
 30
0.0
 11
2.5
 21
0.0
 31
0.0
  0
LINE
  5
86
  8
6
  6
CENTER
 62
     0
 10
0.0
 20
5.0
 30
0.0
 11
0.0
 21
30.1477797077
 31
0.0
  0
LINE
  5
87
  8
6
  6
CENTER
 62
     0
 10
-5.0
 20
0.0
 30
0.0
 11
-30.8981792092
 21
0.0
 31
0.0
  0
LINE
  5
88
  8
6
  6
CENTER
 62
     0
 10
0.0
 20
-5.0
 30
0.0
 11
0.0
 21
-29.5792350698
 31
0.0
  0
LINE
  5
89
  8
6
  6
CENTER
 62
     0
 10
5.0
 20
0.0
 30
0.0
 11
132.2651657056
 21
0.0
 31
0.0
  0
ENDBLK
  5
81
  8
0
  0
BLOCK
  8
0
  2
*D7
 70
     1
 10
0.0
 20
0.0
 30
0.0
  3
*D7
  1

  0
SOLID
  5
C4
  8
6
  6
CONTINUOUS
 62
     6
 10
79.8890027622
 20
171.8950674363
 30
0.0
 11
84.8890027622
 21
171.2950674363
 31
0.0
 12
84.8890027622
 22
172.4950674363
 32
0.0
 13
84.8890027622
 23
172.4950674363
 33
0.0
  0
SOLID
  5
C5
  8
6
  6
CONTINUOUS
 62
     6
 10
117.8890027622
 20
171.8950674363
 30
0.0
 11
112.8890027622
 21
172.4950674363
 31
0.0
 12
112.8890027622
 22
171.2950674363
 32
0.0
 13
112.8890027622
 23
171.2950674363
 33
0.0
  0
LINE
  5
C6
  8
6
  6
CONTINUOUS
 62
     6
 10
79.8890027622
 20
152.201503137
 30
0.0
 11
79.8890027622
 21
172.8950674363
 31
0.0
  0
LINE
  5
C7
  8
6
  6
CONTINUOUS
 62
     6
 10
117.8890027622
 20
152.201503137
 30
0.0
 11
117.8890027622
 21
172.8950674363
 31
0.0
  0
LINE
  5
C8
  8
6
  6
CONTINUOUS
 62
     6
 10
79.8890027622
 20
171.8950674363
 30
0.0
 11
117.8890027622
 21
171.8950674363
 31
0.0
  0
TEXT
  5
C9
  8
6
  6
CONTINUOUS
 62
     6
 10
95.8920255443
 20
172.8950672616
 30
0.0
 40
3.5
  1
38
 41
0.7
 11
95.8920255443
 21
171.8950672616
 31
0.0
 73
     1
  0
ENDBLK
  5
C3
  8
0
  0
BLOCK
  8
0
  2
*D8
 70
     1
 10
0.0
 20
0.0
 30
0.0
  3
*D8
  1

  0
SOLID
  5
CF
  8
6
  6
CONTINUOUS
 62
     6
 10
138.7887726803
 20
145.0950674363
 30
0.0
 11
139.3887726803
 21
150.0950674363
 31
0.0
 12
138.1887726803
 22
150.0950674363
 32
0.0
 13
138.1887726803
 23
150.0950674363
 33
0.0
  0
SOLID
  5
D0
  8
6
  6
CONTINUOUS
 62
     6
 10
138.7887726803
 20
134.5950674363
 30
0.0
 11
138.1887726803
 21
129.5950674363
 31
0.0
 12
139.3887726803
 22
129.5950674363
 32
0.0
 13
139.3887726803
 23
129.5950674363
 33
0.0
  0
LINE
  5
D1
  8
6
  6
CONTINUOUS
 62
     6
 10
127.3890027622
 20
145.0950674363
 30
0.0
 11
139.7887726803
 21
145.0950674363
 31
0.0
  0
LINE
  5
D2
  8
6
  6
CONTINUOUS
 62
     6
 10
126.8890027622
 20
134.5950674363
 30
0.0
 11
139.7887726803
 21
134.5950674363
 31
0.0
  0
LINE
  5
D3
  8
6
  6
CONTINUOUS
 62
     6
 10
138.7887726803
 20
145.0950674363
 30
0.0
 11
138.7887726803
 21
155.0950674363
 31
0.0
  0
LINE
  5
D4
  8
6
  6
CONTINUOUS
 62
     6
 10
138.7887726803
 20
145.0950674363
 30
0.0
 11
138.7887726803
 21
134.5950674363
 31
0.0
  0
LINE
  5
D5
  8
6
  6
CONTINUOUS
 62
     6
 10
138.7887726803
 20
134.5950674363
 30
0.0
 11
138.7887726803
 21
124.5950674363
 31
0.0
  0
TEXT
  5
D6
  8
6
  6
CONTINUOUS
 62
     6
 10
137.788772855
 20
137.6814333306
 30
0.0
 40
3.5
  1
10
 50
90.0
 41
0.7
 11
138.788772855
 21
137.6814333306
 31
0.0
 73
     1
  0
ENDBLK
  5
CE
  8
0
  0
BLOCK
  8
0
  2
*D9
 70
     1
 10
0.0
 20
0.0
 30
0.0
  3
*D9
  1

  0
SOLID
  5
DB
  8
6
  6
CONTINUOUS
 62
     6
 10
225.4168113292
 20
128.5796751069
 30
0.0
 11
222.8319674736
 21
132.9015476458
 31
0.0
 12
221.8828291591
 22
132.1672885227
 32
0.0
 13
221.8828291591
 23
132.1672885227
 33
0.0
  0
SOLID
  5
DC
  8
6
  6
CONTINUOUS
 62
     6
 10
238.8799789055
 20
111.17654346
 30
0.0
 11
241.4648227611
 21
106.8546709211
 31
0.0
 12
242.4139610757
 22
107.5889300442
 32
0.0
 13
242.4139610757
 23
107.5889300442
 33
0.0
  0
LINE
  5
DD
  8
6
  6
CONTINUOUS
 62
     6
 10
213.1415042394
 20
119.0834235269
 30
0.0
 11
226.2077599247
 21
129.1915577095
 31
0.0
  0
LINE
  5
DE
  8
6
  6
CONTINUOUS
 62
     6
 10
226.6046718157
 20
101.6802918799
 30
0.0
 11
239.670927501
 21
111.7884260625
 31
0.0
  0
LINE
  5
DF
  8
6
  6
CONTINUOUS
 62
     6
 10
225.4168113292
 20
128.5796751069
 30
0.0
 11
219.2979853035
 21
136.4891610616
 31
0.0
  0
LINE
  5
E0
  8
6
  6
CONTINUOUS
 62
     6
 10
225.4168113292
 20
128.5796751069
 30
0.0
 11
238.8799789055
 21
111.17654346
 31
0.0
  0
LINE
  5
E1
  8
6
  6
CONTINUOUS
 62
     6
 10
238.8799789055
 20
111.17654346
 30
0.0
 11
244.9988049313
 21
103.2670575053
 31
0.0
  0
TEXT
  5
E2
  8
6
  6
CONTINUOUS
 62
     6
 10
230.5681276142
 20
123.5551384685
 30
0.0
 40
3.5
  1
22
 50
307.7257522217
 41
0.7
 11
229.7771790187
 21
122.9432558659
 31
0.0
 73
     1
  0
ENDBLK
  5
DA
  8
0
  0
BLOCK
  8
0
  2
*D10
 70
     1
 10
0.0
 20
0.0
 30
0.0
  3
*D10
  1

  0
SOLID
  5
E7
  8
6
  6
CONTINUOUS
 62
     6
 10
84.0805052982
 20
162.0596465243
 30
0.0
 11
89.0805052982
 21
161.4596465243
 31
0.0
 12
89.0805052982
 22
162.6596465243
 32
0.0
 13
89.0805052982
 23
162.6596465243
 33
0.0
  0
SOLID
  5
E8
  8
6
  6
CONTINUOUS
 62
     6
 10
75.6390027622
 20
162.0596465243
 30
0.0
 11
70.6390027622
 21
162.6596465243
 31
0.0
 12
70.6390027622
 22
161.4596465243
 32
0.0
 13
70.6390027622
 23
161.4596465243
 33
0.0
  0
LINE
  5
E9
  8
6
  6
CONTINUOUS
 62
     6
 10
84.0805052982
 20
145.8950674363
 30
0.0
 11
84.0805052982
 21
163.0596465243
 31
0.0
  0
LINE
  5
EA
  8
6
  6
CONTINUOUS
 62
     6
 10
75.6390027622
 20
145.8950674363
 30
0.0
 11
75.6390027622
 21
163.0596465243
 31
0.0
  0
LINE
  5
EB
  8
6
  6
CONTINUOUS
 62
     6
 10
84.0805052982
 20
162.0596465243
 30
0.0
 11
97.9150418099
 21
162.0596465243
 31
0.0
  0
LINE
  5
EC
  8
6
  6
CONTINUOUS
 62
     6
 10
84.0805052982
 20
162.0596465243
 30
0.0
 11
75.6390027622
 21
162.0596465243
 31
0.0
  0
LINE
  5
ED
  8
6
  6
CONTINUOUS
 62
     6
 10
75.6390027622
 20
162.0596465243
 30
0.0
 11
65.6390027622
 21
162.0596465243
 31
0.0
  0
TEXT
  5
EE
  8
6
  6
CONTINUOUS
 62
     6
 10
88.469570731
 20
163.0596465243
 30
0.0
 40
3.5
  1
%%c
 50
0.0
 41
0.7
 11
88.469570731
 21
162.0596465243
 31
0.0
 73
     1
  0
TEXT
  5
EF
  8
6
  6
CONTINUOUS
 62
     6
 10
93.7447520435
 20
163.0596463497
 30
0.0
 40
3.5
  1
8
 50
0.0
 41
0.7
 11
93.7447520435
 21
162.0596463497
 31
0.0
 73
     1
  0
ENDBLK
  5
E6
  8
0
  0
BLOCK
  8
0
  2
*D11
 70
     1
 10
0.0
 20
0.0
 30
0.0
  3
*D11
  1

  0
SOLID
  5
F4
  8
6
  6
CONTINUOUS
 62
     6
 10
61.3890027622
 20
149.8950674363
 30
0.0
 11
61.9890027622
 21
154.8950674363
 31
0.0
 12
60.7890027622
 22
154.8950674363
 32
0.0
 13
60.7890027622
 23
154.8950674363
 33
0.0
  0
SOLID
  5
F5
  8
6
  6
CONTINUOUS
 62
     6
 10
61.3890027622
 20
145.0950674363
 30
0.0
 11
60.7890027622
 21
140.0950674363
 31
0.0
 12
61.9890027622
 22
140.0950674363
 32
0.0
 13
61.9890027622
 23
140.0950674363
 33
0.0
  0
LINE
  5
F6
  8
6
  6
CONTINUOUS
 62
     6
 10
76.3890027622
 20
149.8950674363
 30
0.0
 11
60.3890027622
 21
149.8950674363
 31
0.0
  0
LINE
  5
F7
  8
6
  6
CONTINUOUS
 62
     6
 10
70.3890027622
 20
145.0950674363
 30
0.0
 11
60.3890027622
 21
145.0950674363
 31
0.0
  0
LINE
  5
F8
  8
6
  6
CONTINUOUS
 62
     6
 10
61.3890027622
 20
149.8950674363
 30
0.0
 11
61.3890027622
 21
159.8950674363
 31
0.0
  0
LINE
  5
F9
  8
6
  6
CONTINUOUS
 62
     6
 10
61.3890027622
 20
149.8950674363
 30
0.0
 11
61.3890027622
 21
145.0950674363
 31
0.0
  0
LINE
  5
FA
  8
6
  6
CONTINUOUS
 62
     6
 10
61.3890027622
 20
145.0950674363
 30
0.0
 11
61.3890027622
 21
133.8036178572
 31
0.0
  0
TEXT
  5
FB
  8
6
  6
CONTINUOUS
 62
     6
 10
60.3890029368
 20
135.3911178572
 30
0.0
 40
3.5
  1
5
 50
90.0
 41
0.7
 11
61.3890029368
 21
135.3911178572
 31
0.0
 73
     1
  0
ENDBLK
  5
F3
  8
0
  0
BLOCK
  8
0
  2
*D12
 70
     1
 10
0.0
 20
0.0
 30
0.0
  3
*D12
  1

  0
SOLID
  5
100
  8
6
  6
CONTINUOUS
 62
     6
 10
108.8890027622
 20
112.7838708862
 30
0.0
 11
103.8890027622
 21
113.3838708862
 31
0.0
 12
103.8890027622
 22
112.1838708862
 32
0.0
 13
103.8890027622
 23
112.1838708862
 33
0.0
  0
SOLID
  5
101
  8
6
  6
CONTINUOUS
 62
     6
 10
88.8890027622
 20
112.7838708862
 30
0.0
 11
93.8890027622
 21
112.1838708862
 31
0.0
 12
93.8890027622
 22
113.3838708862
 32
0.0
 13
93.8890027622
 23
113.3838708862
 33
0.0
  0
LINE
  5
102
  8
6
  6
CONTINUOUS
 62
     6
 10
108.8890027622
 20
112.7838708862
 30
0.0
 11
88.8890027622
 21
112.7838708862
 31
0.0
  0
LINE
  5
103
  8
6
  6
CONTINUOUS
 62
     6
 10
88.8890027622
 20
112.7838708862
 30
0.0
 11
70.7988138133
 21
112.7838708862
 31
0.0
  0
TEXT
  5
104
  8
6
  6
CONTINUOUS
 62
     6
 10
72.3863138133
 20
113.7838708862
 30
0.0
 40
3.5
  1
%%c
 50
0.0
 41
0.7
 11
72.3863138133
 21
112.7838708862
 31
0.0
 73
     1
  0
TEXT
  5
105
  8
6
  6
CONTINUOUS
 62
     6
 10
77.6614951259
 20
113.7838707116
 30
0.0
 40
3.5
  1
20
 50
0.0
 41
0.7
 11
77.6614951259
 21
112.7838707116
 31
0.0
 73
     1
  0
ENDBLK
  5
FF
  8
0
  0
BLOCK
  8
0
  2
*D13
 70
     1
 10
0.0
 20
0.0
 30
0.0
  3
*D13
  1

  0
SOLID
  5
123
  8
6
  6
CONTINUOUS
 62
     6
 10
281.9482877141
 20
255.8462098815
 30
0.0
 11
281.3482877141
 21
250.8462098815
 31
0.0
 12
282.5482877141
 22
250.8462098815
 32
0.0
 13
282.5482877141
 23
250.8462098815
 33
0.0
  0
SOLID
  5
124
  8
6
  6
CONTINUOUS
 62
     6
 10
281.9482877141
 20
200.8462098815
 30
0.0
 11
282.5482877141
 21
205.8462098815
 31
0.0
 12
281.3482877141
 22
205.8462098815
 32
0.0
 13
281.3482877141
 23
205.8462098815
 33
0.0
  0
LINE
  5
125
  8
6
  6
CONTINUOUS
 62
     6
 10
297.4949481406
 20
255.8462098815
 30
0.0
 11
280.9482877141
 21
255.8462098815
 31
0.0
  0
LINE
  5
126
  8
6
  6
CONTINUOUS
 62
     6
 10
298.4949481406
 20
200.8462098815
 30
0.0
 11
280.9482877141
 21
200.8462098815
 31
0.0
  0
LINE
  5
127
  8
6
  6
CONTINUOUS
 62
     6
 10
281.9482877141
 20
255.8462098815
 30
0.0
 11
281.9482877141
 21
200.8462098815
 31
0.0
  0
TEXT
  5
128
  8
6
  6
CONTINUOUS
 62
     6
 10
280.9482877141
 20
223.6759696531
 30
0.0
 40
3.5
  1
%%c
 50
90.0
 41
0.7
 11
281.9482877141
 21
223.6759696531
 31
0.0
 73
     1
  0
TEXT
  5
129
  8
6
  6
CONTINUOUS
 62
     6
 10
280.9482878888
 20
228.9511509657
 30
0.0
 40
3.5
  1
55
 50
90.0
 41
0.7
 11
281.9482878888
 21
228.9511509657
 31
0.0
 73
     1
  0
ENDBLK
  5
122
  8
0
  0
BLOCK
  8
0
  2
*D14
 70
     1
 10
0.0
 20
0.0
 30
0.0
  3
*D14
  1

  0
SOLID
  5
12E
  8
6
  6
CONTINUOUS
 62
     6
 10
298.4949481406
 20
190.8462098815
 30
0.0
 11
303.4949481406
 21
190.2462098815
 31
0.0
 12
303.4949481406
 22
191.4462098815
 32
0.0
 13
303.4949481406
 23
191.4462098815
 33
0.0
  0
SOLID
  5
12F
  8
6
  6
CONTINUOUS
 62
     6
 10
377.7449481406
 20
190.8462098815
 30
0.0
 11
372.7449481406
 21
191.4462098815
 31
0.0
 12
372.7449481406
 22
190.2462098815
 32
0.0
 13
372.7449481406
 23
190.2462098815
 33
0.0
  0
LINE
  5
130
  8
6
  6
CONTINUOUS
 62
     6
 10
298.4949481406
 20
200.0103360159
 30
0.0
 11
298.4949481406
 21
189.8462098815
 31
0.0
  0
LINE
  5
131
  8
6
  6
CONTINUOUS
 62
     6
 10
377.7449481406
 20
217.9462098815
 30
0.0
 11
377.7449481406
 21
189.8462098815
 31
0.0
  0
LINE
  5
132
  8
6
  6
CONTINUOUS
 62
     6
 10
298.4949481406
 20
190.8462098815
 30
0.0
 11
377.7449481406
 21
190.8462098815
 31
0.0
  0
TEXT
  5
133
  8
6
  6
CONTINUOUS
 62
     6
 10
337.4007254153
 20
191.8462097069
 30
0.0
 40
3.5
  1
79
 50
360.0
 41
0.7
 11
337.4007254153
 21
190.8462097069
 31
0.0
 73
     1
  0
ENDBLK
  5
12D
  8
0
  0
ENDSEC
  0
SECTION
  2
ENTITIES
  0
LINE
  5
34
  8
6
  6
CONTINUOUS
 62
     6
 10
20.0
 20
287.0
 30
0.0
 11
20.0
 21
9.0
 31
0.0
  0
LINE
  5
35
  8
6
  6
CONTINUOUS
 62
     6
 10
20.0
 20
148.5
 30
0.0
 11
13.375265605
 21
148.5
 31
0.0
  0
LINE
  5
36
  8
6
  6
CONTINUOUS
 62
     6
 10
20.0
 20
287.0
 30
0.0
 11
414.5
 21
287.0
 31
0.0
  0
LINE
  5
37
  8
6
  6
CONTINUOUS
 62
     6
 10
20.0
 20
9.0
 30
0.0
 11
414.5
 21
9.0
 31
0.0
  0
LINE
  5
38
  8
6
  6
CONTINUOUS
 62
     6
 10
0.0
 20
297.0
 30
0.0
 11
420.0
 21
297.0
 31
0.0
  0
LINE
  5
39
  8
6
  6
CONTINUOUS
 62
     6
 10
420.0
 20
297.0
 30
0.0
 11
420.0
 21
0.0
 31
0.0
  0
LINE
  5
3A
  8
6
  6
CONTINUOUS
 62
     6
 10
420.0
 20
0.0
 30
0.0
 11
0.0
 21
0.0
 31
0.0
  0
LINE
  5
3B
  8
6
  6
CONTINUOUS
 62
     6
 10
0.0
 20
0.0
 30
0.0
 11
0.0
 21
297.0
 31
0.0
  0
LINE
  5
3C
  8
6
  6
CONTINUOUS
 62
     6
 10
414.5
 20
52.5
 30
0.0
 11
414.5
 21
287.0
 31
0.0
  0
LINE
  5
3D
  8
6
  6
CONTINUOUS
 62
     6
 10
414.5
 20
52.5
 30
0.0
 11
414.5
 21
9.0
 31
0.0
  0
INSERT
  5
44
  8
2
  6
CONTINUOUS
 62
     1
  2
SW_NOTE_0
 10
25.131147541
 20
27.4759448138
 30
0.0
  0
TEXT
  5
45
  8
2
  6
CONTINUOUS
 62
     1
 10
312.7010196007
 20
39.8322418184
 30
0.0
 40
10.0
  1
Modell 
 41
0.7
 11
312.7010196007
 21
36.9750989613
 31
0.0
 73
     1
  0
INSERT
  5
4B
  8
2
  6
CONTINUOUS
 62
     1
  2
SW_NOTE_1
 10
309.7662955082
 20
27.4759448138
 30
0.0
  0
TEXT
  5
4C
  8
2
  6
CONTINUOUS
 62
     1
 10
300.4572681642
 20
14.8988612224
 30
0.0
 40
3.5
  1
Datum/Date 01/2008    Maßstab/Scale 1:1
 41
0.6461538462
 11
300.4572681642
 21
13.8988612224
 31
0.0
 73
     1
  0
LINE
  5
4D
  8
6
  6
CONTINUOUS
 62
     6
 10
88.9390027622
 20
228.3462098815
 30
0.0
 11
88.9390027622
 21
223.6380574736
 31
0.0
  0
POLYLINE
  5
4E
  8
0
  6
CONTINUOUS
 66
     1
 10
0.0
 20
0.0
 30
0.0
  0
VERTEX
  5
137
  8
0
  6
CONTINUOUS
 10
225.5411839107
 20
224.1797064447
 30
0.0
  0
VERTEX
  5
138
  8
0
  6
CONTINUOUS
 10
217.4767127255
 20
223.7657121398
 30
0.0
  0
VERTEX
  5
139
  8
0
  6
CONTINUOUS
 10
209.2164030293
 20
223.351717835
 30
0.0
  0
VERTEX
  5
13A
  8
0
  6
CONTINUOUS
 10
200.7737776259
 20
222.9377235302
 30
0.0
  0
VERTEX
  5
13B
  8
0
  6
CONTINUOUS
 10
192.1623667697
 20
222.523729691
 30
0.0
  0
VERTEX
  5
13C
  8
0
  6
CONTINUOUS
 10
183.3957007149
 20
222.1097353862
 30
0.0
  0
VERTEX
  5
13D
  8
0
  6
CONTINUOUS
 10
174.4873022655
 20
221.6957410813
 30
0.0
  0
VERTEX
  5
13E
  8
0
  6
CONTINUOUS
 10
165.4507165769
 20
221.2817467765
 30
0.0
  0
VERTEX
  5
13F
  8
0
  6
CONTINUOUS
 10
157.5271433214
 20
220.9230134279
 30
0.0
  0
VERTEX
  5
140
  8
0
  6
CONTINUOUS
 10
149.5262702922
 20
220.5642796137
 30
0.0
  0
VERTEX
  5
141
  8
0
  6
CONTINUOUS
 10
141.4569078008
 20
220.2055462652
 30
0.0
  0
VERTEX
  5
142
  8
0
  6
CONTINUOUS
 10
133.3278624335
 20
219.8468129166
 30
0.0
  0
VERTEX
  5
143
  8
0
  6
CONTINUOUS
 10
125.1479296008
 20
219.4880795681
 30
0.0
  0
VERTEX
  5
144
  8
0
  6
CONTINUOUS
 10
116.9259196142
 20
219.1293452882
 30
0.0
  0
VERTEX
  5
145
  8
0
  6
CONTINUOUS
 10
108.6708625773
 20
218.7706119397
 30
0.0
  0
VERTEX
  5
146
  8
0
  6
CONTINUOUS
 10
100.4026038101
 20
218.4118785911
 30
0.0
  0
SEQEND
  5
136
  8
0
  6
CONTINUOUS
  0
POLYLINE
  5
4F
  8
0
  6
CONTINUOUS
 66
     1
 10
0.0
 20
0.0
 30
0.0
  0
VERTEX
  5
148
  8
0
  6
CONTINUOUS
 10
100.4275165726
 20
238.2794599065
 30
0.0
  0
VERTEX
  5
149
  8
0
  6
CONTINUOUS
 10
108.7346674869
 20
237.9190380701
 30
0.0
  0
VERTEX
  5
14A
  8
0
  6
CONTINUOUS
 10
117.0282961795
 20
237.558617165
 30
0.0
  0
VERTEX
  5
14B
  8
0
  6
CONTINUOUS
 10
125.2884345124
 20
237.1981953286
 30
0.0
  0
VERTEX
  5
14C
  8
0
  6
CONTINUOUS
 10
133.505946211
 20
236.8377734923
 30
0.0
  0
VERTEX
  5
14D
  8
0
  6
CONTINUOUS
 10
141.6718980292
 20
236.4773516559
 30
0.0
  0
VERTEX
  5
14E
  8
0
  6
CONTINUOUS
 10
149.7773623088
 20
236.1169302852
 30
0.0
  0
VERTEX
  5
14F
  8
0
  6
CONTINUOUS
 10
157.8134169797
 20
235.7565084488
 30
0.0
  0
VERTEX
  5
150
  8
0
  6
CONTINUOUS
 10
165.7711287955
 20
235.3960866124
 30
0.0
  0
VERTEX
  5
151
  8
0
  6
CONTINUOUS
 10
174.7582724312
 20
234.9841761419
 30
0.0
  0
VERTEX
  5
152
  8
0
  6
CONTINUOUS
 10
183.6181079963
 20
234.5722656713
 30
0.0
  0
VERTEX
  5
153
  8
0
  6
CONTINUOUS
 10
192.3372989515
 20
234.1603552007
 30
0.0
  0
VERTEX
  5
154
  8
0
  6
CONTINUOUS
 10
200.9025311092
 20
233.7484447301
 30
0.0
  0
VERTEX
  5
155
  8
0
  6
CONTINUOUS
 10
209.3004679302
 20
233.3365342596
 30
0.0
  0
VERTEX
  5
156
  8
0
  6
CONTINUOUS
 10
217.5177877763
 20
232.924623789
 30
0.0
  0
VERTEX
  5
157
  8
0
  6
CONTINUOUS
 10
225.5411541084
 20
232.5127133184
 30
0.0
  0
SEQEND
  5
147
  8
0
  6
CONTINUOUS
  0
LINE
  5
50
  8
0
  6
CONTINUOUS
 10
99.7552263545
 20
218.3837973528
 30
0.0
 11
100.4025989207
 21
218.4118785911
 31
0.0
  0
ARC
  5
51
  8
0
  6
CONTINUOUS
 10
98.8889886701
 20
228.3466832852
 30
0.0
 40
10.00047318018984
 50
270.0000807379
 51
274.9691686798
  0
ARC
  5
52
  8
0
  6
CONTINUOUS
 10
98.8889886701
 20
228.3457364778
 30
0.0
 40
10.0004731801895
 50
85.0308313202
 51
89.9999192621
  0
LINE
  5
53
  8
0
  6
CONTINUOUS
 10
99.7552263545
 20
238.3086224102
 30
0.0
 11
100.4275165726
 21
238.2794599065
 31
0.0
  0
ARC
  5
54
  8
0
  6
CONTINUOUS
 10
98.8890027622
 20
228.3462098815
 30
0.0
 40
10.0
 50
90.0
 51
270.0
  0
ARC
  5
55
  8
0
  6
CONTINUOUS
 10
224.9860352415
 20
227.8711576673
 30
0.0
 40
3.732842282653967
 50
278.5407346672
 51
4.6861654254
  0
ARC
  5
56
  8
0
  6
CONTINUOUS
 10
224.9793445435
 20
228.8159616707
 30
0.0
 40
3.739082125259904
 50
355.403160159
 51
81.3699397484
  0
LINE
  5
57
  8
0
  6
CONTINUOUS
 10
228.7063991645
 20
228.5162968722
 30
0.0
 11
228.7063991645
 21
228.1761228908
 31
0.0
  0
ARC
  5
58
  8
0
  6
CONTINUOUS
 10
98.8890027622
 20
228.3462098815
 30
0.0
 40
10.5
 50
70.6734494881
 51
290.166565772
  0
ARC
  5
59
  8
0
  6
CONTINUOUS
 10
98.8890027622
 20
228.3462098815
 30
0.0
 40
27.5
 50
18.8628638706
 51
180.0
  0
ARC
  5
5A
  8
0
  6
CONTINUOUS
 10
98.8890027622
 20
228.3462098815
 30
0.0
 40
27.5
 50
180.0
 51
341.1351207445
  0
DIMENSION
  5
5B
  8
6
  6
CONTINUOUS
 62
     6
  2
*D3
 10
228.7064083728
 20
190.8462098815
 30
0.0
 11
167.9280148991
 21
190.8462098815
 31
0.0
 70
   160
  3
SLDDIMSTYLE0
 13
88.9390027622
 23
223.6380574736
 33
0.0
 14
228.7064083728
 24
228.1761229
 34
0.0
  0
DIMENSION
  5
66
  8
6
  6
CONTINUOUS
 62
     6
  2
*D4
 10
240.5273381706
 20
224.1797343618
 30
0.0
 11
240.5273152307
 21
238.8837298301
 31
0.0
 70
   160
  3
SLDDIMSTYLE0
 13
225.540826012
 23
232.5127087978
 33
0.0
 14
225.5408390125
 24
224.1797109811
 34
0.0
 50
-89.999910612
  0
DIMENSION
  5
72
  8
6
  6
CONTINUOUS
 62
     6
  2
*D5
 10
61.3890027622
 20
218.3462098815
 30
0.0
 11
61.3890027622
 21
228.9569468425
 31
0.0
 70
   160
  3
SLDDIMSTYLE1
 13
98.8890027622
 23
238.3462098815
 33
0.0
 14
98.8890027622
 24
218.3462098815
 34
0.0
 50
90.0
  0
INSERT
  5
8A
  8
6
  6
CENTER
 62
     6
  2
SW_CENTERMARKSYMBOL_0
 10
98.8890027622
 20
228.3462098815
 30
0.0
  0
LINE
  5
8B
  8
6
  6
CENTER
 62
     6
 10
79.8890027622
 20
151.201503137
 30
0.0
 11
79.8890027622
 21
134.5950674363
 31
0.0
  0
LINE
  5
8C
  8
6
  6
CENTER
 62
     6
 10
117.8890027622
 20
151.201503137
 30
0.0
 11
117.8890027622
 21
134.5950674363
 31
0.0
  0
LINE
  5
8D
  8
0
  6
CONTINUOUS
 10
108.8890025387
 20
89.8543384023
 30
0.0
 11
108.8890025387
 21
98.8450657673
 31
0.0
  0
LINE
  5
8E
  8
0
  6
CONTINUOUS
 10
88.8890029857
 20
98.8450657673
 30
0.0
 11
88.8890029857
 21
66.4450686522
 31
0.0
  0
LINE
  5
8F
  8
0
  6
CONTINUOUS
 10
88.8890029857
 20
66.4450686522
 30
0.0
 11
89.4890028978
 21
65.8450659461
 31
0.0
  0
LINE
  5
90
  8
0
  6
CONTINUOUS
 10
108.8890025387
 20
65.8450659461
 30
0.0
 11
108.8890025387
 21
65.8457141467
 31
0.0
  0
ARC
  5
91
  8
0
  6
CONTINUOUS
 10
108.8641334883
 20
277.6987085667
 30
0.0
 40
211.8459760039391
 50
270.0009772991
 51
304.4157962582
  0
ARC
  5
92
  8
0
  6
CONTINUOUS
 10
110.8865476889
 20
89.8527764325
 30
0.0
 40
1.996605311884463
 50
179.7866969123
 51
266.7312995117
  0
ARC
  5
93
  8
0
  6
CONTINUOUS
 10
132.6096583723
 20
241.78800418
 30
0.0
 40
146.8414699825198
 50
302.666304252
 51
304.1816208432
  0
LINE
  5
94
  8
0
  6
CONTINUOUS
 10
112.816745601
 20
87.8886144705
 30
0.0
 11
110.9002448613
 21
87.8764104195
 31
0.0
  0
LINE
  5
95
  8
0
  6
CONTINUOUS
 10
215.8215885976
 20
120.1849488638
 30
0.0
 11
215.1096632699
 21
120.3104557566
 31
0.0
  0
LINE
  5
96
  8
0
  6
CONTINUOUS
 10
228.5996621469
 20
102.927361811
 30
0.0
 11
228.7071591238
 21
103.6868516453
 31
0.0
  0
LINE
  5
97
  8
0
  6
CONTINUOUS
 10
215.8167531708
 20
120.1857963674
 30
0.0
 11
215.1096558193
 21
120.3104529627
 31
0.0
  0
LINE
  5
98
  8
0
  6
CONTINUOUS
 10
88.8890029857
 20
134.5950674363
 30
0.0
 11
88.8890029857
 21
98.8450657673
 31
0.0
  0
LINE
  5
99
  8
0
  6
CONTINUOUS
 10
108.8890025387
 20
98.8450657673
 30
0.0
 11
108.8890025387
 21
134.5950674363
 31
0.0
  0
LINE
  5
9A
  8
0
  6
CONTINUOUS
 10
71.3890029112
 20
145.0950672947
 30
0.0
 11
71.3890029112
 21
135.09506746
 31
0.0
  0
LINE
  5
9B
  8
0
  6
CONTINUOUS
 10
126.3890026132
 20
135.09506746
 30
0.0
 11
126.3890026132
 21
145.0950672947
 31
0.0
  0
LINE
  5
9C
  8
0
  6
CONTINUOUS
 10
71.3890029112
 20
135.09506746
 30
0.0
 11
71.8890020618
 21
134.5950674363
 31
0.0
  0
LINE
  5
9D
  8
0
  6
CONTINUOUS
 10
125.8890034625
 20
134.5950674363
 30
0.0
 11
126.3890026132
 21
135.09506746
 31
0.0
  0
LINE
  5
9E
  8
0
  6
CONTINUOUS
 10
122.1285203466
 20
145.0950672947
 30
0.0
 11
121.9031309703
 21
149.3957528941
 31
0.0
  0
LINE
  5
9F
  8
0
  6
CONTINUOUS
 10
75.874874554
 20
149.3957528941
 30
0.0
 11
75.6494851777
 21
145.0950672947
 31
0.0
  0
LINE
  5
A0
  8
0
  6
CONTINUOUS
 10
121.9031309703
 20
149.3957528941
 30
0.0
 11
121.3485861192
 21
149.8950675227
 31
0.0
  0
LINE
  5
A1
  8
0
  6
CONTINUOUS
 10
76.4294194052
 20
149.8950675227
 30
0.0
 11
75.874874554
 21
149.3957528941
 31
0.0
  0
ARC
  5
A2
  8
0
  6
CONTINUOUS
 10
109.2716854489
 20
276.3551149701
 30
0.0
 40
188.5540644706635
 50
269.212290987
 51
303.1396768345
  0
LINE
  5
A3
  8
0
  6
CONTINUOUS
 10
100.4615789972
 20
66.3206439562
 30
0.0
 11
100.4275165726
 21
66.3783189006
 31
0.0
  0
LINE
  5
A4
  8
0
  6
CONTINUOUS
 10
102.3007472506
 20
65.8450659461
 30
0.0
 11
98.8890027622
 21
65.8450659461
 31
0.0
  0
LINE
  5
A5
  8
0
  6
CONTINUOUS
 10
89.4890028978
 20
65.8450659461
 30
0.0
 11
98.8890027622
 21
65.8450659461
 31
0.0
  0
LINE
  5
A6
  8
0
  6
CONTINUOUS
 10
108.8890025387
 20
65.8450659461
 30
0.0
 11
102.3007472506
 21
65.8450659461
 31
0.0
  0
POLYLINE
  5
A7
  8
0
  6
CONTINUOUS
 66
     1
 10
0.0
 20
0.0
 30
0.0
  0
VERTEX
  5
159
  8
0
  6
CONTINUOUS
 10
108.867854997
 20
65.8457141467
 30
0.0
  0
VERTEX
  5
15A
  8
0
  6
CONTINUOUS
 10
108.8840618724
 20
65.8456619926
 30
0.0
  0
VERTEX
  5
15B
  8
0
  6
CONTINUOUS
 10
108.6845939973
 20
65.8461909838
 30
0.0
  0
VERTEX
  5
15C
  8
0
  6
CONTINUOUS
 10
108.2165885711
 20
65.8471074052
 30
0.0
  0
VERTEX
  5
15D
  8
0
  6
CONTINUOUS
 10
107.46657215
 20
65.8483591028
 30
0.0
  0
VERTEX
  5
15E
  8
0
  6
CONTINUOUS
 10
106.4975058654
 20
65.8498790212
 30
0.0
  0
VERTEX
  5
15F
  8
0
  6
CONTINUOUS
 10
105.2814933466
 20
65.851480896
 30
0.0
  0
VERTEX
  5
160
  8
0
  6
CONTINUOUS
 10
103.9703369135
 20
65.8524643727
 30
0.0
  0
VERTEX
  5
161
  8
0
  6
CONTINUOUS
 10
102.4881663727
 20
65.8522557564
 30
0.0
  0
SEQEND
  5
158
  8
0
  6
CONTINUOUS
  0
ARC
  5
A8
  8
0
  6
CONTINUOUS
 10
119.4133627897
 20
263.105290236
 30
0.0
 40
193.8478454430775
 50
303.2906196208
 51
304.2814409151
  0
POLYLINE
  5
A9
  8
0
  6
CONTINUOUS
 66
     1
 10
0.0
 20
0.0
 30
0.0
  0
VERTEX
  5
163
  8
0
  6
CONTINUOUS
 10
228.5997962574
 20
102.9325399645
 30
0.0
  0
VERTEX
  5
164
  8
0
  6
CONTINUOUS
 10
228.5997962574
 20
102.9325399645
 30
0.0
  0
SEQEND
  5
162
  8
0
  6
CONTINUOUS
  0
ARC
  5
AA
  8
0
  6
CONTINUOUS
 10
173.2722459087
 20
183.667587147
 30
0.0
 40
97.87382526056224
 50
303.7275196945
 51
304.4227552252
  0
LINE
  5
AB
  8
0
  6
CONTINUOUS
 10
102.4881638115
 20
65.8544685789
 30
0.0
 11
108.8670587162
 21
65.8894788571
 31
0.0
  0
LINE
  5
AC
  8
0
  6
CONTINUOUS
 10
106.9972256193
 20
87.8224793919
 30
0.0
 11
106.6795151675
 21
87.8216225751
 31
0.0
  0
POLYLINE
  5
AD
  8
0
  6
CONTINUOUS
 66
     1
 10
0.0
 20
0.0
 30
0.0
  0
VERTEX
  5
166
  8
0
  6
CONTINUOUS
 10
215.1090672234
 20
120.3099910267
 30
0.0
  0
VERTEX
  5
167
  8
0
  6
CONTINUOUS
 10
215.1090672234
 20
120.3099910267
 30
0.0
  0
SEQEND
  5
165
  8
0
  6
CONTINUOUS
  0
ARC
  5
AE
  8
0
  6
CONTINUOUS
 10
51.7922611177
 20
362.437399998
 30
0.0
 40
292.0583183744563
 50
303.3496297504
 51
303.9999685444
  0
LINE
  5
AF
  8
0
  6
CONTINUOUS
 10
215.8160528163
 20
120.1852673762
 30
0.0
 11
215.1090672234
 21
120.3099910267
 31
0.0
  0
POLYLINE
  5
B0
  8
0
  6
CONTINUOUS
 66
     1
 10
0.0
 20
0.0
 30
0.0
  0
VERTEX
  5
169
  8
0
  6
CONTINUOUS
 10
215.8160453657
 20
120.1852738954
 30
0.0
  0
VERTEX
  5
16A
  8
0
  6
CONTINUOUS
 10
218.8312506298
 20
116.3259923555
 30
0.0
  0
VERTEX
  5
16B
  8
0
  6
CONTINUOUS
 10
222.2799828271
 20
111.9118157871
 30
0.0
  0
VERTEX
  5
16C
  8
0
  6
CONTINUOUS
 10
227.4530773977
 20
105.2905518659
 30
0.0
  0
VERTEX
  5
16D
  8
0
  6
CONTINUOUS
 10
228.7063991645
 20
103.6863710828
 30
0.0
  0
SEQEND
  5
168
  8
0
  6
CONTINUOUS
  0
LINE
  5
B1
  8
0
  6
CONTINUOUS
 10
228.7063991645
 20
103.6863710828
 30
0.0
 11
228.5997962574
 21
102.9325399645
 31
0.0
  0
POLYLINE
  5
B2
  8
0
  6
CONTINUOUS
 66
     1
 10
0.0
 20
0.0
 30
0.0
  0
VERTEX
  5
16F
  8
0
  6
CONTINUOUS
 10
215.8160528163
 20
120.1852673762
 30
0.0
  0
VERTEX
  5
170
  8
0
  6
CONTINUOUS
 10
215.8160528163
 20
120.1852673762
 30
0.0
  0
SEQEND
  5
16E
  8
0
  6
CONTINUOUS
  0
POLYLINE
  5
B3
  8
0
  6
CONTINUOUS
 66
     1
 10
0.0
 20
0.0
 30
0.0
  0
VERTEX
  5
172
  8
0
  6
CONTINUOUS
 10
228.7063991645
 20
103.6863710828
 30
0.0
  0
VERTEX
  5
173
  8
0
  6
CONTINUOUS
 10
228.7063991645
 20
103.6863710828
 30
0.0
  0
SEQEND
  5
171
  8
0
  6
CONTINUOUS
  0
LINE
  5
B4
  8
0
  6
CONTINUOUS
 10
71.3890029112
 20
145.0950672947
 30
0.0
 11
126.3890026132
 21
145.0950672947
 31
0.0
  0
LINE
  5
B5
  8
0
  6
CONTINUOUS
 10
125.8890034625
 20
134.5950674363
 30
0.0
 11
71.8890020618
 21
134.5950674363
 31
0.0
  0
ARC
  5
B6
  8
0
  6
CONTINUOUS
 10
103.7410042578
 20
148.7258225495
 30
0.0
 40
10.66972758325345
 50
340.1057212457
 51
358.0328444823
  0
LINE
  5
B7
  8
0
  6
CONTINUOUS
 10
114.4044438372
 20
148.3595671229
 30
0.0
 11
114.4680038089
 21
149.3957528941
 31
0.0
  0
ARC
  5
B8
  8
0
  6
CONTINUOUS
 10
93.8432562007
 20
148.688444696
 30
0.0
 40
10.47485864651887
 50
181.7992027159
 51
200.0626727814
  0
LINE
  5
B9
  8
0
  6
CONTINUOUS
 10
83.3735616872
 20
148.3595671229
 30
0.0
 11
83.3100017155
 21
149.3957528941
 31
0.0
  0
LINE
  5
BA
  8
0
  6
CONTINUOUS
 10
115.1396894822
 20
149.8950675227
 30
0.0
 11
121.3485861192
 21
149.8950675227
 31
0.0
  0
LINE
  5
BB
  8
0
  6
CONTINUOUS
 10
114.4680038089
 20
149.3957528941
 30
0.0
 11
115.1396894822
 21
149.8950675227
 31
0.0
  0
LINE
  5
BC
  8
0
  6
CONTINUOUS
 10
76.4294194052
 20
149.8950675227
 30
0.0
 11
82.6383160422
 21
149.8950675227
 31
0.0
  0
LINE
  5
BD
  8
0
  6
CONTINUOUS
 10
82.6383160422
 20
149.8950675227
 30
0.0
 11
83.3100017155
 21
149.3957528941
 31
0.0
  0
LINE
  5
BE
  8
0
  6
CONTINUOUS
 10
81.2454691151
 20
149.8950675227
 30
0.0
 11
82.6383160422
 21
149.8950675227
 31
0.0
  0
LINE
  5
BF
  8
0
  6
CONTINUOUS
 10
116.5325364092
 20
149.8950675227
 30
0.0
 11
115.1396894822
 21
149.8950675227
 31
0.0
  0
DIMENSION
  5
C0
  8
6
  6
CONTINUOUS
 62
     6
  2
*D7
 10
117.8890027622
 20
171.8950674363
 30
0.0
 11
98.4771979581
 21
171.8950674363
 31
0.0
 70
   160
  3
SLDDIMSTYLE1
 13
79.8890027622
 23
151.201503137
 33
0.0
 14
117.8890027622
 24
151.201503137
 34
0.0
  0
DIMENSION
  5
CA
  8
6
  6
CONTINUOUS
 62
     6
  2
*D8
 10
138.7887726803
 20
134.5950674363
 30
0.0
 11
138.7887726803
 21
140.2666057444
 31
0.0
 70
   160
  1
10
  3
SLDDIMSTYLE2
 13
126.3890027622
 23
145.0950674363
 33
0.0
 14
125.8890027622
 24
134.5950674363
 34
0.0
 50
90.0
  0
DIMENSION
  5
D7
  8
6
  6
CONTINUOUS
 62
     6
  2
*D9
 10
238.8799789055
 20
111.17654346
 30
0.0
 11
231.3590011815
 21
120.898517483
 31
0.0
 70
   160
  3
SLDDIMSTYLE1
 13
212.3505556439
 23
118.4715409243
 33
0.0
 14
225.8137232203
 24
101.0684092773
 34
0.0
 50
-52.2742477783
  0
DIMENSION
  5
E3
  8
6
  6
CONTINUOUS
 62
     6
  2
*D10
 10
75.6390027622
 20
162.0596465243
 30
0.0
 11
92.3985562704
 21
162.0596465243
 31
0.0
 70
   160
  1
%%c<>
  3
SLDDIMSTYLE0
 13
84.0805052982
 23
144.8950674363
 33
0.0
 14
75.6390027622
 24
144.8950674363
 34
0.0
  0
DIMENSION
  5
F0
  8
6
  6
CONTINUOUS
 62
     6
  2
*D11
 10
61.3890027622
 20
145.0950674363
 30
0.0
 11
61.3890027622
 21
136.6825127405
 31
0.0
 70
   160
  3
SLDDIMSTYLE0
 13
77.3890027622
 23
149.8950674363
 33
0.0
 14
71.3890027622
 24
145.0950674363
 34
0.0
 50
90.0
  0
DIMENSION
  5
FC
  8
6
  6
CONTINUOUS
 62
     6
  2
*D12
 10
88.8890027622
 20
112.7838708862
 30
0.0
 11
77.6090768834
 21
112.7838708862
 31
0.0
 70
   160
  1
%%c<>
  3
SLDDIMSTYLE1
 13
108.8890027622
 23
98.8450674363
 33
0.0
 14
88.8890027622
 24
98.8450674363
 34
0.0
  0
LINE
  5
106
  8
6
  6
CENTER
 62
     6
 10
98.8890027622
 20
147.17685909
 30
0.0
 11
98.8890027622
 21
62.113285212
 31
0.0
  0
LINE
  5
107
  8
0
  6
CONTINUOUS
 10
377.1449469246
 20
238.346209658
 30
0.0
 11
344.7449498095
 21
238.346209658
 31
0.0
  0
LINE
  5
108
  8
0
  6
CONTINUOUS
 10
344.7449498095
 20
218.3462101051
 30
0.0
 11
377.1449469246
 21
218.3462101051
 31
0.0
  0
LINE
  5
109
  8
0
  6
CONTINUOUS
 10
308.9949481406
 20
218.3462101051
 30
0.0
 11
344.7449498095
 21
218.3462101051
 31
0.0
  0
LINE
  5
10A
  8
0
  6
CONTINUOUS
 10
344.7449498095
 20
238.346209658
 30
0.0
 11
308.9949481406
 21
238.346209658
 31
0.0
  0
LINE
  5
10B
  8
0
  6
CONTINUOUS
 10
299.494948446
 20
200.8462100305
 30
0.0
 11
308.4949481168
 21
200.8462100305
 31
0.0
  0
LINE
  5
10C
  8
0
  6
CONTINUOUS
 10
308.4949481168
 20
255.8462097325
 30
0.0
 11
298.4949482821
 21
255.8462097325
 31
0.0
  0
LINE
  5
10D
  8
0
  6
CONTINUOUS
 10
308.4949481168
 20
200.8462100305
 30
0.0
 11
308.9949481406
 21
201.3462091812
 31
0.0
  0
LINE
  5
10E
  8
0
  6
CONTINUOUS
 10
308.9949481406
 20
255.3462105819
 30
0.0
 11
308.4949481168
 21
255.8462097325
 31
0.0
  0
LINE
  5
10F
  8
0
  6
CONTINUOUS
 10
298.4949482821
 20
232.5857285426
 30
0.0
 11
294.1942626827
 21
232.3603391663
 31
0.0
  0
LINE
  5
110
  8
0
  6
CONTINUOUS
 10
294.1942626827
 20
224.3320805968
 30
0.0
 11
298.4949482821
 21
224.1066912205
 31
0.0
  0
LINE
  5
111
  8
0
  6
CONTINUOUS
 10
294.1942626827
 20
232.3603391663
 30
0.0
 11
293.6949480541
 21
231.8057938495
 31
0.0
  0
LINE
  5
112
  8
0
  6
CONTINUOUS
 10
293.6949480541
 20
224.8866259136
 30
0.0
 11
294.1942626827
 21
224.3320805968
 31
0.0
  0
LINE
  5
113
  8
0
  6
CONTINUOUS
 10
377.7449496307
 20
237.7462097459
 30
0.0
 11
377.1449469246
 21
238.346209658
 31
0.0
  0
LINE
  5
114
  8
0
  6
CONTINUOUS
 10
377.7449496307
 20
218.9462100171
 30
0.0
 11
377.7449496307
 21
237.7462097459
 31
0.0
  0
LINE
  5
115
  8
0
  6
CONTINUOUS
 10
377.7449496307
 20
218.9462100171
 30
0.0
 11
377.1449469246
 21
218.3462101051
 31
0.0
  0
LINE
  5
116
  8
0
  6
CONTINUOUS
 10
299.494948446
 20
200.8462100305
 30
0.0
 11
299.494948446
 21
201.0103351452
 31
0.0
  0
LINE
  5
117
  8
0
  6
CONTINUOUS
 10
299.494948446
 20
201.0103351452
 30
0.0
 11
298.4949482821
 21
201.0103351452
 31
0.0
  0
LINE
  5
118
  8
0
  6
CONTINUOUS
 10
298.4949482821
 20
201.0103351452
 30
0.0
 11
298.4949482821
 21
255.8462097325
 31
0.0
  0
LINE
  5
119
  8
0
  6
CONTINUOUS
 10
308.9949481406
 20
228.3462098815
 30
0.0
 11
308.9949481406
 21
201.3462091812
 31
0.0
  0
LINE
  5
11A
  8
0
  6
CONTINUOUS
 10
308.9949481406
 20
255.3462105819
 30
0.0
 11
308.9949481406
 21
228.3462098815
 31
0.0
  0
LINE
  5
11B
  8
0
  6
CONTINUOUS
 10
298.4949482821
 20
201.0103351452
 30
0.0
 11
298.4949482821
 21
202.2178730943
 31
0.0
  0
LINE
  5
11C
  8
0
  6
CONTINUOUS
 10
293.6949480541
 20
224.8866259136
 30
0.0
 11
293.6949480541
 21
231.8057938495
 31
0.0
  0
LINE
  5
11D
  8
0
  6
CONTINUOUS
 10
293.6949480541
 20
226.2462099564
 30
0.0
 11
293.6949480541
 21
225.8462099374
 31
0.0
  0
LINE
  5
11E
  8
0
  6
CONTINUOUS
 10
293.6949480541
 20
230.8462098257
 30
0.0
 11
293.6949480541
 21
230.4462098067
 31
0.0
  0
DIMENSION
  5
11F
  8
6
  6
CONTINUOUS
 62
     6
  2
*D13
 10
281.9482877141
 20
200.8462098815
 30
0.0
 11
281.9482877141
 21
228.8987327232
 31
0.0
 70
   160
  1
%%c<>
  3
SLDDIMSTYLE1
 13
298.4949481406
 23
255.8462098815
 33
0.0
 14
299.4949481406
 24
200.8462098815
 34
0.0
 50
90.0
  0
DIMENSION
  5
12A
  8
6
  6
CONTINUOUS
 62
     6
  2
*D14
 10
377.7449481406
 20
190.8462098815
 30
0.0
 11
339.985897829
 21
190.8462098815
 31
0.0
 70
   160
  3
SLDDIMSTYLE0
 13
298.4949481406
 23
201.0103360159
 33
0.0
 14
377.7449481406
 24
218.9462098815
 34
0.0
  0
TEXT
  5
134
  8
2
  6
CONTINUOUS
 62
     1
 10
363.5273832808
 20
40.0026019035
 30
0.0
 40
10.0
  1
810
 41
0.7
 11
363.5273832808
 21
37.1454590463
 31
0.0
 73
     1
  0
LINE
  5
135
  8
6
  6
CENTER
 62
     6
 10
290.2510462917
 20
228.3462098815
 30
0.0
 11
382.3837435825
 21
228.3462098815
 31
0.0
  0
ENDSEC
  0
EOF
