  0
SECTION
  2
HEADER
  9
$ACADVER
  1
AC1009
  9
$DWGCODEPAGE
  3
ansi_1252
  9
$INSBASE
 10
0.0
 20
0.0
 30
0.0
  9
$EXTMIN
 10
0.0
 20
0.0
 30
0.0
  9
$EXTMAX
 10
420.0
 20
297.0
 30
0.0
  9
$LIMMIN
 10
0.0
 20
0.0
  9
$LIMMAX
 10
0.0
 20
0.0
  9
$ORTHOMODE
 70
     0
  9
$REGENMODE
 70
     1
  9
$FILLMODE
 70
     1
  9
$QTEXTMODE
 70
     0
  9
$MIRRTEXT
 70
     1
  9
$DRAGMODE
 70
     2
  9
$LTSCALE
 40
1.0
  9
$OSMODE
 70
    37
  9
$ATTMODE
 70
     1
  9
$TEXTSIZE
 40
3.5
  9
$TRACEWID
 40
1.0
  9
$TEXTSTYLE
  7
STANDARD
  9
$CLAYER
  8
0
  9
$CELTYPE
  6
BYLAYER
  9
$CECOLOR
 62
   256
  9
$DIMSCALE
 40
1.0
  9
$DIMASZ
 40
5.0
  9
$DIMEXO
 40
1.0
  9
$DIMDLI
 40
3.75
  9
$DIMRND
 40
0.0
  9
$DIMDLE
 40
0.0
  9
$DIMEXE
 40
1.0
  9
$DIMTP
 40
0.0
  9
$DIMTM
 40
0.0
  9
$DIMTXT
 40
3.5
  9
$DIMCEN
 40
2.5
  9
$DIMTSZ
 40
0.0
  9
$DIMTOL
 70
     0
  9
$DIMLIM
 70
     0
  9
$DIMTIH
 70
     1
  9
$DIMTOH
 70
     1
  9
$DIMSE1
 70
     0
  9
$DIMSE2
 70
     0
  9
$DIMTAD
 70
     1
  9
$DIMZIN
 70
     0
  9
$DIMBLK
  1

  9
$DIMASO
 70
     1
  9
$DIMSHO
 70
     1
  9
$DIMPOST
  1

  9
$DIMAPOST
  1

  9
$DIMALT
 70
     0
  9
$DIMALTD
 70
     3
  9
$DIMALTF
 40
0.0393700787
  9
$DIMLFAC
 40
1.0
  9
$DIMTOFL
 70
     1
  9
$DIMTVP
 40
0.0
  9
$DIMTIX
 70
     0
  9
$DIMSOXD
 70
     0
  9
$DIMSAH
 70
     0
  9
$DIMBLK1
  1

  9
$DIMBLK2
  1

  9
$DIMSTYLE
  2
ISO-25
  9
$DIMCLRD
 70
     0
  9
$DIMCLRE
 70
     0
  9
$DIMCLRT
 70
     0
  9
$DIMTFAC
 40
1.0
  9
$DIMGAP
 40
1.524
  9
$LUNITS
 70
     2
  9
$LUPREC
 70
     2
  9
$SKETCHINC
 40
1.0
  9
$FILLETRAD
 40
10.0
  9
$AUNITS
 70
     0
  9
$AUPREC
 70
     0
  9
$MENU
  1
.
  9
$ELEVATION
 40
0.0
  9
$PELEVATION
 40
0.0
  9
$THICKNESS
 40
0.0
  9
$LIMCHECK
 70
     0
  9
$CHAMFERA
 40
10.0
  9
$CHAMFERB
 40
10.0
  9
$SKPOLY
 70
     0
  9
$TDCREATE
 40
2454490.535784317
  9
$TDUPDATE
 40
2454490.535784329
  9
$TDINDWG
 40
0.0000000116
  9
$TDUSRTIMER
 40
0.0000000116
  9
$USRTIMER
 70
     1
  9
$ANGBASE
 50
0.0
  9
$ANGDIR
 70
     0
  9
$PDMODE
 70
     0
  9
$PDSIZE
 40
-1.0
  9
$PLINEWID
 40
0.0
  9
$COORDS
 70
     1
  9
$SPLFRAME
 70
     0
  9
$SPLINETYPE
 70
     6
  9
$SPLINESEGS
 70
     8
  9
$ATTDIA
 70
     0
  9
$ATTREQ
 70
     1
  9
$HANDLING
 70
     1
  9
$HANDSEED
  5
F9
  9
$SURFTAB1
 70
     6
  9
$SURFTAB2
 70
     6
  9
$SURFTYPE
 70
     6
  9
$SURFU
 70
     6
  9
$SURFV
 70
     6
  9
$UCSNAME
  2

  9
$UCSORG
 10
0.0
 20
0.0
 30
0.0
  9
$UCSXDIR
 10
1.0
 20
0.0
 30
0.0
  9
$UCSYDIR
 10
0.0
 20
1.0
 30
0.0
  9
$PUCSNAME
  2

  9
$PUCSORG
 10
0.0
 20
0.0
 30
0.0
  9
$PUCSXDIR
 10
1.0
 20
0.0
 30
0.0
  9
$PUCSYDIR
 10
0.0
 20
1.0
 30
0.0
  9
$USERI1
 70
     0
  9
$USERI2
 70
     0
  9
$USERI3
 70
     0
  9
$USERI4
 70
     0
  9
$USERI5
 70
     0
  9
$USERR1
 40
0.0
  9
$USERR2
 40
0.0
  9
$USERR3
 40
0.0
  9
$USERR4
 40
0.0
  9
$USERR5
 40
0.0
  9
$WORLDVIEW
 70
     1
  9
$SHADEDGE
 70
     3
  9
$SHADEDIF
 70
    70
  9
$TILEMODE
 70
     1
  9
$MAXACTVP
 70
    64
  9
$PLIMCHECK
 70
     0
  9
$PEXTMIN
 10
1.0000000000E+20
 20
1.0000000000E+20
 30
1.0000000000E+20
  9
$PEXTMAX
 10
-1.0000000000E+20
 20
-1.0000000000E+20
 30
-1.0000000000E+20
  9
$PLIMMIN
 10
0.0
 20
0.0
  9
$PLIMMAX
 10
420.0
 20
297.0
  9
$UNITMODE
 70
     0
  9
$VISRETAIN
 70
     1
  9
$PLINEGEN
 70
     0
  9
$PSLTSCALE
 70
     1
  0
ENDSEC
  0
SECTION
  2
TABLES
  0
TABLE
  2
VPORT
 70
     1
  0
VPORT
  2
*ACTIVE
 70
     0
 10
0.0
 20
0.0
 11
1.0
 21
1.0
 12
210.0
 22
148.5
 13
0.0
 23
0.0
 14
10.0
 24
10.0
 15
10.0
 25
10.0
 16
0.0
 26
0.0
 36
1.0
 17
0.0
 27
0.0
 37
0.0
 40
297.0
 41
1.4141414141
 42
50.0
 43
0.0
 44
0.0
 50
0.0
 51
0.0
 71
     0
 72
  2000
 73
     1
 74
     3
 75
     0
 76
     0
 77
     0
 78
     0
  0
ENDTAB
  0
TABLE
  2
LTYPE
 70
     6
  0
LTYPE
  2
CONTINUOUS
 70
     0
  3
Solid line
 72
    65
 73
     0
 40
0.0
  0
LTYPE
  2
HIDDEN
 70
     0
  3
Hidden __ __ __ __ __ __ __ __ __ __ __ __ __ __
 72
    65
 73
     2
 40
1.905
 49
1.27
 49
-0.635
  0
LTYPE
  2
PHANTOM
 70
     0
  3
Phantom ______  __  __  ______  __  __  ______
 72
    65
 73
     6
 40
12.7
 49
6.35
 49
-1.27
 49
1.27
 49
-1.27
 49
1.27
 49
-1.27
  0
LTYPE
  2
CENTER
 70
     0
  3
Center ____ _ ____ _ ____ _ ____ _ ____ _ ____
 72
    65
 73
     4
 40
10.16
 49
6.35
 49
-1.27
 49
1.27
 49
-1.27
  0
LTYPE
  2
CENTERX2
 70
     0
  3
Center (2x) ________  __  ________  __  _____
 72
    65
 73
     4
 40
20.32
 49
12.7
 49
-2.54
 49
2.54
 49
-2.54
  0
LTYPE
  2
DOT2
 70
     0
  3
Dot (.5x) ........................................
 72
    65
 73
     2
 40
0.635
 49
0.0
 49
-0.635
  0
ENDTAB
  0
TABLE
  2
LAYER
 70
     6
  0
LAYER
  2
0
 70
     0
 62
     7
  6
CONTINUOUS
  0
LAYER
  2
DEFPOINTS
 70
     0
 62
     7
  6
CONTINUOUS
  0
LAYER
  2
7
 70
     0
 62
     7
  6
CONTINUOUS
  0
LAYER
  2
1
 70
     0
 62
     1
  6
CONTINUOUS
  0
LAYER
  2
2
 70
     0
 62
     2
  6
PHANTOM
  0
LAYER
  2
6
 70
     0
 62
     6
  6
CONTINUOUS
  0
ENDTAB
  0
TABLE
  2
STYLE
 70
     1
  0
STYLE
  2
STANDARD
 70
     0
 40
0.0
 41
1.0
 50
0.0
 71
     0
 42
2.5
  3
txt
  4

  0
ENDTAB
  0
TABLE
  2
VIEW
 70
     0
  0
ENDTAB
  0
TABLE
  2
UCS
 70
     0
  0
ENDTAB
  0
TABLE
  2
APPID
 70
     1
  0
APPID
  2
ACAD
 70
     0
  0
ENDTAB
  0
TABLE
  2
DIMSTYLE
 70
     5
  0
DIMSTYLE
  2
ISO-25
 70
     0
  3

  4

  5

  6

  7

 40
1.0
 41
2.5
 42
0.625
 43
3.75
 44
1.25
 45
0.0
 46
0.0
 47
0.0
 48
0.0
140
2.5
141
2.5
142
0.0
143
0.0393700787
144
1.0
145
0.0
146
1.0
147
0.625
 71
     0
 72
     0
 73
     0
 74
     0
 75
     0
 76
     0
 77
     1
 78
     8
170
     0
171
     3
172
     1
173
     0
174
     0
175
     0
176
     0
177
     0
178
     0
  0
DIMSTYLE
  2
SLDDIMSTYLE0
 70
     0
  3

  4

  5

  6

  7

 40
1.0
 41
5.0
 42
0.0625
 43
0.38
 44
0.0
 45
0.0
 46
0.0
 47
0.0
 48
0.0
140
3.5
141
0.09
142
0.0
143
25.4
144
1.0
145
0.0
146
1.0
147
0.875
 71
     0
 72
     0
 73
     0
 74
     1
 75
     0
 76
     0
 77
     1
 78
    12
170
     0
171
     2
172
     0
173
     1
174
     0
175
     0
176
     0
177
     0
178
     0
  0
DIMSTYLE
  2
SLDDIMSTYLE1
 70
     0
  3

  4

  5

  6

  7

 40
1.0
 41
5.0
 42
0.0625
 43
0.38
 44
0.0
 45
0.0
 46
0.0
 47
0.0
 48
0.0
140
3.5
141
0.09
142
0.0
143
25.4
144
1.0
145
0.0
146
1.0
147
0.875
 71
     0
 72
     0
 73
     0
 74
     1
 75
     0
 76
     0
 77
     1
 78
    12
170
     0
171
     2
172
     0
173
     1
174
     0
175
     0
176
     0
177
     0
178
     0
  0
DIMSTYLE
  2
SLDDIMSTYLE2
 70
     0
  3

  4

  5

  6

  7

 40
1.0
 41
5.0
 42
0.0625
 43
0.38
 44
0.0
 45
0.0
 46
0.0
 47
0.0
 48
0.0
140
3.5
141
0.09
142
0.0
143
25.4
144
1.0
145
0.0
146
1.0
147
0.875
 71
     0
 72
     0
 73
     0
 74
     1
 75
     0
 76
     0
 77
     1
 78
    12
170
     0
171
     2
172
     0
173
     1
174
     0
175
     0
176
     0
177
     0
178
     0
  0
DIMSTYLE
  2
SLDDIMSTYLE3
 70
     0
  3

  4

  5

  6

  7

 40
1.0
 41
5.0
 42
0.0625
 43
0.38
 44
0.0
 45
0.0
 46
0.0
 47
0.0
 48
0.0
140
3.5
141
0.09
142
0.0
143
25.4
144
1.0
145
0.0
146
1.0
147
0.875
 71
     0
 72
     0
 73
     0
 74
     1
 75
     0
 76
     0
 77
     1
 78
    12
170
     0
171
     2
172
     0
173
     1
174
     0
175
     0
176
     0
177
     0
178
     0
  0
ENDTAB
  0
ENDSEC
  0
SECTION
  2
BLOCKS
  0
BLOCK
  8
0
  2
$MODEL_SPACE
 70
     0
 10
0.0
 20
0.0
 30
0.0
  3
$MODEL_SPACE
  1

  0
ENDBLK
  5
21
  8
0
  0
BLOCK
 67
     1
  8
0
  2
$PAPER_SPACE
 70
     0
 10
0.0
 20
0.0
 30
0.0
  3
$PAPER_SPACE
  1

  0
ENDBLK
  5
1D
 67
     1
  8
0
  0
BLOCK
  8
0
  2
SW_NOTE_0
 70
     0
 10
0.0
 20
0.0
 30
0.0
  3
SW_NOTE_0
  1

  0
TEXT
  5
41
  8
2
  6
CONTINUOUS
 62
     0
 10
0.0
 20
1.0
 30
0.0
 40
3.5
  1
Diese Zeichnung ist gemäß Urheberrecht gesetzlich geschützt
 41
0.6644067797
 11
0.0
 21
0.0
 31
0.0
 73
     1
  0
TEXT
  5
42
  8
2
  6
CONTINUOUS
 62
     0
 10
0.0
 20
-8.0513890609
 30
0.0
 40
3.5
  1
This drawing is protected under copyright law; unauthorizid disclosure,
 41
0.6605633803
 11
0.0
 21
-9.0513890609
 31
0.0
 73
     1
  0
TEXT
  5
43
  8
2
  6
CONTINUOUS
 62
     0
 10
0.0
 20
-12.5770835914
 30
0.0
 40
3.5
  1
reprodution or use is prohibted.
 41
0.65625
 11
0.0
 21
-13.5770835914
 31
0.0
 73
     1
  0
ENDBLK
  5
40
  8
0
  0
BLOCK
  8
0
  2
SW_NOTE_1
 70
     0
 10
0.0
 20
0.0
 30
0.0
  3
SW_NOTE_1
  1

  0
TEXT
  5
49
  8
2
  6
CONTINUOUS
 62
     0
 10
0.0
 20
1.0
 30
0.0
 40
3.5
  1
Vieler International GmbH+Co.KG
 41
0.6774193548
 11
0.0
 21
0.0
 31
0.0
 73
     1
  0
TEXT
  5
4A
  8
2
  6
CONTINUOUS
 62
     0
 10
22.5458340719
 20
-3.5256945305
 30
0.0
 40
3.5
  1
58642 Iserlohn
 41
0.7
 11
22.5458340719
 21
-4.5256945305
 31
0.0
 73
     1
  0
ENDBLK
  5
48
  8
0
  0
BLOCK
  8
0
  2
*D3
 70
     1
 10
0.0
 20
0.0
 30
0.0
  3
*D3
  1

  0
SOLID
  5
54
  8
6
  6
CONTINUOUS
 62
     6
 10
185.518340231
 20
249.4654430268
 30
0.0
 11
185.018340231
 21
244.4654430268
 31
0.0
 12
186.018340231
 22
244.4654430268
 32
0.0
 13
186.018340231
 23
244.4654430268
 33
0.0
  0
SOLID
  5
55
  8
6
  6
CONTINUOUS
 62
     6
 10
185.518340231
 20
194.9654430268
 30
0.0
 11
186.018340231
 21
199.9654430268
 31
0.0
 12
185.018340231
 22
199.9654430268
 32
0.0
 13
185.018340231
 23
199.9654430268
 33
0.0
  0
LINE
  5
56
  8
6
  6
CONTINUOUS
 62
     6
 10
143.018340231
 20
249.4654430268
 30
0.0
 11
186.518340231
 21
249.4654430268
 31
0.0
  0
LINE
  5
57
  8
6
  6
CONTINUOUS
 62
     6
 10
143.018340231
 20
194.9654430268
 30
0.0
 11
186.518340231
 21
194.9654430268
 31
0.0
  0
LINE
  5
58
  8
6
  6
CONTINUOUS
 62
     6
 10
185.518340231
 20
249.4654430268
 30
0.0
 11
185.518340231
 21
194.9654430268
 31
0.0
  0
TEXT
  5
59
  8
6
  6
CONTINUOUS
 62
     6
 10
184.518340231
 20
218.7275028844
 30
0.0
 40
3.5
  1
%%c
 50
90.0
 41
0.7
 11
185.518340231
 21
218.7275028844
 31
0.0
 73
     1
  0
TEXT
  5
5A
  8
6
  6
CONTINUOUS
 62
     6
 10
184.5183404056
 20
224.002684197
 30
0.0
 40
3.5
  1
55
 50
90.0
 41
0.7
 11
185.5183404056
 21
224.002684197
 31
0.0
 73
     1
  0
ENDBLK
  5
53
  8
0
  0
BLOCK
  8
0
  2
SW_CENTERMARKSYMBOL_0
 70
     0
 10
0.0
 20
0.0
 30
0.0
  3
SW_CENTERMARKSYMBOL_0
  1

  0
LINE
  5
5E
  8
6
  6
CENTER
 62
     0
 10
0.0
 20
0.0
 30
0.0
 11
0.0
 21
2.5
 31
0.0
  0
LINE
  5
5F
  8
6
  6
CENTER
 62
     0
 10
0.0
 20
0.0
 30
0.0
 11
-2.5
 21
0.0
 31
0.0
  0
LINE
  5
60
  8
6
  6
CENTER
 62
     0
 10
0.0
 20
0.0
 30
0.0
 11
0.0
 21
-2.5
 31
0.0
  0
LINE
  5
61
  8
6
  6
CENTER
 62
     0
 10
0.0
 20
0.0
 30
0.0
 11
2.5
 21
0.0
 31
0.0
  0
LINE
  5
62
  8
6
  6
CENTER
 62
     0
 10
0.0
 20
5.0
 30
0.0
 11
0.0
 21
29.75
 31
0.0
  0
LINE
  5
63
  8
6
  6
CENTER
 62
     0
 10
-5.0
 20
0.0
 30
0.0
 11
-29.75
 21
0.0
 31
0.0
  0
LINE
  5
64
  8
6
  6
CENTER
 62
     0
 10
0.0
 20
-5.0
 30
0.0
 11
0.0
 21
-29.75
 31
0.0
  0
LINE
  5
65
  8
6
  6
CENTER
 62
     0
 10
5.0
 20
0.0
 30
0.0
 11
29.75
 21
0.0
 31
0.0
  0
ENDBLK
  5
5D
  8
0
  0
BLOCK
  8
0
  2
*D5
 70
     1
 10
0.0
 20
0.0
 30
0.0
  3
*D5
  1

  0
SOLID
  5
8D
  8
6
  6
CONTINUOUS
 62
     6
 10
123.018340231
 20
169.5560355926
 30
0.0
 11
128.018340231
 21
169.0560355926
 31
0.0
 12
128.018340231
 22
170.0560355926
 32
0.0
 13
128.018340231
 23
170.0560355926
 33
0.0
  0
SOLID
  5
8E
  8
6
  6
CONTINUOUS
 62
     6
 10
161.018340231
 20
169.5560355926
 30
0.0
 11
156.018340231
 21
170.0560355926
 31
0.0
 12
156.018340231
 22
169.0560355926
 32
0.0
 13
156.018340231
 23
169.0560355926
 33
0.0
  0
LINE
  5
8F
  8
6
  6
CONTINUOUS
 62
     6
 10
123.018340231
 20
153.2153167431
 30
0.0
 11
123.018340231
 21
170.5560355926
 31
0.0
  0
LINE
  5
90
  8
6
  6
CONTINUOUS
 62
     6
 10
161.018340231
 20
153.2153167431
 30
0.0
 11
161.018340231
 21
170.5560355926
 31
0.0
  0
LINE
  5
91
  8
6
  6
CONTINUOUS
 62
     6
 10
123.018340231
 20
169.5560355926
 30
0.0
 11
161.018340231
 21
169.5560355926
 31
0.0
  0
TEXT
  5
92
  8
6
  6
CONTINUOUS
 62
     6
 10
138.0521382748
 20
170.556035418
 30
0.0
 40
3.5
  1
38
 41
0.7
 11
138.0521382748
 21
169.556035418
 31
0.0
 73
     1
  0
ENDBLK
  5
8C
  8
0
  0
BLOCK
  8
0
  2
*D6
 70
     1
 10
0.0
 20
0.0
 30
0.0
  3
*D6
  1

  0
SOLID
  5
98
  8
6
  6
CONTINUOUS
 62
     6
 10
184.1113240304
 20
146.1088810424
 30
0.0
 11
184.6113240304
 21
151.1088810424
 31
0.0
 12
183.6113240304
 22
151.1088810424
 32
0.0
 13
183.6113240304
 23
151.1088810424
 33
0.0
  0
SOLID
  5
99
  8
6
  6
CONTINUOUS
 62
     6
 10
184.1113240304
 20
135.6088810424
 30
0.0
 11
183.6113240304
 21
130.6088810424
 31
0.0
 12
184.6113240304
 22
130.6088810424
 32
0.0
 13
184.6113240304
 23
130.6088810424
 33
0.0
  0
LINE
  5
9A
  8
6
  6
CONTINUOUS
 62
     6
 10
170.518340231
 20
146.1088810424
 30
0.0
 11
185.1113240304
 21
146.1088810424
 31
0.0
  0
LINE
  5
9B
  8
6
  6
CONTINUOUS
 62
     6
 10
170.018340231
 20
135.6088810424
 30
0.0
 11
185.1113240304
 21
135.6088810424
 31
0.0
  0
LINE
  5
9C
  8
6
  6
CONTINUOUS
 62
     6
 10
184.1113240304
 20
146.1088810424
 30
0.0
 11
184.1113240304
 21
156.1088810424
 31
0.0
  0
LINE
  5
9D
  8
6
  6
CONTINUOUS
 62
     6
 10
184.1113240304
 20
146.1088810424
 30
0.0
 11
184.1113240304
 21
135.6088810424
 31
0.0
  0
LINE
  5
9E
  8
6
  6
CONTINUOUS
 62
     6
 10
184.1113240304
 20
135.6088810424
 30
0.0
 11
184.1113240304
 21
125.6088810424
 31
0.0
  0
TEXT
  5
9F
  8
6
  6
CONTINUOUS
 62
     6
 10
183.111324205
 20
138.6101961513
 30
0.0
 40
3.5
  1
10
 50
90.0
 41
0.7
 11
184.111324205
 21
138.6101961513
 31
0.0
 73
     1
  0
ENDBLK
  5
97
  8
0
  0
BLOCK
  8
0
  2
*D7
 70
     1
 10
0.0
 20
0.0
 30
0.0
  3
*D7
  1

  0
SOLID
  5
A5
  8
6
  6
CONTINUOUS
 62
     6
 10
118.768340231
 20
160.9088810424
 30
0.0
 11
113.768340231
 21
161.4088810424
 31
0.0
 12
113.768340231
 22
160.4088810424
 32
0.0
 13
113.768340231
 23
160.4088810424
 33
0.0
  0
SOLID
  5
A6
  8
6
  6
CONTINUOUS
 62
     6
 10
127.209842767
 20
160.9088810424
 30
0.0
 11
132.209842767
 21
160.4088810424
 31
0.0
 12
132.209842767
 22
161.4088810424
 32
0.0
 13
132.209842767
 23
161.4088810424
 33
0.0
  0
LINE
  5
A7
  8
6
  6
CONTINUOUS
 62
     6
 10
118.768340231
 20
146.9088810424
 30
0.0
 11
118.768340231
 21
161.9088810424
 31
0.0
  0
LINE
  5
A8
  8
6
  6
CONTINUOUS
 62
     6
 10
127.209842767
 20
146.9088810424
 30
0.0
 11
127.209842767
 21
161.9088810424
 31
0.0
  0
LINE
  5
A9
  8
6
  6
CONTINUOUS
 62
     6
 10
118.768340231
 20
160.9088810424
 30
0.0
 11
108.768340231
 21
160.9088810424
 31
0.0
  0
LINE
  5
AA
  8
6
  6
CONTINUOUS
 62
     6
 10
118.768340231
 20
160.9088810424
 30
0.0
 11
127.209842767
 21
160.9088810424
 31
0.0
  0
LINE
  5
AB
  8
6
  6
CONTINUOUS
 62
     6
 10
127.209842767
 20
160.9088810424
 30
0.0
 11
139.9190296701
 21
160.9088810424
 31
0.0
  0
TEXT
  5
AC
  8
6
  6
CONTINUOUS
 62
     6
 10
130.4735585911
 20
161.9088810424
 30
0.0
 40
3.5
  1
%%c
 50
360.0
 41
0.7
 11
130.4735585911
 21
160.9088810424
 31
0.0
 73
     1
  0
TEXT
  5
AD
  8
6
  6
CONTINUOUS
 62
     6
 10
135.7487399037
 20
161.9088808678
 30
0.0
 40
3.5
  1
8
 50
360.0
 41
0.7
 11
135.7487399037
 21
160.9088808678
 31
0.0
 73
     1
  0
ENDBLK
  5
A4
  8
0
  0
BLOCK
  8
0
  2
*D8
 70
     1
 10
0.0
 20
0.0
 30
0.0
  3
*D8
  1

  0
SOLID
  5
B2
  8
6
  6
CONTINUOUS
 62
     6
 10
100.8725061383
 20
146.1088810424
 30
0.0
 11
100.3725061383
 21
141.1088810424
 31
0.0
 12
101.3725061383
 22
141.1088810424
 32
0.0
 13
101.3725061383
 23
141.1088810424
 33
0.0
  0
SOLID
  5
B3
  8
6
  6
CONTINUOUS
 62
     6
 10
100.8725061383
 20
150.9088810424
 30
0.0
 11
101.3725061383
 21
155.9088810424
 31
0.0
 12
100.3725061383
 22
155.9088810424
 32
0.0
 13
100.3725061383
 23
155.9088810424
 33
0.0
  0
LINE
  5
B4
  8
6
  6
CONTINUOUS
 62
     6
 10
113.518340231
 20
146.1088810424
 30
0.0
 11
99.8725061383
 21
146.1088810424
 31
0.0
  0
LINE
  5
B5
  8
6
  6
CONTINUOUS
 62
     6
 10
119.518340231
 20
150.9088810424
 30
0.0
 11
99.8725061383
 21
150.9088810424
 31
0.0
  0
LINE
  5
B6
  8
6
  6
CONTINUOUS
 62
     6
 10
100.8725061383
 20
146.1088810424
 30
0.0
 11
100.8725061383
 21
134.9442680075
 31
0.0
  0
LINE
  5
B7
  8
6
  6
CONTINUOUS
 62
     6
 10
100.8725061383
 20
146.1088810424
 30
0.0
 11
100.8725061383
 21
150.9088810424
 31
0.0
  0
LINE
  5
B8
  8
6
  6
CONTINUOUS
 62
     6
 10
100.8725061383
 20
150.9088810424
 30
0.0
 11
100.8725061383
 21
160.9088810424
 31
0.0
  0
TEXT
  5
B9
  8
6
  6
CONTINUOUS
 62
     6
 10
99.8725063129
 20
136.5317680075
 30
0.0
 40
3.5
  1
5
 50
90.0
 41
0.7
 11
100.8725063129
 21
136.5317680075
 31
0.0
 73
     1
  0
ENDBLK
  5
B1
  8
0
  0
BLOCK
  8
0
  2
*D9
 70
     1
 10
0.0
 20
0.0
 30
0.0
  3
*D9
  1

  0
SOLID
  5
BE
  8
6
  6
CONTINUOUS
 62
     6
 10
132.018340231
 20
119.6180633312
 30
0.0
 11
137.018340231
 21
119.1180633312
 31
0.0
 12
137.018340231
 22
120.1180633312
 32
0.0
 13
137.018340231
 23
120.1180633312
 33
0.0
  0
SOLID
  5
BF
  8
6
  6
CONTINUOUS
 62
     6
 10
152.018340231
 20
119.6180633312
 30
0.0
 11
147.018340231
 21
120.1180633312
 31
0.0
 12
147.018340231
 22
119.1180633312
 32
0.0
 13
147.018340231
 23
119.1180633312
 33
0.0
  0
LINE
  5
C0
  8
6
  6
CONTINUOUS
 62
     6
 10
132.018340231
 20
119.6180633312
 30
0.0
 11
110.6241649148
 21
119.6180633312
 31
0.0
  0
LINE
  5
C1
  8
6
  6
CONTINUOUS
 62
     6
 10
132.018340231
 20
119.6180633312
 30
0.0
 11
152.018340231
 21
119.6180633312
 31
0.0
  0
TEXT
  5
C2
  8
6
  6
CONTINUOUS
 62
     6
 10
112.2116649148
 20
120.6180633312
 30
0.0
 40
3.5
  1
%%c
 41
0.7
 11
112.2116649148
 21
119.6180633312
 31
0.0
 73
     1
  0
TEXT
  5
C3
  8
6
  6
CONTINUOUS
 62
     6
 10
117.4868462274
 20
120.6180631566
 30
0.0
 40
3.5
  1
20
 41
0.7
 11
117.4868462274
 21
119.6180631566
 31
0.0
 73
     1
  0
ENDBLK
  5
BD
  8
0
  0
BLOCK
  8
0
  2
*D10
 70
     1
 10
0.0
 20
0.0
 30
0.0
  3
*D10
  1

  0
SOLID
  5
E6
  8
6
  6
CONTINUOUS
 62
     6
 10
255.1283182925
 20
249.7154430268
 30
0.0
 11
254.6283182925
 21
244.7154430268
 31
0.0
 12
255.6283182925
 22
244.7154430268
 32
0.0
 13
255.6283182925
 23
244.7154430268
 33
0.0
  0
SOLID
  5
E7
  8
6
  6
CONTINUOUS
 62
     6
 10
255.1283182925
 20
194.7154430268
 30
0.0
 11
255.6283182925
 21
199.7154430268
 31
0.0
 12
254.6283182925
 22
199.7154430268
 32
0.0
 13
254.6283182925
 23
199.7154430268
 33
0.0
  0
LINE
  5
E8
  8
6
  6
CONTINUOUS
 62
     6
 10
268.9283182925
 20
249.7154430268
 30
0.0
 11
254.1283182925
 21
249.7154430268
 31
0.0
  0
LINE
  5
E9
  8
6
  6
CONTINUOUS
 62
     6
 10
269.9283182925
 20
194.7154430268
 30
0.0
 11
254.1283182925
 21
194.7154430268
 31
0.0
  0
LINE
  5
EA
  8
6
  6
CONTINUOUS
 62
     6
 10
255.1283182925
 20
249.7154430268
 30
0.0
 11
255.1283182925
 21
194.7154430268
 31
0.0
  0
TEXT
  5
EB
  8
6
  6
CONTINUOUS
 62
     6
 10
254.1283182925
 20
220.2812827542
 30
0.0
 40
3.5
  1
%%c
 50
90.0
 41
0.7
 11
255.1283182925
 21
220.2812827542
 31
0.0
 73
     1
  0
TEXT
  5
EC
  8
6
  6
CONTINUOUS
 62
     6
 10
254.1283184671
 20
225.5564640668
 30
0.0
 40
3.5
  1
55
 50
90.0
 41
0.7
 11
255.1283184671
 21
225.5564640668
 31
0.0
 73
     1
  0
ENDBLK
  5
E5
  8
0
  0
BLOCK
  8
0
  2
*D11
 70
     1
 10
0.0
 20
0.0
 30
0.0
  3
*D11
  1

  0
SOLID
  5
F1
  8
6
  6
CONTINUOUS
 62
     6
 10
269.9283182925
 20
178.7154430268
 30
0.0
 11
274.9283182925
 21
178.2154430268
 31
0.0
 12
274.9283182925
 22
179.2154430268
 32
0.0
 13
274.9283182925
 23
179.2154430268
 33
0.0
  0
SOLID
  5
F2
  8
6
  6
CONTINUOUS
 62
     6
 10
329.1783182925
 20
178.7154430268
 30
0.0
 11
324.1783182925
 21
179.2154430268
 31
0.0
 12
324.1783182925
 22
178.2154430268
 32
0.0
 13
324.1783182925
 23
178.2154430268
 33
0.0
  0
LINE
  5
F3
  8
6
  6
CONTINUOUS
 62
     6
 10
269.9283182925
 20
193.8795691611
 30
0.0
 11
269.9283182925
 21
177.7154430268
 31
0.0
  0
LINE
  5
F4
  8
6
  6
CONTINUOUS
 62
     6
 10
329.1783182925
 20
195.4654430268
 30
0.0
 11
329.1783182925
 21
177.7154430268
 31
0.0
  0
LINE
  5
F5
  8
6
  6
CONTINUOUS
 62
     6
 10
269.9283182925
 20
178.7154430268
 30
0.0
 11
329.1783182925
 21
178.7154430268
 31
0.0
  0
TEXT
  5
F6
  8
6
  6
CONTINUOUS
 62
     6
 10
302.6102230579
 20
179.7154428522
 30
0.0
 40
3.5
  1
59
 50
360.0
 41
0.7
 11
302.6102230579
 21
178.7154428522
 31
0.0
 73
     1
  0
ENDBLK
  5
F0
  8
0
  0
ENDSEC
  0
SECTION
  2
ENTITIES
  0
LINE
  5
34
  8
6
  6
CONTINUOUS
 62
     6
 10
20.0
 20
287.0
 30
0.0
 11
20.0
 21
9.0
 31
0.0
  0
LINE
  5
35
  8
6
  6
CONTINUOUS
 62
     6
 10
20.0
 20
148.5
 30
0.0
 11
13.375265605
 21
148.5
 31
0.0
  0
LINE
  5
36
  8
6
  6
CONTINUOUS
 62
     6
 10
20.0
 20
287.0
 30
0.0
 11
414.5
 21
287.0
 31
0.0
  0
LINE
  5
37
  8
6
  6
CONTINUOUS
 62
     6
 10
20.0
 20
9.0
 30
0.0
 11
414.5
 21
9.0
 31
0.0
  0
LINE
  5
38
  8
6
  6
CONTINUOUS
 62
     6
 10
0.0
 20
297.0
 30
0.0
 11
420.0
 21
297.0
 31
0.0
  0
LINE
  5
39
  8
6
  6
CONTINUOUS
 62
     6
 10
420.0
 20
297.0
 30
0.0
 11
420.0
 21
0.0
 31
0.0
  0
LINE
  5
3A
  8
6
  6
CONTINUOUS
 62
     6
 10
420.0
 20
0.0
 30
0.0
 11
0.0
 21
0.0
 31
0.0
  0
LINE
  5
3B
  8
6
  6
CONTINUOUS
 62
     6
 10
0.0
 20
0.0
 30
0.0
 11
0.0
 21
297.0
 31
0.0
  0
LINE
  5
3C
  8
6
  6
CONTINUOUS
 62
     6
 10
414.5
 20
52.5
 30
0.0
 11
414.5
 21
287.0
 31
0.0
  0
LINE
  5
3D
  8
6
  6
CONTINUOUS
 62
     6
 10
414.5
 20
52.5
 30
0.0
 11
414.5
 21
9.0
 31
0.0
  0
INSERT
  5
44
  8
2
  6
CONTINUOUS
 62
     1
  2
SW_NOTE_0
 10
25.131147541
 20
27.4759448138
 30
0.0
  0
TEXT
  5
45
  8
2
  6
CONTINUOUS
 62
     1
 10
312.7010196007
 20
39.8322418184
 30
0.0
 40
10.0
  1
Modell 
 41
0.7
 11
312.7010196007
 21
36.9750989613
 31
0.0
 73
     1
  0
INSERT
  5
4B
  8
2
  6
CONTINUOUS
 62
     1
  2
SW_NOTE_1
 10
309.7662955082
 20
27.4759448138
 30
0.0
  0
TEXT
  5
4C
  8
2
  6
CONTINUOUS
 62
     1
 10
300.4572681642
 20
14.8988612224
 30
0.0
 40
3.5
  1
Datum/Date 01/2008    Maßstab/Scale 1:1
 41
0.6461538462
 11
300.4572681642
 21
13.8988612224
 31
0.0
 73
     1
  0
CIRCLE
  5
4D
  8
0
  6
CONTINUOUS
 10
142.018340231
 20
222.2154430268
 30
0.0
 40
25.75
  0
CIRCLE
  5
4E
  8
0
  6
CONTINUOUS
 10
142.018340231
 20
222.2154430268
 30
0.0
 40
27.5
  0
DIMENSION
  5
4F
  8
6
  6
CONTINUOUS
 62
     6
  2
*D3
 10
185.518340231
 20
194.9654430268
 30
0.0
 11
185.518340231
 21
223.9502659545
 31
0.0
 70
   160
  1
%%c<>
  3
SLDDIMSTYLE0
 13
142.018340231
 23
249.4654430268
 33
0.0
 14
142.018340231
 24
194.9654430268
 34
0.0
 50
90.0
  0
INSERT
  5
66
  8
6
  6
CENTER
 62
     6
  2
SW_CENTERMARKSYMBOL_0
 10
142.018340231
 20
222.2154430268
 30
0.0
  0
LINE
  5
67
  8
6
  6
CENTER
 62
     6
 10
123.018340231
 20
152.2153167431
 30
0.0
 11
123.018340231
 21
135.6088810424
 31
0.0
  0
LINE
  5
68
  8
6
  6
CENTER
 62
     6
 10
161.018340231
 20
152.2153167431
 30
0.0
 11
161.018340231
 21
135.6088810424
 31
0.0
  0
LINE
  5
69
  8
0
  6
CONTINUOUS
 10
114.7683408867
 20
105.3588812063
 30
0.0
 11
114.7683408867
 21
88.3588821451
 31
0.0
  0
LINE
  5
6A
  8
0
  6
CONTINUOUS
 10
169.2683395754
 20
88.3588821451
 30
0.0
 11
169.2683395754
 21
105.3588812063
 31
0.0
  0
ARC
  5
6B
  8
0
  6
CONTINUOUS
 10
167.768340231
 20
105.3588810424
 30
0.0
 40
1.5
 50
0.0
 51
90.0
  0
ARC
  5
6C
  8
0
  6
CONTINUOUS
 10
116.268340231
 20
105.3588810424
 30
0.0
 40
1.5
 50
90.0
 51
180.0
  0
ARC
  5
6D
  8
0
  6
CONTINUOUS
 10
116.268340231
 20
88.3588810424
 30
0.0
 40
1.5
 50
180.0
 51
270.0
  0
ARC
  5
6E
  8
0
  6
CONTINUOUS
 10
167.768340231
 20
88.3588810424
 30
0.0
 40
1.5
 50
270.0
 51
0.0
  0
LINE
  5
6F
  8
0
  6
CONTINUOUS
 10
132.0183404545
 20
135.6088810424
 30
0.0
 11
132.0183404545
 21
106.8588805208
 31
0.0
  0
LINE
  5
70
  8
0
  6
CONTINUOUS
 10
152.0183400075
 20
106.8588805208
 30
0.0
 11
152.0183400075
 21
135.6088810424
 31
0.0
  0
LINE
  5
71
  8
0
  6
CONTINUOUS
 10
114.51834038
 20
146.1088809008
 30
0.0
 11
114.51834038
 21
136.1088810661
 31
0.0
  0
LINE
  5
72
  8
0
  6
CONTINUOUS
 10
169.518340082
 20
136.1088810661
 30
0.0
 11
169.518340082
 21
146.1088809008
 31
0.0
  0
LINE
  5
73
  8
0
  6
CONTINUOUS
 10
114.51834038
 20
136.1088810661
 30
0.0
 11
115.0183395307
 21
135.6088810424
 31
0.0
  0
LINE
  5
74
  8
0
  6
CONTINUOUS
 10
169.0183409314
 20
135.6088810424
 30
0.0
 11
169.518340082
 21
136.1088810661
 31
0.0
  0
LINE
  5
75
  8
0
  6
CONTINUOUS
 10
165.2578578155
 20
146.1088809008
 30
0.0
 11
165.0324684392
 21
150.4095665003
 31
0.0
  0
LINE
  5
76
  8
0
  6
CONTINUOUS
 10
119.0042120229
 20
150.4095665003
 30
0.0
 11
118.7788226466
 21
146.1088809008
 31
0.0
  0
LINE
  5
77
  8
0
  6
CONTINUOUS
 10
165.0324684392
 20
150.4095665003
 30
0.0
 11
164.477923588
 21
150.9088811288
 31
0.0
  0
LINE
  5
78
  8
0
  6
CONTINUOUS
 10
119.558756874
 20
150.9088811288
 30
0.0
 11
119.0042120229
 21
150.4095665003
 31
0.0
  0
LINE
  5
79
  8
0
  6
CONTINUOUS
 10
116.2683402012
 20
106.8588805208
 30
0.0
 11
167.7683402608
 21
106.8588805208
 31
0.0
  0
LINE
  5
7A
  8
0
  6
CONTINUOUS
 10
142.018340231
 20
86.8588828305
 30
0.0
 11
116.2683402012
 21
86.8588828305
 31
0.0
  0
LINE
  5
7B
  8
0
  6
CONTINUOUS
 10
167.7683402608
 20
86.8588828305
 30
0.0
 11
142.018340231
 21
86.8588828305
 31
0.0
  0
LINE
  5
7C
  8
0
  6
CONTINUOUS
 10
114.51834038
 20
146.1088809008
 30
0.0
 11
169.518340082
 21
146.1088809008
 31
0.0
  0
LINE
  5
7D
  8
0
  6
CONTINUOUS
 10
169.0183409314
 20
135.6088810424
 30
0.0
 11
115.0183395307
 21
135.6088810424
 31
0.0
  0
ARC
  5
7E
  8
0
  6
CONTINUOUS
 10
146.7677446944
 20
149.7537273646
 30
0.0
 40
10.77275303182369
 50
340.2242682828
 51
357.9766743997
  0
LINE
  5
7F
  8
0
  6
CONTINUOUS
 10
157.533781306
 20
149.373380729
 30
0.0
 11
157.5973412777
 21
150.4095665003
 31
0.0
  0
ARC
  5
80
  8
0
  6
CONTINUOUS
 10
137.0341804754
 20
149.7065393299
 30
0.0
 40
10.53654976166783
 50
181.8119559378
 51
199.9649715946
  0
LINE
  5
81
  8
0
  6
CONTINUOUS
 10
126.502899156
 20
149.373380729
 30
0.0
 11
126.4393391843
 21
150.4095665003
 31
0.0
  0
LINE
  5
82
  8
0
  6
CONTINUOUS
 10
158.269026951
 20
150.9088811288
 30
0.0
 11
164.477923588
 21
150.9088811288
 31
0.0
  0
LINE
  5
83
  8
0
  6
CONTINUOUS
 10
157.5973412777
 20
150.4095665003
 30
0.0
 11
158.269026951
 21
150.9088811288
 31
0.0
  0
LINE
  5
84
  8
0
  6
CONTINUOUS
 10
119.558756874
 20
150.9088811288
 30
0.0
 11
125.767653511
 21
150.9088811288
 31
0.0
  0
LINE
  5
85
  8
0
  6
CONTINUOUS
 10
125.767653511
 20
150.9088811288
 30
0.0
 11
126.4393391843
 21
150.4095665003
 31
0.0
  0
LINE
  5
86
  8
0
  6
CONTINUOUS
 10
124.374806584
 20
150.9088811288
 30
0.0
 11
125.767653511
 21
150.9088811288
 31
0.0
  0
LINE
  5
87
  8
0
  6
CONTINUOUS
 10
159.6618738781
 20
150.9088811288
 30
0.0
 11
158.269026951
 21
150.9088811288
 31
0.0
  0
DIMENSION
  5
88
  8
6
  6
CONTINUOUS
 62
     6
  2
*D5
 10
161.018340231
 20
169.5560355926
 30
0.0
 11
140.6373106886
 21
169.5560355926
 31
0.0
 70
   160
  3
SLDDIMSTYLE1
 13
123.018340231
 23
152.2153167431
 33
0.0
 14
161.018340231
 24
152.2153167431
 34
0.0
  0
DIMENSION
  5
93
  8
6
  6
CONTINUOUS
 62
     6
  2
*D6
 10
184.1113240304
 20
135.6088810424
 30
0.0
 11
184.1113240304
 21
141.1953685651
 31
0.0
 70
   160
  1
10
  3
SLDDIMSTYLE2
 13
169.518340231
 23
146.1088810424
 33
0.0
 14
169.018340231
 24
135.6088810424
 34
0.0
 50
90.0
  0
DIMENSION
  5
A0
  8
6
  6
CONTINUOUS
 62
     6
  2
*D7
 10
127.209842767
 20
160.9088810424
 30
0.0
 11
134.4025441306
 21
160.9088810424
 31
0.0
 70
   160
  1
%%c<>
  3
SLDDIMSTYLE3
 13
118.768340231
 23
145.9088810424
 33
0.0
 14
127.209842767
 24
145.9088810424
 34
0.0
  0
DIMENSION
  5
AE
  8
6
  6
CONTINUOUS
 62
     6
  2
*D8
 10
100.8725061383
 20
150.9088810424
 30
0.0
 11
100.8725061383
 21
137.8231628907
 31
0.0
 70
   160
  3
SLDDIMSTYLE3
 13
114.518340231
 23
146.1088810424
 33
0.0
 14
120.518340231
 24
150.9088810424
 34
0.0
 50
90.0
  0
DIMENSION
  5
BA
  8
6
  6
CONTINUOUS
 62
     6
  2
*D9
 10
152.018340231
 20
119.6180633312
 30
0.0
 11
117.4344279849
 21
119.6180633312
 31
0.0
 70
   160
  1
%%c<>
  3
SLDDIMSTYLE1
 13
132.018340231
 23
106.8588810424
 33
0.0
 14
152.018340231
 24
106.8588810424
 34
0.0
  0
LINE
  5
C4
  8
6
  6
CENTER
 62
     6
 10
161.018340231
 20
143.9088810424
 30
0.0
 11
161.018340231
 21
152.409566275
 31
0.0
  0
LINE
  5
C5
  8
6
  6
CENTER
 62
     6
 10
123.018340231
 20
143.9088810424
 30
0.0
 11
123.018340231
 21
152.409566275
 31
0.0
  0
LINE
  5
C6
  8
6
  6
CENTER
 62
     6
 10
142.018340231
 20
85.1837606442
 30
0.0
 11
142.018340231
 21
147.8208253495
 31
0.0
  0
ARC
  5
C7
  8
0
  6
CONTINUOUS
 10
310.6783182925
 20
247.9654430268
 30
0.0
 40
1.500000000000028
 50
90.0
 51
180.0
  0
ARC
  5
C8
  8
0
  6
CONTINUOUS
 10
310.6783182925
 20
196.4654430268
 30
0.0
 40
1.5
 50
180.0
 51
270.0
  0
LINE
  5
C9
  8
0
  6
CONTINUOUS
 10
310.6783181286
 20
194.9654436824
 30
0.0
 11
327.6783171898
 21
194.9654436824
 31
0.0
  0
LINE
  5
CA
  8
0
  6
CONTINUOUS
 10
327.6783171898
 20
249.4654423711
 30
0.0
 11
310.6783181286
 21
249.4654423711
 31
0.0
  0
ARC
  5
CB
  8
0
  6
CONTINUOUS
 10
327.6783182925
 20
196.4654430268
 30
0.0
 40
1.5
 50
270.0
 51
0.0
  0
ARC
  5
CC
  8
0
  6
CONTINUOUS
 10
327.6783182925
 20
247.9654430268
 30
0.0
 40
1.500000000000028
 50
0.0
 51
90.0
  0
LINE
  5
CD
  8
0
  6
CONTINUOUS
 10
280.4283182925
 20
212.2154432503
 30
0.0
 11
309.178318814
 21
212.2154432503
 31
0.0
  0
LINE
  5
CE
  8
0
  6
CONTINUOUS
 10
309.178318814
 20
232.2154428033
 30
0.0
 11
280.4283182925
 21
232.2154428033
 31
0.0
  0
LINE
  5
CF
  8
0
  6
CONTINUOUS
 10
270.928318598
 20
194.7154431758
 30
0.0
 11
279.9283182687
 21
194.7154431758
 31
0.0
  0
LINE
  5
D0
  8
0
  6
CONTINUOUS
 10
279.9283182687
 20
249.7154428778
 30
0.0
 11
269.928318434
 21
249.7154428778
 31
0.0
  0
LINE
  5
D1
  8
0
  6
CONTINUOUS
 10
279.9283182687
 20
194.7154431758
 30
0.0
 11
280.4283182925
 21
195.2154423264
 31
0.0
  0
LINE
  5
D2
  8
0
  6
CONTINUOUS
 10
280.4283182925
 20
249.2154437271
 30
0.0
 11
279.9283182687
 21
249.7154428778
 31
0.0
  0
LINE
  5
D3
  8
0
  6
CONTINUOUS
 10
269.928318434
 20
226.4549616878
 30
0.0
 11
265.6276328346
 21
226.2295723115
 31
0.0
  0
LINE
  5
D4
  8
0
  6
CONTINUOUS
 10
265.6276328346
 20
218.201313742
 30
0.0
 11
269.928318434
 21
217.9759243657
 31
0.0
  0
LINE
  5
D5
  8
0
  6
CONTINUOUS
 10
265.6276328346
 20
226.2295723115
 30
0.0
 11
265.1283182061
 21
225.6750269947
 31
0.0
  0
LINE
  5
D6
  8
0
  6
CONTINUOUS
 10
265.1283182061
 20
218.7558590589
 30
0.0
 11
265.6276328346
 21
218.201313742
 31
0.0
  0
LINE
  5
D7
  8
0
  6
CONTINUOUS
 10
309.178318814
 20
196.465442997
 30
0.0
 11
309.178318814
 21
247.9654430566
 31
0.0
  0
LINE
  5
D8
  8
0
  6
CONTINUOUS
 10
329.1783165043
 20
247.9654430566
 30
0.0
 11
329.1783165043
 21
196.465442997
 31
0.0
  0
LINE
  5
D9
  8
0
  6
CONTINUOUS
 10
270.928318598
 20
194.7154431758
 30
0.0
 11
270.928318598
 21
194.8795682905
 31
0.0
  0
LINE
  5
DA
  8
0
  6
CONTINUOUS
 10
270.928318598
 20
194.8795682905
 30
0.0
 11
269.928318434
 21
194.8795682905
 31
0.0
  0
LINE
  5
DB
  8
0
  6
CONTINUOUS
 10
269.928318434
 20
194.8795682905
 30
0.0
 11
269.928318434
 21
249.7154428778
 31
0.0
  0
LINE
  5
DC
  8
0
  6
CONTINUOUS
 10
280.4283182925
 20
222.2154430268
 30
0.0
 11
280.4283182925
 21
195.2154423264
 31
0.0
  0
LINE
  5
DD
  8
0
  6
CONTINUOUS
 10
280.4283182925
 20
249.2154437271
 30
0.0
 11
280.4283182925
 21
222.2154430268
 31
0.0
  0
LINE
  5
DE
  8
0
  6
CONTINUOUS
 10
269.928318434
 20
194.8795682905
 30
0.0
 11
269.928318434
 21
196.0871062396
 31
0.0
  0
LINE
  5
DF
  8
0
  6
CONTINUOUS
 10
265.1283182061
 20
218.7558590589
 30
0.0
 11
265.1283182061
 21
225.6750269947
 31
0.0
  0
LINE
  5
E0
  8
0
  6
CONTINUOUS
 10
265.1283182061
 20
220.1154431017
 30
0.0
 11
265.1283182061
 21
219.7154430827
 31
0.0
  0
LINE
  5
E1
  8
0
  6
CONTINUOUS
 10
265.1283182061
 20
224.7154429709
 30
0.0
 11
265.1283182061
 21
224.3154429519
 31
0.0
  0
DIMENSION
  5
E2
  8
6
  6
CONTINUOUS
 62
     6
  2
*D10
 10
255.1283182925
 20
194.7154430268
 30
0.0
 11
255.1283182925
 21
225.5040458243
 31
0.0
 70
   160
  1
%%c<>
  3
SLDDIMSTYLE1
 13
269.9283182925
 23
249.7154430268
 33
0.0
 14
270.9283182925
 24
194.7154430268
 34
0.0
 50
90.0
  0
DIMENSION
  5
ED
  8
6
  6
CONTINUOUS
 62
     6
  2
*D11
 10
329.1783182925
 20
178.7154430268
 30
0.0
 11
305.1953954717
 21
178.7154430268
 31
0.0
 70
   160
  3
SLDDIMSTYLE3
 13
269.9283182925
 23
194.8795691611
 33
0.0
 14
329.1783182925
 24
196.4654430268
 34
0.0
  0
TEXT
  5
F7
  8
2
  6
CONTINUOUS
 62
     1
 10
360.9506968056
 20
39.9492975448
 30
0.0
 40
10.0
  1
539
 41
0.7
 11
360.9506968056
 21
37.0921546876
 31
0.0
 73
     1
  0
LINE
  5
F8
  8
6
  6
CENTER
 62
     6
 10
263.0725019037
 20
222.2154430268
 30
0.0
 11
331.4074796939
 21
222.2154430268
 31
0.0
  0
ENDSEC
  0
EOF
